osu file format v14

[General]
AudioFilename: audio.mp3
AudioLeadIn: 0
PreviewTime: 106041
Countdown: 0
SampleSet: Soft
StackLeniency: 0.6
Mode: 0
LetterboxInBreaks: 0
WidescreenStoryboard: 1

[Editor]
Bookmarks: 5670,11156,16642,22127,27613,33099,38585,44070,49556,55042,62242,67727,73213,78699,84185,89670,95156,100642,106127,111613,117099,122585,128070,133899,139385,144870,150356,155842,161327,166813,172299,177785,183270,188756,194070,199727,205556,211042,216527,222013,227499,232985,238470,244299,249439
DistanceSpacing: 1
BeatDivisor: 4
GridSize: 8
TimelineZoom: 1

[Metadata]
Title:Kiss no Hitotsu de
TitleUnicode:キスのひとつで
Artist:Sasaki Sayaka
ArtistUnicode:佐咲紗花
Creator:Left
Version:Akitoshi's Normal
Source:ちいさな彼女の小夜曲
Tags:chiisana kanojo no serenade ending Kalibe Akitoshi Garden Yamicchi SnowNiNo_
BeatmapID:1299628
BeatmapSetID:613158

[Difficulty]
HPDrainRate:4
CircleSize:3.3
OverallDifficulty:4
ApproachRate:5
SliderMultiplier:1.08
SliderTickRate:1

[Events]
//Background and Video events
0,0,"bg1.jpg",0,0
//Break Periods
2,62242,65155
2,145069,149155
2,180726,184812
//Storyboard Layer 0 (Background)
//Storyboard Layer 1 (Fail)
//Storyboard Layer 2 (Pass)
//Storyboard Layer 3 (Foreground)
//Storyboard Sound Samples

[TimingPoints]
185,342.857142857143,4,2,1,70,1,0
33099,-100,4,2,1,70,0,1
56585,-100,4,2,1,70,0,0
58127,342.857142857143,4,2,1,70,1,0
58469,-100,4,2,1,20,0,0
59498,-100,4,2,1,70,0,0
59841,-100,4,2,1,20,0,0
60869,-100,4,2,1,70,0,0
106127,-100,4,2,1,70,0,1
129612,-100,4,2,1,70,0,0
133898,342.857142857143,4,2,1,70,1,0
194069,-100,4,2,1,70,0,1
204012,-100,4,2,1,70,0,0
205555,342.857142857143,4,2,1,70,1,0
244297,342.857142857143,4,2,1,70,1,0
248411,-100,4,2,1,40,0,0
248754,-100,4,2,1,20,0,0
249097,-100,4,2,1,10,0,0
249439,-100,4,2,1,5,0,0

[Colours]
Combo1 : 208,255,183
Combo2 : 255,244,208
Combo3 : 154,221,254

[HitObjects]
176,174,185,6,0,P|113:187|19:74,2,216,2|2|0,0:3|0:0|0:0,0:0:0:0:
322,15,2242,1,0,0:0:0:0:
475,166,2927,6,0,B|493:315|493:315|462:374,2,216,2|2|0,0:0|0:0|0:0,0:0:0:0:
322,15,4985,1,0,0:0:0:0:
211,200,5670,6,0,P|173:170|6:185,2,216,2|2|0,0:0|0:0|0:0,0:0:0:0:
347,367,7727,1,0,0:0:0:0:
492,207,8413,6,0,P|498:159|402:21,2,216,2|2|0,0:0|0:0|0:0,0:0:0:0:
347,367,10470,1,0,0:0:0:0:
226,187,11156,6,0,B|164:175|164:175|85:193|85:193|8:177,1,216,4|2,0:0|0:0,0:0:0:0:
4,70,12185,1,0,0:0:0:0:
101,25,12527,2,0,P|203:18|288:106,1,216,2|0,0:0|0:0,0:0:0:0:
313,194,13556,1,2,0:0:0:0:
281,297,13899,6,0,B|323:322|385:322|385:322|439:301|479:257,1,216,0|2,0:0|0:0,0:0:0:0:
504,158,14927,1,0,0:0:0:0:
447,65,15270,2,0,B|349:39|331:109|228:71,1,216,0|0,0:0|0:0,0:0:0:0:
137,26,16299,1,0,0:0:0:0:
59,101,16642,6,0,L|66:226,1,108,2|0,0:0|0:0,0:0:0:0:
153,271,17327,2,0,P|207:219|350:258,1,216,2|2,0:0|0:0,0:0:0:0:
418,312,18356,1,0,0:0:0:0:
492,233,18699,2,0,L|487:114,1,108,0|0,0:0|0:0,0:0:0:0:
394,69,19385,6,0,P|343:84|274:67,1,108,0|0,0:0|0:0,0:0:0:0:
187,39,20070,2,0,P|136:24|67:41,1,108,2|2,0:0|0:0,0:0:0:0:
19,120,20756,1,2,1:2:0:0:
85,207,21099,1,0,0:0:0:0:
186,174,21442,2,0,L|307:181,1,108,0|2,0:0|0:0,0:0:0:0:
390,131,22127,6,0,P|363:97|301:73,2,108,4|0|0,1:2|1:0|1:0,0:0:0:0:
414,236,23156,1,2,1:2:0:0:
384,341,23499,2,0,P|308:300|299:170,1,216,2|2,1:0|0:0,0:0:0:0:
359,94,24527,1,2,1:2:0:0:
257,57,24870,6,0,L|133:63,1,108,2|0,1:2|1:0,0:0:0:0:
149,170,25556,2,0,L|273:176,1,108,2|2,1:2|1:2,0:0:0:0:
344,238,26242,1,2,1:2:0:0:
315,342,26585,1,0,1:0:0:0:
211,373,26927,2,0,L|144:370,1,54,2|0,1:2|0:0,0:0:0:0:
119,331,27270,2,0,L|52:334,1,54,8|4,0:3|0:3,0:0:0:0:
11,340,27613,5,2,0:3:0:0:
11,340,30356,6,0,P|61:357|125:342,2,108,6|0|10,1:2|1:0|1:2,0:0:0:0:
70,249,31385,1,10,1:2:0:0:
140,167,31727,2,0,L|314:175,1,162,0|2,0:0|0:0,0:0:0:0:
409,180,32585,2,0,P|433:132|431:74,1,108,8|0,0:0|1:0,0:0:0:0:
414,27,33099,6,0,L|300:35,1,108,6|8,1:2|0:0,0:0:0:0:
199,50,33785,1,2,1:2:0:0:
148,144,34127,1,10,0:1:0:0:
245,195,34470,2,0,P|303:195|361:227,1,108,6|10,1:0|0:0,0:0:0:0:
367,322,35156,2,0,P|309:322|251:354,1,108,4|10,1:0|0:0,0:0:0:0:
221,372,35670,1,2,0:1:0:0:
221,372,35842,6,0,L|99:361,1,108,4|8,1:0|0:0,0:0:0:0:
37,285,36527,1,2,1:2:0:0:
37,176,36870,1,10,0:1:0:0:
113,99,37213,2,0,P|162:81|223:91,1,108,6|10,1:0|0:0,0:0:0:0:
309,143,37899,2,0,P|358:161|419:151,1,108,4|10,1:0|0:0,0:0:0:0:
466,137,38413,1,2,0:1:0:0:
466,137,38585,6,0,L|475:260,2,108,4|8|0,1:0|0:0|1:0,0:0:0:0:
383,66,39613,1,10,0:1:0:0:
309,143,39956,2,0,P|257:153|199:133,1,108,2|10,1:2|0:1,0:0:0:0:
170,103,40470,1,2,0:0:0:0:
170,103,40642,2,0,P|118:93|60:113,1,108,0|10,0:0|0:0,0:0:0:0:
6,196,41327,6,0,L|19:315,1,108,2|10,1:2|0:1,0:0:0:0:
29,362,41842,1,0,0:0:0:0:
29,362,42013,2,0,P|83:370|139:352,1,108,2|10,1:2|0:0,0:0:0:0:
220,290,42699,1,2,1:0:0:0:
290,207,43042,1,8,0:3:0:0:
291,98,43385,2,0,L|365:91,1,54,2|8,1:0|0:3,0:0:0:0:
393,68,43727,2,0,L|467:75,1,54,4|0,0:3|1:0,0:0:0:0:
487,108,44070,6,0,P|503:161|493:220,1,108,6|8,1:2|0:0,0:0:0:0:
432,299,44756,1,2,1:2:0:0:
329,333,45099,1,10,0:1:0:0:
243,266,45442,2,0,P|190:250|131:260,1,108,6|10,1:0|0:0,0:0:0:0:
50,319,46127,2,0,P|30:268|47:199,1,108,4|10,1:0|0:0,0:0:0:0:
69,173,46642,1,2,0:1:0:0:
69,173,46813,6,0,L|59:54,1,108,4|8,1:0|0:0,0:0:0:0:
154,12,47499,1,2,1:2:0:0:
259,36,47842,1,10,0:1:0:0:
293,138,48185,2,0,P|345:146|409:122,1,108,6|10,1:0|0:0,0:0:0:0:
487,71,48870,2,0,P|504:123|495:175,1,108,4|10,1:0|0:0,0:0:0:0:
468,223,49385,1,2,0:1:0:0:
468,223,49556,6,0,L|480:352,2,108,4|8|0,1:0|0:0|1:0,0:0:0:0:
380,159,50585,1,10,0:1:0:0:
279,197,50927,2,0,P|225:210|155:194,1,108,2|10,1:2|0:0,0:0:0:0:
128,183,51442,1,2,0:1:0:0:
128,183,51613,2,0,L|122:302,1,108,0|10,1:0|0:0,0:0:0:0:
212,351,52299,6,0,L|331:357,1,108,2|10,1:2|0:1,0:0:0:0:
419,314,52985,1,0,1:0:0:0:
474,221,53327,2,0,L|467:157,1,54,8|4,0:3|0:3,0:0:0:0:
465,118,53670,1,2,1:2:0:0:
465,118,53842,2,0,P|414:134|357:124,1,108,10|4,0:1|0:3,0:0:0:0:
328,82,54356,2,0,L|195:94,1,108,8|0,0:0|1:0,0:0:0:0:
137,161,55042,6,0,P|119:211|132:276,1,108,10|2,0:1|0:0,0:0:0:0:
173,290,55556,2,0,P|223:272|288:285,1,108,10|2,0:1|0:0,0:0:0:0:
319,312,56070,2,0,L|330:186,1,108,10|2,0:1|0:0,0:0:0:0:
337,150,56585,1,4,0:0:0:0:
337,150,58126,6,0,P|276:159|408:246,2,432,2|2|2,0:0|0:0|0:3,0:0:0:0:
196,182,66355,5,2,1:2:0:0:
196,182,66526,2,0,L|306:169,1,108,8|4,0:0|0:3,0:0:0:0:
347,137,67041,2,0,P|391:174|380:286,1,162,2|2,0:0|0:0,0:0:0:0:
350,307,67726,6,0,B|266:335|194:324|194:324|139:275,1,216,6|2,0:2|0:2,0:0:0:0:
85,199,68755,1,0,0:0:0:0:
111,94,69098,2,0,P|144:62|226:46,1,108,2|8,1:2|1:2,0:0:0:0:
310,56,69784,1,8,0:0:0:0:
371,144,70126,1,2,1:2:0:0:
320,239,70469,6,0,L|325:346,2,108,4|2|2,0:0|1:2|1:2,0:0:0:0:
263,146,71498,1,2,1:2:0:0:
198,59,71841,2,0,P|134:65|85:97,1,108,10|10,1:2|1:2,0:0:0:0:
31,172,72526,2,0,L|28:232,1,54,2|0,1:2|0:0,0:0:0:0:
1,273,72869,2,0,L|4:333,1,54,10|4,0:0|0:3,0:0:0:0:
34,371,73212,6,0,P|90:374|155:349,1,108,4|8,1:2|0:0,0:0:0:0:
224,291,73898,1,0,1:0:0:0:
224,182,74241,1,8,0:0:0:0:
143,110,74584,2,0,L|73:116,2,54,2|0|8,1:0|1:0|0:0,0:0:0:0:
227,42,75269,2,0,L|297:48,2,54,2|0|8,1:0|1:0|0:0,0:0:0:0:
122,18,75955,6,0,P|93:58|93:127,1,108,0|8,1:0|0:0,0:0:0:0:
146,207,76641,1,0,1:0:0:0:
251,228,76984,1,8,0:0:0:0:
341,169,77326,2,0,L|336:105,2,54,2|0|8,1:0|1:0|0:0,0:0:0:0:
432,226,78012,2,0,L|427:290,2,54,2|0|8,1:0|1:0|0:0,0:0:0:0:
511,152,78698,6,0,L|502:31,1,108,0|8,1:0|0:0,0:0:0:0:
394,38,79384,2,0,P|354:55|272:53,1,108,0|8,1:0|0:0,0:0:0:0:
187,24,80069,1,2,1:0:0:0:
87,67,80412,1,8,0:0:0:0:
43,166,80755,2,0,L|52:295,1,108,2|8,1:0|0:0,0:0:0:0:
121,355,81441,6,0,P|177:359|241:330,1,108,0|8,1:0|0:0,0:0:0:0:
301,265,82126,1,0,1:0:0:0:
301,156,82469,1,10,0:1:0:0:
224,79,82812,2,0,P|168:75|104:104,1,108,0|8,1:0|0:0,0:0:0:0:
43,166,83498,2,0,L|48:231,1,54,2|0,1:2|1:0,0:0:0:0:
92,249,83841,2,0,L|87:314,1,54,4|8,0:3|0:0,0:0:0:0:
71,354,84184,6,0,P|125:340|188:357,1,108,4|8,1:2|0:0,0:0:0:0:
278,380,84869,1,0,1:0:0:0:
382,351,85212,1,8,0:0:0:0:
444,263,85555,2,0,L|436:155,1,108,2|10,1:2|0:1,0:0:0:0:
400,121,86069,1,0,0:0:0:0:
400,121,86241,2,0,L|405:52,2,54,0|0|10,1:0|1:0|0:1,0:0:0:0:
305,174,86926,6,0,P|248:184|183:167,1,108,0|8,1:0|0:0,0:0:0:0:
102,125,87612,1,0,0:0:0:0:
145,26,87955,1,8,0:0:0:0:
252,33,88298,2,0,L|363:26,1,108,0|8,1:0|0:0,0:0:0:0:
405,64,88812,1,0,0:0:0:0:
405,64,88984,2,0,L|460:60,2,54,2|0|10,1:0|1:0|0:1,0:0:0:0:
338,148,89669,6,0,L|333:260,1,108,4|8,1:2|0:0,0:0:0:0:
260,336,90355,1,0,0:0:0:0:
155,363,90698,1,8,0:0:0:0:
56,318,91041,2,0,P|29:273|28:217,1,108,0|10,1:0|0:1,0:0:0:0:
63,116,91726,2,0,P|108:89|164:88,1,108,0|10,1:0|0:1,0:0:0:0:
216,113,92241,1,0,0:0:0:0:
216,113,92412,6,0,L|335:106,1,108,0|8,1:0|0:0,0:0:0:0:
414,166,93098,2,0,L|421:285,1,108,2|8,1:0|0:0,0:0:0:0:
344,351,93784,1,2,1:0:0:0:
237,366,94126,1,8,0:0:0:0:
149,302,94469,2,0,L|142:183,1,108,0|10,0:0|0:1,0:0:0:0:
120,88,95155,6,0,P|66:82|11:97,2,108,6|0|0,1:2|1:0|1:0,0:0:0:0:
220,141,96184,1,0,1:0:0:0:
220,141,96355,2,0,L|330:133,1,108,2|10,0:1|0:1,0:0:0:0:
433,256,97212,2,0,L|323:264,1,108,0|0,1:0|1:0,0:0:0:0:
225,300,97898,5,4,1:2:0:0:
225,300,98069,2,0,P|192:329|76:324,1,162,10|0,0:1|1:0,0:0:0:0:
25,239,98926,1,0,1:0:0:0:
25,239,99098,2,0,L|36:127,1,108,10|10,0:1|0:1,0:0:0:0:
114,57,99784,2,0,B|201:41|186:91|287:69,1,162,8|2,0:3|0:0,0:0:0:0:
378,52,100641,6,0,B|413:95|413:95|400:213,1,162,2|0,0:0|0:0,0:0:0:0:
374,247,101326,2,0,P|345:235|223:297,1,162,2|0,0:0|0:0,0:0:0:0:
197,322,102012,2,0,L|88:312,1,108,0|0,0:0|0:0,0:0:0:0:
17,231,102698,1,8,0:0:0:0:
28,123,103041,1,8,0:3:0:0:
110,53,103384,6,0,P|180:42|221:53,1,108,4|0,1:2|1:0,0:0:0:0:
289,129,104069,1,8,1:0:0:0:
392,160,104412,1,8,1:0:0:0:
493,124,104755,2,0,L|501:237,1,108,0|8,0:0|0:0,0:0:0:0:
505,285,105269,1,4,0:3:0:0:
418,349,105612,2,0,P|348:357|295:339,1,108,8|0,0:3|1:0,0:0:0:0:
265,320,106126,6,0,L|134:329,1,108,4|8,1:2|0:0,0:0:0:0:
54,294,106812,1,2,1:2:0:0:
10,195,107155,1,10,0:1:0:0:
69,104,107498,2,0,P|113:91|179:108,1,108,6|10,1:0|0:0,0:0:0:0:
264,161,108184,2,0,L|378:149,1,108,4|10,1:0|0:0,0:0:0:0:
428,143,108698,1,2,0:1:0:0:
428,143,108869,6,0,P|440:95|428:37,1,108,4|8,1:0|0:0,0:0:0:0:
325,6,109555,1,2,1:2:0:0:
217,20,109898,1,10,0:1:0:0:
168,116,110241,2,0,L|174:233,1,108,6|10,1:0|0:0,0:0:0:0:
229,315,110926,2,0,P|280:327|347:306,1,108,4|8,1:0|0:0,0:0:0:0:
366,277,111441,1,2,0:1:0:0:
366,277,111612,6,0,L|360:160,2,108,4|8|0,1:0|0:0|1:0,0:0:0:0:
433,361,112641,1,10,0:1:0:0:
502,278,112984,2,0,L|496:161,1,108,0|10,1:0|0:1,0:0:0:0:
492,121,113498,1,2,0:0:0:0:
492,121,113669,2,0,P|439:114|392:78,1,108,0|8,0:0|0:0,0:0:0:0:
311,15,114355,6,0,L|197:24,1,108,0|10,1:0|0:1,0:0:0:0:
154,32,114869,1,2,0:0:0:0:
154,32,115041,2,0,P|138:81|152:135,1,108,0|8,1:2|0:0,0:0:0:0:
223,214,115726,1,4,1:2:0:0:
326,243,116069,1,8,0:3:0:0:
429,210,116412,2,0,L|432:155,1,54,2|8,1:2|0:3,0:0:0:0:
475,123,116755,2,0,L|472:68,1,54,4|0,0:3|1:0,0:0:0:0:
436,28,117098,6,0,P|381:51|310:43,1,108,4|8,1:2|0:0,0:0:0:0:
230,16,117784,1,0,1:0:0:0:
127,50,118126,1,10,0:1:0:0:
83,148,118469,2,0,L|93:268,1,108,6|10,1:0|0:0,0:0:0:0:
110,312,118984,1,2,0:1:0:0:
110,312,119155,2,0,P|164:295|229:310,1,108,4|10,1:0|0:0,0:0:0:0:
313,346,119841,6,0,P|363:362|416:355,1,108,4|8,1:0|0:0,0:0:0:0:
495,281,120526,1,2,1:2:0:0:
495,172,120869,1,10,0:1:0:0:
417,96,121212,2,0,P|363:79|298:94,1,108,2|8,1:0|0:0,0:0:0:0:
228,154,121898,2,0,L|116:150,1,108,8|8,0:3|0:3,0:0:0:0:
71,150,122412,1,4,0:3:0:0:
71,150,122584,6,0,P|50:201|59:261,2,108,12|10|2,0:0|0:1|1:0,0:0:0:0:
137,64,123612,1,10,0:1:0:0:
231,116,123955,2,0,L|341:109,1,108,2|10,1:2|0:1,0:0:0:0:
398,108,124469,1,0,0:0:0:0:
398,108,124641,2,0,P|421:159|412:229,1,108,2|10,1:0|0:1,0:0:0:0:
325,263,125326,6,0,P|269:268|213:311,1,108,0|10,1:0|0:1,0:0:0:0:
137,358,126012,1,2,1:2:0:0:
44,302,126355,2,0,L|40:242,1,54,10|4,0:1|0:3,0:0:0:0:
2,209,126698,2,0,L|11:76,1,108,2|8,1:2|0:0,0:0:0:0:
16,47,127212,2,0,P|67:63|124:57,1,108,8|0,0:3|0:2,0:0:0:0:
169,34,127727,1,0,1:0:0:0:
276,24,128069,6,0,L|404:32,1,108,10|8,0:1|0:1,0:0:0:0:
437,40,128584,2,0,P|452:92|436:150,1,108,2|8,1:0|0:1,0:0:0:0:
399,180,129098,2,0,L|410:299,1,108,2|2,1:0|1:2,0:0:0:0:
413,341,129612,1,6,1:2:0:0:
256,192,129784,12,2,131155,0:3:0:0:
331,176,133898,6,0,P|370:125|501:172,2,216,6|2|2,0:0|0:0|0:0,0:0:0:0:
245,374,135955,1,2,0:0:0:0:
70,246,136641,6,0,L|60:26,2,216,2|2|2,0:0|0:0|0:0,0:0:0:0:
245,374,138698,1,2,0:0:0:0:
450,307,139384,6,0,P|491:204|447:89,1,216,2|2,0:0|0:0,0:0:0:0:
380,35,140412,1,0,0:0:0:0:
277,68,140755,2,0,B|128:48|128:48|67:89,1,216,2|2,0:0|0:0,0:0:0:0:
0,164,141784,1,2,0:0:0:0:
57,254,142126,6,0,P|100:277|259:231,1,216,2|2,0:0|0:0,0:0:0:0:
327,159,143155,1,0,0:0:0:0:
426,200,143498,2,0,L|431:311,1,108,0|0,0:0|0:0,0:0:0:0:
347,376,144184,2,0,L|236:381,1,108,0|0,0:0|0:0,0:0:0:0:
142,331,144869,5,4,1:2:0:0:
362,262,150355,6,0,P|370:209|353:148,1,108,14|0,0:2|1:0,0:0:0:0:
324,113,150869,2,0,P|271:121|210:104,1,108,10|0,0:1|1:0,0:0:0:0:
172,80,151384,1,10,0:1:0:0:
83,140,151726,1,0,1:0:0:0:
83,140,151898,2,0,L|90:252,1,108,10|0,0:1|1:0,0:0:0:0:
98,301,152412,1,10,0:1:0:0:
193,351,152755,2,0,P|240:357|266:349,1,54,8|4,0:3|0:3,0:0:0:0:
285,318,153098,6,0,L|417:326,1,108,2|2,1:2|1:0,0:0:0:0:
451,334,153612,1,0,1:0:0:0:
451,334,153784,2,0,P|468:290|452:210,1,108,2|10,1:0|1:0,0:0:0:0:
368,176,154469,2,0,L|359:63,1,108,2|8,1:0|0:3,0:0:0:0:
338,18,154984,2,0,P|283:38|224:37,1,108,0|0,1:0|1:0,0:0:0:0:
180,29,155498,1,0,1:0:0:0:
93,93,155841,6,0,L|102:206,1,108,4|8,1:2|0:0,0:0:0:0:
170,283,156526,2,0,P|205:285|226:281,1,54,0|0,1:0|1:0,0:0:0:0:
269,253,156869,2,0,P|304:251|325:255,1,54,8|0,0:0|0:0,0:0:0:0:
369,280,157212,2,0,P|388:202|347:115,2,162,2|2|10,1:0|0:1|0:1,0:0:0:0:
292,356,158584,6,0,L|167:349,1,108,2|8,1:2|0:0,0:0:0:0:
82,313,159269,1,2,1:2:0:0:
40,213,159612,1,10,0:0:0:0:
107,128,159955,2,0,P|155:109|233:127,1,108,2|8,1:0|0:0,0:0:0:0:
297,178,160641,1,2,1:0:0:0:
353,269,160984,2,0,L|428:263,1,54,8|0,0:0|0:0,0:0:0:0:
458,249,161326,6,0,P|484:194|435:53,1,216,2|2,1:2|1:2,0:0:0:0:
336,14,162355,1,8,0:0:0:0:
235,53,162698,2,0,L|110:45,1,108,2|8,1:0|0:0,0:0:0:0:
38,107,163384,2,0,L|30:232,1,108,2|8,1:0|0:0,0:0:0:0:
107,291,164069,6,0,P|181:302|255:251,1,162,2|2,1:0|0:0,0:0:0:0:
276,208,164755,1,2,1:0:0:0:
370,155,165098,1,12,0:0:0:0:
471,190,165441,2,0,B|488:298|488:298|457:343,1,162,2|0,1:0|1:0,0:0:0:0:
405,354,166126,2,0,P|345:326|248:338,1,162,8|0,0:0|0:0,0:0:0:0:
202,357,166812,6,0,L|188:244,1,108,6|0,1:2|0:0,0:0:0:0:
182,141,167498,1,8,0:0:0:0:
244,52,167841,1,0,0:0:0:0:
354,34,168184,1,0,1:0:0:0:
354,34,168355,2,0,P|404:56|469:42,1,108,10|0,0:1|1:0,0:0:0:0:
503,24,168869,2,0,L|496:145,1,108,10|2,0:1|0:1,0:0:0:0:
411,198,169555,6,0,L|418:319,1,108,2|0,1:2|0:0,0:0:0:0:
335,377,170241,1,10,0:0:0:0:
227,364,170584,1,0,0:0:0:0:
162,285,170926,1,0,1:0:0:0:
162,285,171098,2,0,P|176:228|151:171,1,108,10|0,0:1|1:0,0:0:0:0:
113,155,171612,2,0,L|124:41,1,108,10|10,0:1|0:0,0:0:0:0:
165,13,172126,1,8,0:0:0:0:
165,13,172298,6,0,P|217:40|278:37,1,108,12|10,1:2|0:0,0:0:0:0:
370,15,172984,1,2,1:0:0:0:
462,69,173326,1,10,0:1:0:0:
499,170,173669,2,0,L|487:289,1,108,2|10,1:0|0:1,0:0:0:0:
398,337,174355,1,2,0:1:0:0:
291,320,174698,1,8,0:0:0:0:
236,226,175041,6,0,P|179:218|118:241,1,108,10|0,0:1|1:0,0:0:0:0:
84,260,175555,2,0,L|70:137,1,108,10|0,0:1|1:0,0:0:0:0:
66,98,176069,1,10,0:1:0:0:
158,41,176412,1,0,1:0:0:0:
158,41,176584,2,0,P|206:58|274:46,1,108,10|0,0:1|1:0,0:0:0:0:
311,30,177098,1,10,0:1:0:0:
400,90,177441,2,0,L|405:152,1,54,8|0,0:3|0:0,0:0:0:0:
443,181,177784,6,0,L|435:296,1,108,6|2,1:2|1:0,0:0:0:0:
401,331,178298,1,8,1:0:0:0:
401,331,178469,2,0,P|342:314|282:329,1,108,10|10,1:0|1:0,0:0:0:0:
199,369,179155,1,4,0:0:0:0:
256,192,179326,12,2,180526,0:3:0:0:
248,162,186012,6,0,L|236:47,2,108,6|2|2,1:2|1:2|1:2,0:0:0:0:
261,269,187041,1,2,1:2:0:0:
161,311,187384,2,0,P|113:311|54:277,2,108,2|2|2,1:2|1:2|1:2,0:0:0:0:
261,269,188412,1,2,1:2:0:0:
343,199,188755,6,0,L|337:78,1,108,2|2,1:2|1:2,0:0:0:0:
249,28,189441,2,0,L|128:34,1,108,2|2,1:2|1:2,0:0:0:0:
91,42,189955,1,0,0:0:0:0:
91,42,190126,2,0,P|109:93|93:162,1,108,8|8,1:2|1:2,0:0:0:0:
12,206,190812,2,0,L|25:266,1,54,10|10,1:2|1:2,0:0:0:0:
74,276,191155,2,0,L|61:336,1,54,8|8,1:2|1:2,0:0:0:0:
23,366,191498,5,2,0:0:0:0:
228,300,192184,2,0,P|276:286|336:299,1,108,6|8,1:0|0:0,0:0:0:0:
427,346,192869,2,0,P|438:293|421:239,1,108,2|2,1:0|1:2,0:0:0:0:
385,203,193384,1,10,1:0:0:0:
288,155,193726,1,10,1:0:0:0:
190,202,194069,6,0,P|133:208|81:176,1,108,6|0,1:2|0:0,0:0:0:0:
61,138,194584,1,8,0:0:0:0:
124,50,194926,2,0,P|181:44|233:76,1,108,2|10,1:2|0:1,0:0:0:0:
288,155,195612,2,0,L|418:142,1,108,6|10,1:0|0:0,0:0:0:0:
480,211,196298,2,0,P|491:268|471:317,1,108,4|10,1:0|0:0,0:0:0:0:
436,352,196812,1,2,0:1:0:0:
436,352,196984,6,0,L|306:365,2,108,4|10|0,1:0|0:0|1:0,0:0:0:0:
492,259,198012,1,10,0:1:0:0:
419,178,198355,2,0,P|355:168|296:189,1,108,2|8,1:2|0:0,0:0:0:0:
272,211,198869,1,2,0:1:0:0:
272,211,199041,2,0,L|157:200,1,108,2|10,1:2|0:0,0:0:0:0:
60,170,199726,6,0,P|56:116|81:66,1,108,2|10,1:2|0:1,0:0:0:0:
123,36,200241,1,2,0:0:0:0:
123,36,200412,2,0,P|177:40|227:15,1,108,2|8,1:0|0:0,0:0:0:0:
332,52,201098,1,0,0:0:0:0:
332,52,201269,2,0,L|393:49,2,54,10|10|4,0:1|0:1|0:3,0:0:0:0:
291,88,201784,2,0,P|275:146|299:199,1,108,8|0,0:0|1:0,0:0:0:0:
386,239,202469,6,0,L|370:345,1,108,10|2,0:1|0:0,0:0:0:0:
320,368,202984,2,0,P|271:349|211:348,1,108,10|2,0:1|0:0,0:0:0:0:
163,359,203498,2,0,P|161:305|142:255,1,108,10|2,0:1|0:0,0:0:0:0:
102,217,204012,1,4,0:0:0:0:
102,217,205555,6,0,L|116:100,1,108,6|8,1:2|0:0,0:0:0:0:
129,61,206069,1,2,0:1:0:0:
129,61,206241,2,0,P|183:72|238:55,1,108,2|10,1:2|0:1,0:0:0:0:
335,18,206926,1,0,0:0:0:0:
335,18,207098,2,0,L|450:25,1,108,2|0,0:1|0:0,0:0:0:0:
490,50,207612,2,0,P|504:98|485:161,1,108,2|10,1:2|0:1,0:0:0:0:
389,193,208298,6,0,L|405:309,1,108,2|10,1:2|0:0,0:0:0:0:
318,366,208984,1,2,1:2:0:0:
211,349,209326,2,0,L|139:357,1,54,8|8,0:0|0:3,0:0:0:0:
103,360,209669,2,0,P|80:316|88:241,1,108,2|2,1:0|1:0,0:0:0:0:
173,202,210355,2,0,L|163:137,1,54,10|2,0:1|1:0,0:0:0:0:
118,120,210698,2,0,L|128:55,1,54,8|4,0:3|0:3,0:0:0:0:
158,22,211041,6,0,P|207:42|276:31,1,108,6|8,1:2|0:0,0:0:0:0:
367,17,211726,1,2,1:2:0:0:
460,70,212069,1,10,0:0:0:0:
500,170,212412,2,0,L|491:287,1,108,2|8,1:0|0:0,0:0:0:0:
415,354,213098,2,0,L|298:345,1,108,2|10,1:2|0:1,0:0:0:0:
230,269,213784,6,0,L|239:152,1,108,2|10,1:2|0:1,0:0:0:0:
192,63,214469,1,2,1:2:0:0:
84,54,214812,1,10,0:0:0:0:
23,143,215155,2,0,P|17:198|43:257,1,108,2|10,1:0|0:0,0:0:0:0:
128,300,215841,1,2,1:2:0:0:
230,269,216184,2,0,L|302:272,1,54,0|0,0:0|0:0,0:0:0:0:
337,269,216526,6,0,P|351:214|336:155,1,108,2|8,1:0|0:0,0:0:0:0:
273,79,217212,1,0,1:0:0:0:
166,60,217555,1,10,0:1:0:0:
78,122,217898,2,0,P|64:177|79:236,1,108,0|8,1:0|0:0,0:0:0:0:
140,312,218584,1,0,1:2:0:0:
246,325,218926,1,10,0:0:0:0:
337,269,219269,6,0,P|390:259|451:274,2,108,2|10|2,1:0|0:1|1:0,0:0:0:0:
246,325,220298,1,10,0:1:0:0:
179,239,220641,2,0,L|171:109,1,108,2|2,1:2|1:2,0:0:0:0:
234,42,221326,1,2,1:0:0:0:
340,22,221669,1,4,0:3:0:0:
437,69,222012,6,0,P|458:120|449:189,2,108,4|10|2,1:2|0:1|1:1,0:0:0:0:
340,22,223041,1,10,0:1:0:0:
234,42,223384,2,0,L|108:35,1,108,2|8,1:0|0:0,0:0:0:0:
31,87,224069,1,2,1:0:0:0:
74,185,224412,1,8,0:0:0:0:
169,135,224755,6,0,P|219:130|276:155,2,108,2|8|0,1:2|0:0|1:0,0:0:0:0:
74,185,225784,1,8,0:0:0:0:
130,276,226126,2,0,P|179:296|232:292,1,108,2|10,1:0|0:1,0:0:0:0:
335,257,226812,1,2,1:0:0:0:
404,174,227155,1,10,0:1:0:0:
358,76,227498,6,0,L|245:65,1,108,0|10,1:2|0:1,0:0:0:0:
152,19,228184,2,0,L|39:30,1,108,0|10,1:0|0:1,0:0:0:0:
7,131,228869,2,0,P|5:168|44:238,2,108,0|10|0,1:0|0:1|1:0,0:0:0:0:
112,153,229898,1,8,0:0:0:0:
217,177,230241,6,0,L|213:306,1,108,2|0,1:0|0:0,0:0:0:0:
293,357,230926,2,0,L|422:361,1,108,2|8,1:0|0:3,0:0:0:0:
485,292,231612,2,0,L|489:163,1,108,2|2,1:2|1:2,0:0:0:0:
408,111,232298,2,0,L|279:107,1,108,8|0,0:0|0:0,0:0:0:0:
217,177,232984,6,0,P|168:228|26:179,1,216,6|10,1:2|0:0,0:0:0:0:
3,96,234012,1,0,0:0:0:0:
85,26,234355,2,0,L|193:34,1,108,2|0,1:2|0:0,0:0:0:0:
274,104,235041,2,0,L|382:96,1,108,10|0,0:0|0:0,0:0:0:0:
440,96,235555,1,0,0:0:0:0:
440,96,235726,6,0,P|503:193|485:295,1,216,2|10,1:2|0:0,0:0:0:0:
417,369,236755,1,0,0:0:0:0:
338,294,237098,2,0,P|283:287|230:302,1,108,2|0,1:2|0:0,0:0:0:0:
142,360,237784,2,0,P|87:367|18:235,1,216,10|2,0:0|0:3,0:0:0:0:
13,246,241212,6,0,L|130:239,1,108,6|2,1:2|1:2,0:0:0:0:
197,162,241898,2,0,L|314:169,1,108,2|2,1:2|1:2,0:0:0:0:
381,245,242584,1,10,1:2:0:0:
483,212,242926,1,10,1:2:0:0:
499,105,243269,1,10,1:2:0:0:
423,36,243612,5,10,1:2:0:0:
423,36,243783,2,0,P|367:77|263:51,1,162,8|4,1:0|0:0,0:0:0:0:
256,192,244469,12,0,249439,0:0:0:0:
