osu file format v14

[General]
AudioFilename: audio.mp3
AudioLeadIn: 0
PreviewTime: 106041
Countdown: 0
SampleSet: Soft
StackLeniency: 0.7
Mode: 0
LetterboxInBreaks: 0
WidescreenStoryboard: 1

[Editor]
Bookmarks: 5670,11156,16642,22127,27613,33099,38585,44070,49556,55042,62242,67727,73213,78699,84185,89670,95156,100642,106127,111613,117099,122585,128070,133899,139385,144870,150356,155842,161327,166813,172299,177785,183270,188756,194070,199727,205556,211042,216527,222013,227499,232985,238470,244299,249442
DistanceSpacing: 1
BeatDivisor: 4
GridSize: 8
TimelineZoom: 1

[Metadata]
Title:Kiss no Hitotsu de
TitleUnicode:キスのひとつで
Artist:Sasaki Sayaka
ArtistUnicode:佐咲紗花
Creator:Left
Version:Beginner
Source:ちいさな彼女の小夜曲
Tags:chiisana kanojo no serenade ending Kalibe Akitoshi Garden Yamicchi SnowNiNo_
BeatmapID:1322484
BeatmapSetID:613158

[Difficulty]
HPDrainRate:1
CircleSize:2
OverallDifficulty:1
ApproachRate:2
SliderMultiplier:0.55
SliderTickRate:1

[Events]
//Background and Video events
0,0,"bg1.jpg",0,0
//Break Periods
2,62441,66167
2,145069,148795
2,180526,184452
//Storyboard Layer 0 (Background)
//Storyboard Layer 1 (Fail)
//Storyboard Layer 2 (Pass)
//Storyboard Layer 3 (Foreground)
//Storyboard Sound Samples

[TimingPoints]
185,342.857142857143,4,2,1,70,1,0
33099,-100,4,2,1,70,0,1
56585,-100,4,2,1,70,0,0
58127,342.857142857143,4,2,1,70,1,0
58469,-100,4,2,1,20,0,0
59498,-100,4,2,1,70,0,0
59841,-100,4,2,1,20,0,0
73212,-100,4,2,1,65,0,0
106127,-100,4,2,1,70,0,1
129612,-100,4,2,1,70,0,0
133898,342.857142857143,4,2,1,70,1,0
194069,-100,4,2,1,70,0,1
204012,-100,4,2,1,70,0,0
205555,342.857142857143,4,2,1,70,1,0
244297,342.857142857143,4,2,1,70,1,0
249439,-100,4,2,1,5,0,0

[Colours]
Combo1 : 208,255,183
Combo2 : 255,244,208
Combo3 : 154,221,254

[HitObjects]
81,182,185,6,0,P|134:47|180:155,1,330,2|0,0:3|0:0,0:0:0:0:
161,247,2927,2,0,B|213:264|262:223|262:223|310:184|365:197|365:197|321:135|351:75,1,330,2|0,0:0|0:0,0:0:0:0:
452,72,5670,6,0,B|425:122|471:182|471:182|516:253|488:303|436:334|388:309,1,330,2|0,0:0|0:0,0:0:0:0:
322,222,8413,2,0,P|196:185|124:345,1,330,2|0,0:0|0:0,0:0:0:0:
12,321,11156,6,0,P|-5:267|13:199,1,110,4|2,0:0|0:0,0:0:0:0:
106,173,12527,2,0,P|123:119|105:51,1,110,2|0,0:0|0:0,0:0:0:0:
5,44,13899,2,0,B|58:65|110:34|110:34|169:-1|223:34,1,220,2|0,0:0|0:0,0:0:0:0:
298,100,15956,1,2,0:0:0:0:
245,196,16642,6,0,P|236:244|248:315,1,110,2|0,0:0|0:0,0:0:0:0:
354,304,18013,2,0,P|363:256|351:185,1,110,2|0,0:0|0:0,0:0:0:0:
297,101,19385,2,0,B|258:64|192:76|192:76|154:120|77:115,1,220,2|2,0:0|1:2,0:0:0:0:
74,334,22127,6,0,L|311:318,1,220,4|2,1:2|1:0,0:0:0:0:
403,310,24185,1,10,0:0:0:0:
341,218,24870,2,0,P|328:157|334:105,1,110,2|10,1:2|1:2,0:0:0:0:
422,46,26242,2,0,P|332:85|232:-4,1,220,2|2,1:2|0:3,0:0:0:0:
92,184,28985,5,2,0:0:0:0:
254,332,30356,2,0,P|318:357|406:254,1,220,6|0,1:2|0:0,0:0:0:0:
439,39,33099,6,0,B|373:19|334:52|334:52|281:87|209:47,1,220,6|6,1:2|1:0,0:0:0:0:
127,16,35156,1,12,0:1:0:0:
52,96,35842,2,0,B|71:204|71:204|18:322,1,220,4|6,1:0|1:0,0:0:0:0:
128,343,37899,1,12,0:1:0:0:
207,267,38585,6,0,P|271:245|316:249,1,110,4|8,1:0|0:0,0:0:0:0:
334,355,39956,2,0,P|270:377|225:373,1,110,2|8,1:2|0:0,0:0:0:0:
131,322,41327,2,0,L|118:203,2,110,2|10|2,1:2|0:2|1:0,0:0:0:0:
228,373,43385,1,10,0:0:0:0:
311,301,44070,6,0,B|344:263|344:263|323:77,1,220,6|6,1:2|1:0,0:0:0:0:
224,50,46127,1,12,0:1:0:0:
161,140,46813,2,0,P|90:144|139:41,1,220,4|6,1:0|1:0,0:0:0:0:
224,50,48870,2,0,P|286:65|345:32,1,110,12|4,0:1|1:0,0:0:0:0:
436,64,50242,5,8,0:0:0:0:
369,151,50927,2,0,L|380:266,1,110,2|8,1:2|0:0,0:0:0:0:
316,350,52299,2,0,P|364:372|435:353,2,110,2|8|2,1:2|0:0|1:2,0:0:0:0:
233,277,54356,1,8,0:0:0:0:
266,172,55042,6,0,B|315:170|342:145|342:145|419:176|419:176|456:145|501:147,1,247.5,10|4,0:1|0:0,0:0:0:0:
322,325,58127,5,2,0:0:0:0:
109,267,59498,2,0,L|139:39,1,220,2|2,0:0|0:3,0:0:0:0:
357,51,62241,1,4,0:0:0:0:
302,84,67727,6,0,P|408:65|483:159,2,220,6|2|4,0:2|1:2|0:0,0:0:0:0:
238,174,71155,1,10,0:2:0:0:
150,240,71841,2,0,P|78:256|23:249,1,110,10|10,1:2|0:2,0:0:0:0:
25,144,73212,6,0,B|77:123|134:131|134:131|177:107|248:118,1,220,4|2,1:2|1:0,0:0:0:0:
322,190,75269,1,8,0:0:0:0:
407,259,75955,2,0,L|393:374,1,110,0|8,1:0|0:0,0:0:0:0:
291,327,77327,6,0,L|305:212,2,110,2|10|0,1:0|0:0|1:0,0:0:0:0:
181,341,79384,1,8,0:0:0:0:
112,254,80069,2,0,P|94:182|105:138,1,110,2|8,1:0|0:0,0:0:0:0:
158,54,81441,6,0,P|125:113|247:136,1,220,0|0,1:0|1:0,0:0:0:0:
269,49,83498,1,10,0:2:0:0:
345,128,84184,6,0,B|374:165|374:165|356:343,1,220,4|2,1:2|1:2,0:0:0:0:
249,360,86241,1,8,0:0:0:0:
158,297,86927,2,0,P|95:282|37:302,2,110,2|8|0,1:2|0:0|1:0,0:0:0:0:
222,208,88984,1,10,0:0:0:0:
180,106,89669,6,0,B|246:86|285:119|285:119|338:154|410:114,1,220,4|0,1:2|1:0,0:0:0:0:
483,66,91727,1,8,0:0:0:0:
483,176,92412,2,0,B|468:255|487:336|487:336|450:316|418:316,1,220,2|2,1:2|1:0,0:0:0:0:
325,287,94469,2,0,P|255:285|198:307,1,110,8|6,0:0|1:2,0:0:0:0:
158,113,96355,6,0,P|226:121|309:84,1,137.5,2|0,0:1|1:0,0:0:0:0:
382,38,97898,1,4,1:2:0:0:
366,229,99098,6,0,P|298:221|215:258,1,137.5,10|0,0:1|0:0,0:0:0:0:
147,311,100641,1,2,0:0:0:0:
255,119,102012,1,2,0:0:0:0:
366,308,103384,6,0,P|437:308|396:196,1,220,4|0,1:2|0:0,0:0:0:0:
305,220,105441,1,6,1:2:0:0:
202,260,106127,6,0,B|182:194|215:155|215:155|250:102|210:30,1,220,4|6,1:2|1:0,0:0:0:0:
120,97,108184,1,12,0:1:0:0:
61,190,108869,2,0,P|68:312|252:333,1,330,4|12,1:0|0:1,0:0:0:0:
311,250,111612,6,0,P|358:228|425:237,1,110,4|8,1:0|0:0,0:0:0:0:
434,341,112984,2,0,P|387:363|320:354,1,110,2|8,1:2|0:0,0:0:0:0:
224,327,114355,2,0,P|169:321|120:344,2,110,2|8|4,1:2|0:2|1:2,0:0:0:0:
282,233,116412,1,10,0:2:0:0:
237,132,117098,6,0,B|182:112|131:126|131:126|131:192|180:231,1,220,4|6,1:2|1:0,0:0:0:0:
282,239,119155,1,12,0:1:0:0:
378,292,119841,2,0,B|405:236|378:187|378:187|403:134|371:77,1,220,4|2,1:0|1:0,0:0:0:0:
282,143,121898,6,0,P|228:160|170:148,1,110,2|12,1:0|0:0,0:0:0:0:
87,86,123269,1,10,0:0:0:0:
80,195,123955,2,0,P|56:250|17:278,1,110,2|10,1:2|0:0,0:0:0:0:
84,364,125327,2,0,L|198:373,2,110,0|10|2,1:0|0:2|1:2,0:0:0:0:
15,277,127384,1,10,0:2:0:0:
79,187,128069,6,0,B|109:154|149:145|149:145|183:160|209:200|209:200|248:173|298:176,1,247.5,10|6,0:1|1:2,0:0:0:0:
327,126,133898,6,0,P|441:90|491:158,2,220,6|2|2,0:0|0:0|0:0,0:0:0:0:
256,334,138012,1,2,0:0:0:0:
185,126,139383,6,0,P|71:90|21:158,2,220,2|2|2,0:0|0:0|0:0,0:0:0:0:
256,334,143498,1,0,0:0:0:0:
408,175,144869,1,4,1:2:0:0:
369,57,150355,6,0,L|353:277,1,220,14|2,0:2|1:2,0:0:0:0:
141,336,153098,6,0,P|81:347|32:335,2,110,2|10|6,1:2|0:0|1:2,0:0:0:0:
230,272,155155,1,10,0:0:0:0:
268,169,155840,6,0,B|202:149|163:182|163:182|110:217|38:177,1,220,4|2,1:2|1:0,0:0:0:0:
109,89,157898,1,10,0:2:0:0:
212,50,158583,2,0,P|261:53|329:72,1,110,2|10,1:2|0:2,0:0:0:0:
355,172,159955,2,0,P|404:169|472:150,1,110,2|10,1:0|0:1,0:0:0:0:
501,256,161326,6,0,P|410:278|282:270,1,220,6|2,1:2|1:0,0:0:0:0:
192,210,163383,1,8,0:0:0:0:
125,297,164069,6,0,P|78:301|89:178,1,220,2|0,1:0|0:0,0:0:0:0:
192,210,166126,1,8,0:0:0:0:
263,126,166812,6,0,P|272:71|264:13,2,110,6|12|0,1:2|0:0|1:0,0:0:0:0:
305,227,168869,1,10,0:1:0:0:
358,323,169555,2,0,P|418:318|470:296,2,110,6|10|0,1:2|0:0|1:0,0:0:0:0:
305,227,171612,1,10,0:1:0:0:
252,130,172298,6,0,P|180:119|77:218,1,220,12|2,1:2|1:0,0:0:0:0:
127,310,174355,1,10,0:1:0:0:
230,273,175040,6,0,B|281:267|311:282|311:282|371:228|371:228|402:251|452:252|452:252|475:210|458:163,1,330,4|10,0:0|0:1,0:0:0:0:
412,75,177783,6,0,P|274:86|270:149,1,220,4|4,0:0|0:0,0:0:0:0:
83,49,186012,6,0,L|105:269,1,220,6|0,1:2|0:0,0:0:0:0:
210,300,188069,1,2,1:2:0:0:
282,217,188755,2,0,P|329:200|393:201,1,110,2|2,1:2|1:2,0:0:0:0:
471,272,190126,1,8,1:2:0:0:
498,165,190812,1,10,1:2:0:0:
417,90,191498,6,0,P|354:78|304:79,1,110,2|12,0:0|0:0,0:0:0:0:
200,100,192869,2,0,B|187:182|187:182|203:229|203:229|192:296,1,192.5,6|6,1:2|1:2,0:0:0:0:
322,333,194926,2,0,P|389:335|418:300,1,110,10|6,0:2|1:0,0:0:0:0:
448,201,196298,1,12,0:1:0:0:
454,91,196983,6,0,L|339:85,1,110,0|8,1:2|0:0,0:0:0:0:
277,173,198355,2,0,L|162:179,1,110,0|10,1:2|0:2,0:0:0:0:
69,127,199726,2,0,P|53:80|69:21,2,110,6|6|0,1:2|1:2|1:0,0:0:0:0:
166,178,201783,1,8,0:0:0:0:
135,283,202469,6,0,B|218:292|218:292|230:253|275:236|275:236|264:147,1,247.5,10|4,0:1|0:0,0:0:0:0:
483,38,205555,6,0,L|457:263,1,220,6|0,1:2|0:0,0:0:0:0:
355,296,207612,1,10,0:2:0:0:
287,209,208297,2,0,P|192:183|154:286,2,220,0|4|4,0:0|1:2|1:2,0:0:0:0:
355,296,211726,1,8,0:0:0:0:
401,196,212412,2,0,P|410:150|416:77,1,110,2|8,1:0|0:0,0:0:0:0:
319,33,213783,6,0,L|98:56,1,220,2|2,1:2|1:0,0:0:0:0:
139,158,215840,2,0,L|255:147,1,110,8|2,0:0|1:0,0:0:0:0:
339,210,217212,1,8,0:0:0:0:
287,307,217897,2,0,P|220:300|170:285,1,110,2|8,1:2|0:0,0:0:0:0:
101,210,219269,2,0,B|129:102|129:102|241:121,1,220,2|4,1:0|0:0,0:0:0:0:
306,35,221326,1,10,1:2:0:0:
392,103,222012,6,0,B|421:154|386:207|386:207|353:246|373:312,1,220,4|2,1:2|0:0,0:0:0:0:
275,360,224069,1,10,0:0:0:0:
197,281,224755,2,0,P|143:265|86:269,1,110,2|8,1:2|0:0,0:0:0:0:
83,158,226126,2,0,P|137:142|194:146,1,110,2|10,1:0|0:0,0:0:0:0:
269,220,227497,6,0,B|309:248|309:248|484:235,1,220,4|0,1:2|1:0,0:0:0:0:
499,126,229555,1,8,0:0:0:0:
420,49,230240,2,0,P|363:42|308:45,1,110,4|10,1:2|1:0,0:0:0:0:
225,114,231612,2,0,P|168:121|113:118,1,110,2|10,1:2|0:1,0:0:0:0:
53,27,232983,6,0,P|84:133|65:238,1,220,4|2,0:0|1:2,0:0:0:0:
157,297,235040,1,8,0:0:0:0:
244,230,235726,2,0,P|213:124|232:19,1,220,6|6,1:2|1:2,0:0:0:0:
334,59,237783,2,0,P|322:110|338:172,1,110,8|0,0:0|0:0,0:0:0:0:
147,281,239840,1,2,0:0:0:0:
241,82,241212,6,0,P|303:69|355:87,1,110,12|8,0:0|0:0,0:0:0:0:
295,179,242583,1,2,1:2:0:0:
239,273,243269,2,0,L|154:265,1,82.5,8|8,0:0|0:0,0:0:0:0:
256,192,244297,12,0,249440,0:0:0:0:
