osu file format v14

[General]
AudioFilename: audio.mp3
AudioLeadIn: 0
PreviewTime: 53741
Countdown: 0
SampleSet: Soft
StackLeniency: 0.7
Mode: 0
LetterboxInBreaks: 0
WidescreenStoryboard: 1

[Editor]
DistanceSpacing: 1.1
BeatDivisor: 4
GridSize: 32
TimelineZoom: 1.7

[Metadata]
Title:Kiseki nanka, Iranai.
TitleUnicode:奇跡なんか、いらない。
Artist:Sasaki Sayaka
ArtistUnicode:佐咲紗花
Creator:ckharv
Version:Normal
Source:創作彼女の恋愛公式
Tags:Aino+Links aino links Sousaku Kanojo no Ren'ai Koushiki renai vn eroge galgame galge opening op video game japanese pop jpop j-pop short version didah kowari -luminate luminate lumi
BeatmapID:3546569
BeatmapSetID:1735297

[Difficulty]
HPDrainRate:4.5
CircleSize:3.2
OverallDifficulty:4
ApproachRate:5.5
SliderMultiplier:0.999999999999999
SliderTickRate:1

[Events]
//Background and Video events
Video,202,"mv.mp4"
0,0,"erena.jpeg",0,0
//Break Periods
//Storyboard Layer 0 (Background)
//Storyboard Layer 1 (Fail)
//Storyboard Layer 2 (Pass)
//Storyboard Layer 3 (Foreground)
//Storyboard Layer 4 (Overlay)
//Storyboard Sound Samples

[TimingPoints]
198,307.692307692308,4,2,1,100,1,0
198,-100,4,2,1,100,0,0
1428,-100,4,2,1,30,0,0
6351,-100,4,2,1,65,0,0
6659,-100,4,2,1,45,0,0
7274,-100,4,2,1,50,0,0
7890,-100,4,2,1,55,0,0
8198,-100,4,2,1,60,0,0
8813,-100,4,2,1,65,0,0
9044,-100,4,2,1,65,0,0
9121,-100,4,2,1,55,0,0
11121,-100,4,2,1,5,0,0
11280,307.692307692308,4,2,1,65,1,0
11280,-100,4,2,1,65,0,0
11433,-100,4,2,1,60,0,0
22356,-100,4,2,1,50,0,0
22510,-100,4,2,1,40,0,0
32203,-100,4,2,1,50,0,0
33664,-100,4,2,1,5,0,0
33741,-100,4,2,1,50,0,0
37356,-100,4,2,1,5,0,0
37433,-100,4,2,1,50,0,0
41972,-100,4,2,1,5,0,0
42049,-100,4,2,1,50,0,0
42203,-100,4,2,1,40,0,0
46895,-100,4,2,1,5,0,0
46972,-100,4,2,1,40,0,0
47510,-100,4,2,1,5,0,0
47587,-100,4,2,1,40,0,0
49356,-100,4,2,1,5,0,0
49433,-100,4,2,1,35,0,0
50049,-100,4,2,1,40,0,0
50664,-100,4,2,1,45,0,0
51126,-100,4,2,1,50,0,0
51587,-100,4,2,1,55,0,0
51895,-100,4,2,1,60,0,0
52126,-100,4,2,1,60,0,0
52203,-100,4,2,1,50,0,0
52510,-100,4,2,1,55,0,0
52818,-100,4,2,1,60,0,0
54356,-100,4,2,1,65,0,1
63587,-100,4,2,1,55,0,1
63895,-100,4,2,1,60,0,1
64126,-100,4,2,1,60,0,0
64164,-100,4,2,1,65,0,0
64203,-100,4,2,1,65,0,1
70664,-100,4,2,1,60,0,1
70894,-100,4,2,1,5,0,1
70972,-100,4,2,1,60,0,1
71587,-100,4,2,1,30,0,0
73126,-100,4,2,1,30,0,0
73741,-100,4,2,1,30,0,0
74049,-100,4,2,1,60,0,0
82741,-100,4,2,1,5,0,0
82818,-100,4,2,1,60,0,0

[Colours]
Combo1 : 253,225,162
Combo2 : 252,141,114
Combo3 : 233,233,233
Combo4 : 150,158,209

[HitObjects]
4,358,1428,6,0,P|57:343|115:332,1,99.9999999999999,2|2,2:0|2:0,0:0:0:0:
137,292,1890,1,2,2:0:0:0:
264,372,2351,1,2,2:0:0:0:
264,372,2505,2,0,P|276:320|250:275,1,99.9999999999999,2|2,2:0|2:0,0:0:0:0:
174,215,3121,1,2,2:0:0:0:
174,215,3274,2,0,P|160:172|181:120,1,99.9999999999999,2|2,2:0|2:0,0:0:0:0:
244,33,3890,6,0,P|304:50|351:60,1,99.9999999999999,2|0,2:0|2:0,0:0:0:0:
354,111,4351,2,0,P|411:98|507:82,1,150,2|2,2:0|2:0,0:0:0:0:
504,193,5121,2,0,P|465:194|427:239,1,99.9999999999999,2|2,2:0|2:0,0:0:0:0:
416,347,5736,1,2,2:0:0:0:
308,369,6044,1,4,2:3:0:0:
249,267,6351,6,0,P|203:237|156:244,1,99.9999999999999,4|0,2:0|3:0,0:0:0:0:
138,298,6813,1,0,3:0:0:0:
138,298,6967,2,0,L|74:321,1,50,0|0,3:0|3:0,0:0:0:0:
38,296,7274,2,0,L|-10:258,1,50,0|0,3:0|3:0,0:0:0:0:
0,211,7582,5,0,3:0:0:0:
87,144,7890,2,0,L|65:41,1,99.9999999999999,2|2,3:0|3:0,0:0:0:0:
113,16,8351,1,2,3:0:0:0:
113,16,8505,2,0,P|154:33|173:30,1,50,2|2,3:0|3:0,0:0:0:0:
193,75,8813,6,0,P|270:51|295:47,1,99.9999999999999,6|10,2:0|2:0,0:0:0:0:
318,1,9274,1,8,2:0:0:0:
392,90,9582,1,10,2:0:0:0:
392,90,9736,1,10,2:0:0:0:
489,219,11280,6,0,P|445:250|394:240,1,99.9999999999999,6|8,2:0|2:0,0:0:0:0:
336,154,11895,1,2,3:0:0:0:
288,255,12203,1,10,2:0:0:0:
288,255,12356,2,0,P|245:227|183:249,1,99.9999999999999,2|0,3:0|3:0,0:0:0:0:
173,278,12818,1,10,2:0:0:0:
120,374,13126,1,2,3:0:0:0:
39,307,13433,1,10,2:0:0:0:
39,307,13587,6,0,P|29:257|17:208,1,99.9999999999999,2|0,3:0|3:0,0:0:0:0:
29,154,14049,1,10,2:0:0:0:
115,86,14356,1,2,3:0:0:0:
164,190,14664,1,10,2:0:0:0:
164,190,14818,2,0,P|206:219|262:197,1,99.9999999999999,2|2,3:0|3:0,0:0:0:0:
302,189,15280,2,0,L|317:128,1,50,10|2,2:0|2:0,0:0:0:0:
342,93,15587,2,0,L|318:36,1,50,2|2,3:0|3:0,0:0:0:0:
281,9,15895,1,10,2:0:0:0:
224,103,16203,6,0,P|177:89|125:78,1,99.9999999999999,6|8,2:0|2:0,0:0:0:0:
87,116,16664,1,2,2:0:0:0:
87,116,16818,1,0,3:0:0:0:
40,215,17126,2,0,P|60:282|66:321,1,99.9999999999999,10|0,2:0|0:0,0:0:0:0:
52,368,17587,1,2,3:0:0:0:
52,368,17741,1,8,2:0:0:0:
154,326,18049,2,0,P|195:336|214:345,1,50,2|2,3:0|3:0,0:0:0:0:
241,377,18356,2,0,P|278:363|294:361,1,50,10|0,2:0|3:0,0:0:0:0:
342,353,18664,6,0,P|346:301|308:263,1,99.9999999999999,14|0,2:0|3:0,0:0:0:0:
265,245,19126,2,0,P|260:193|299:152,1,99.9999999999999,10|0,2:0|3:0,0:0:0:0:
338,134,19587,2,0,P|370:147|387:151,2,50,10|8|8,3:0|3:0|3:0,0:0:0:0:
311,85,20049,6,0,B|276:-55|115:-49|-71:155|306:185|153:346,1,549.999999999999,6|2,2:0|2:0,0:0:0:0:
324,326,22356,6,0,P|377:334|427:348,1,99.9999999999999,4|2,3:1|3:0,0:0:0:0:
473,326,22818,2,0,P|492:282|472:231,1,99.9999999999999,2|0,2:0|3:0,0:0:0:0:
434,206,23280,1,2,3:0:0:0:
434,206,23433,2,0,P|408:150|450:71,1,150,2|0,2:0|3:0,0:0:0:0:
346,23,24203,2,0,P|299:39|286:41,1,50,2|2,3:0|2:0,0:0:0:0:
260,78,24510,2,0,P|217:64|193:60,1,50,2|2,3:0|2:0,0:0:0:0:
176,20,24818,5,2,3:0:0:0:
128,122,25126,1,2,3:0:0:0:
128,122,25280,2,0,P|70:96|35:115,1,99.9999999999999,2|0,2:0|0:0,0:0:0:0:
8,155,25741,1,2,3:0:0:0:
8,155,25895,2,0,P|31:229|46:305,1,150,2|0,2:0|3:0,0:0:0:0:
125,375,26664,1,2,3:0:0:0:
175,277,26972,1,2,2:0:0:0:
258,348,27280,6,0,P|317:375|389:328,1,150,6|2,2:1|2:0,0:0:0:0:
411,286,27895,2,0,P|398:240|387:187,1,99.9999999999999,2|2,3:0|3:0,0:0:0:0:
355,144,28356,1,2,2:0:0:0:
424,59,28664,1,2,2:0:0:0:
329,13,28972,1,2,2:0:0:0:
329,13,29126,2,0,P|276:30|225:39,1,99.9999999999999,2|2,3:0|3:0,0:0:0:0:
123,22,29741,6,0,P|87:75|97:107,1,99.9999999999999,2|2,3:0|3:0,0:0:0:0:
128,150,30203,2,0,P|149:210|133:241,1,99.9999999999999,2|0,2:0|2:0,0:0:0:0:
91,274,30664,1,2,3:0:0:0:
221,375,31126,1,2,2:0:0:0:
340,261,31587,2,0,P|377:271|405:283,1,50,2|6,3:0|2:3,0:0:0:0:
426,315,31895,2,0,P|464:301|480:298,1,50,2|4,3:0|2:3,0:0:0:0:
509,257,32203,5,4,2:1:0:0:
457,166,32510,1,8,2:0:0:0:
457,166,32664,2,0,P|442:96|437:55,1,99.9999999999999,2|0,2:0|3:0,0:0:0:0:
410,27,33126,1,10,2:0:0:0:
410,27,33280,2,0,P|354:58|320:40,1,99.9999999999999,2|0,2:0|0:0,0:0:0:0:
286,6,33741,1,8,2:0:0:0:
252,111,34049,2,0,P|262:149|266:172,1,50,2|2,3:0|3:0,0:0:0:0:
288,209,34356,2,0,P|275:247|272:271,1,50,8|2,2:0|2:0,0:0:0:0:
246,304,34664,5,2,3:0:0:0:
157,238,34972,1,10,2:0:0:0:
102,333,35280,1,2,3:0:0:0:
32,254,35587,1,10,2:0:0:0:
32,254,35741,2,0,P|45:178|48:147,1,99.9999999999999,2|0,2:0|2:0,0:0:0:0:
25,104,36203,1,10,2:0:0:0:
101,26,36510,2,0,P|141:14|191:52,1,99.9999999999999,2|10,3:0|2:0,0:0:0:0:
205,101,36972,1,2,2:0:0:0:
205,101,37126,5,4,2:1:0:0:
272,194,37433,1,8,2:0:0:0:
272,194,37587,2,0,P|331:174|375:164,1,99.9999999999999,2|2,2:0|2:0,0:0:0:0:
393,116,38049,1,10,2:0:0:0:
476,186,38356,1,0,3:0:0:0:
421,281,38664,2,0,P|394:286|367:295,1,50,10|0,2:0|2:0,0:0:0:0:
338,336,38972,2,0,P|316:328|289:323,1,50,2|0,3:0|3:0,0:0:0:0:
251,283,39280,1,10,2:0:0:0:
185,371,39587,5,2,3:0:0:0:
112,288,39895,2,0,P|124:236|126:227,1,50,10|0,2:0|2:0,0:0:0:0:
162,199,40203,2,0,P|150:147|149:139,1,50,2|0,3:0|3:0,0:0:0:0:
115,108,40510,1,10,2:0:0:0:
201,40,40818,2,0,P|245:68|295:57,1,99.9999999999999,10|8,2:0|2:0,0:0:0:0:
329,22,41280,1,10,3:0:0:0:
329,22,41433,2,0,P|369:15|383:19,1,50,10|0,3:0|3:0,0:0:0:0:
416,56,41741,1,8,2:0:0:0:
474,155,42049,5,6,2:0:0:0:
474,155,42203,1,2,3:0:0:0:
403,304,42664,2,0,P|364:314|348:320,1,50,10|2,2:0|2:0,0:0:0:0:
309,296,42972,1,2,3:0:0:0:
309,296,43126,1,0,3:0:0:0:
189,182,43587,2,0,P|198:142|203:125,1,50,2|2,3:0|2:0,0:0:0:0:
236,91,43895,2,0,P|226:51|221:34,1,50,10|10,2:0|3:0,0:0:0:0:
187,1,44203,1,10,3:0:0:0:
106,74,44510,5,6,2:0:0:0:
106,74,44664,1,2,3:0:0:0:
11,209,45126,2,0,P|26:255|29:269,1,50,10|2,2:0|2:0,0:0:0:0:
28,311,45433,1,2,3:0:0:0:
28,311,45587,1,0,3:0:0:0:
179,377,46049,2,0,P|212:366|234:361,1,50,2|10,3:0|2:0,0:0:0:0:
258,318,46356,2,0,P|291:328|313:333,1,50,2|10,3:0|3:0,0:0:0:0:
348,367,46664,1,10,3:0:0:0:
452,333,46972,6,0,P|487:288|435:151,1,200,4|4,2:0|2:0,0:0:0:0:
367,89,47895,2,0,P|327:99|308:102,1,50,2|8,2:0|3:0,0:0:0:0:
273,68,48203,1,10,3:0:0:0:
222,165,48510,1,2,3:0:0:0:
137,94,48818,2,0,P|101:80|42:116,1,99.9999999999999,6|0,2:0|0:0,0:0:0:0:
4,207,49433,6,0,P|-9:242|26:301,1,99.9999999999999,2|0,3:0|3:0,0:0:0:0:
57,340,49895,1,0,3:0:0:0:
57,340,50049,2,0,P|124:321|158:313,1,99.9999999999999,2|0,3:0|3:0,0:0:0:0:
195,357,50510,1,0,3:0:0:0:
195,357,50664,2,0,P|262:338|296:330,1,99.9999999999999,10|8,2:0|2:0,0:0:0:0:
337,361,51126,1,10,2:0:0:0:
412,214,51587,1,10,2:0:0:0:
328,142,51895,6,0,P|295:129|236:166,1,99.9999999999999,6|8,2:0|2:0,0:0:0:0:
227,210,52356,1,8,2:0:0:0:
227,210,52510,2,0,P|198:229|132:208,1,99.9999999999999,8|10,2:0|2:0,0:0:0:0:
65,140,53126,1,10,2:0:0:0:
65,140,53280,1,10,2:0:0:0:
306,8,54049,1,2,2:0:0:0:
351,105,54356,6,0,P|392:143|450:129,1,99.9999999999999,6|10,2:0|2:0,0:0:0:0:
477,173,54818,2,0,P|462:238|456:278,1,99.9999999999999,2|0,2:0|3:0,0:0:0:0:
442,325,55280,1,8,2:0:0:0:
442,325,55433,1,2,3:0:0:0:
361,250,55741,1,2,2:0:0:0:
312,350,56049,1,2,2:0:0:0:
312,350,56203,1,2,3:0:0:0:
237,269,56510,1,10,2:0:0:0:
142,324,56818,6,0,P|124:255|149:214,1,99.9999999999999,2|10,3:0|2:0,0:0:0:0:
181,200,57280,2,0,P|181:129|146:95,1,99.9999999999999,2|0,2:0|3:0,0:0:0:0:
132,71,57741,1,8,2:0:0:0:
132,71,57895,1,2,3:0:0:0:
220,5,58203,1,2,2:0:0:0:
319,51,58510,1,2,2:0:0:0:
330,159,58818,1,2,3:0:0:0:
248,232,59126,1,0,3:0:0:0:
248,232,59280,6,0,P|173:212|133:203,1,99.9999999999999,6|10,2:0|2:0,0:0:0:0:
117,164,59741,1,2,2:0:0:0:
20,219,60049,1,2,3:0:0:0:
60,322,60356,2,0,P|112:356|156:343,1,99.9999999999999,2|2,3:0|2:0,0:0:0:0:
188,320,60818,1,10,2:0:0:0:
283,374,61126,2,0,P|324:361|344:357,1,50,0|0,3:0|3:0,0:0:0:0:
368,319,61433,1,8,0:0:0:0:
462,375,61741,6,0,P|470:325|484:269,1,99.9999999999999,2|10,3:0|2:0,0:0:0:0:
463,224,62203,1,2,2:0:0:0:
508,124,62510,1,2,3:0:0:0:
435,41,62818,2,0,P|403:32|341:68,1,99.9999999999999,2|2,3:0|3:0,0:0:0:0:
329,113,63280,1,10,2:0:0:0:
272,207,63587,2,0,P|225:195|208:192,1,50,10|8,2:0|2:0,0:0:0:0:
189,151,63895,2,0,P|142:139|125:136,1,50,10|8,2:0|2:0,0:0:0:0:
90,160,64203,6,0,P|61:220|81:266,1,99.9999999999999,6|10,2:0|2:0,0:0:0:0:
116,277,64664,2,0,P|158:276|200:331,1,99.9999999999999,2|0,2:0|3:0,0:0:0:0:
214,367,65126,1,10,2:0:0:0:
214,367,65280,1,2,3:0:0:0:
282,280,65587,1,2,2:0:0:0:
360,364,65895,1,2,2:0:0:0:
360,364,66049,1,2,3:0:0:0:
419,271,66356,1,10,2:0:0:0:
486,184,66664,6,0,P|473:112|468:75,1,99.9999999999999,6|8,2:0|2:0,0:0:0:0:
436,41,67126,1,2,3:0:0:0:
436,41,67280,2,0,P|382:76|336:61,1,99.9999999999999,4|10,2:0|2:0,0:0:0:0:
309,33,67741,1,0,2:0:0:0:
309,33,67895,1,10,3:0:0:0:
255,129,68203,1,10,3:0:0:0:
182,51,68510,1,10,2:0:0:0:
182,51,68664,1,10,2:0:0:0:
51,151,69126,6,0,P|22:200|36:249,1,99.9999999999999,4|8,2:0|2:0,0:0:0:0:
72,285,69587,1,0,3:0:0:0:
72,285,69741,2,0,P|134:267|173:260,1,99.9999999999999,8|8,2:0|2:0,0:0:0:0:
200,215,70203,1,0,3:0:0:0:
200,215,70356,1,8,2:0:0:0:
269,299,70664,1,10,2:0:0:0:
344,218,70972,2,0,P|333:175|330:163,1,50,10|10,2:0|2:0,0:0:0:0:
291,131,71280,2,0,P|302:88|305:76,1,50,10|10,2:0|2:0,0:0:0:0:
350,54,71587,6,0,B|386:-46|507:-25|625:135|345:127|445:257,1,400,2|2,2:0|2:0,0:0:0:0:
408,348,73126,2,0,P|455:331|503:319,2,99.9999999999999,2|2|2,2:0|2:0|2:0,0:0:0:0:
367,319,73895,1,2,2:0:0:0:
367,319,74049,6,0,P|319:302|271:290,1,99.9999999999999,6|8,2:0|2:0,0:0:0:0:
197,371,74664,1,2,3:0:0:0:
128,292,74972,1,10,2:0:0:0:
128,292,75126,2,0,P|125:230|167:194,1,99.9999999999999,2|0,3:0|3:0,0:0:0:0:
197,179,75587,1,10,2:0:0:0:
128,93,75895,1,2,3:0:0:0:
222,34,76203,1,10,2:0:0:0:
222,34,76356,6,0,P|276:50|338:64,1,99.9999999999999,2|0,3:0|3:0,0:0:0:0:
353,102,76818,1,10,2:0:0:0:
437,31,77126,1,2,3:0:0:0:
492,132,77433,1,10,2:0:0:0:
492,132,77587,2,0,P|474:210|470:238,1,99.9999999999999,2|2,3:0|3:0,0:0:0:0:
485,282,78049,2,0,L|438:305,1,50,10|2,2:0|2:0,0:0:0:0:
388,325,78356,2,0,L|332:303,1,50,2|2,3:0|3:0,0:0:0:0:
313,259,78664,1,10,2:0:0:0:
241,342,78972,6,0,P|201:369|146:353,1,99.9999999999999,6|8,2:0|2:0,0:0:0:0:
114,326,79433,1,2,2:0:0:0:
114,326,79587,1,0,3:0:0:0:
36,248,79895,2,0,P|50:179|58:135,1,99.9999999999999,10|0,2:0|0:0,0:0:0:0:
34,104,80356,1,2,3:0:0:0:
34,104,80510,1,8,2:0:0:0:
111,25,80818,2,0,P|152:39|167:43,1,50,2|2,3:0|3:0,0:0:0:0:
188,87,81126,2,0,P|231:72|244:69,1,50,10|2,2:0|3:0,0:0:0:0:
277,34,81433,6,0,P|322:67|322:129,1,99.9999999999999,6|0,2:0|3:0,0:0:0:0:
291,148,81895,2,0,P|246:181|246:243,1,99.9999999999999,10|0,2:0|3:0,0:0:0:0:
267,269,82356,2,0,P|307:281|317:286,1,50,10|8,3:0|3:0,0:0:0:0:
381,372,82818,2,0,P|431:357|489:345,1,99.9999999999999,10|0,2:0|3:0,0:0:0:0:
509,301,83280,2,0,P|516:254|483:212,1,99.9999999999999,10|0,2:0|0:0,0:0:0:0:
438,186,83741,1,4,0:0:0:0:
256,192,83895,12,0,88587,3:0:0:0:
