osu file format v14

[General]
AudioFilename: audio.mp3
AudioLeadIn: 0
PreviewTime: 53741
Countdown: 0
SampleSet: Soft
StackLeniency: 0.7
Mode: 2
LetterboxInBreaks: 0
WidescreenStoryboard: 1

[Editor]
Bookmarks: 88587
DistanceSpacing: 1.4
BeatDivisor: 4
GridSize: 8
TimelineZoom: 1.7

[Metadata]
Title:Kiseki nanka, Iranai.
TitleUnicode:奇跡なんか、いらない。
Artist:Sasaki Sayaka
ArtistUnicode:佐咲紗花
Creator:ckharv
Version:Lumi's Salad
Source:創作彼女の恋愛公式
Tags:Aino+Links aino links Sousaku Kanojo no Ren'ai Koushiki renai vn eroge galgame galge opening op video game japanese pop jpop j-pop short version didah kowari -luminate luminate lumi
BeatmapID:3592603
BeatmapSetID:1735297

[Difficulty]
HPDrainRate:4
CircleSize:3
OverallDifficulty:7
ApproachRate:7
SliderMultiplier:1.7
SliderTickRate:1

[Events]
//Background and Video events
0,0,"lumi3.jpeg",0,0
Video,202,"mv.mp4"
//Break Periods
//Storyboard Layer 0 (Background)
//Storyboard Layer 1 (Fail)
//Storyboard Layer 2 (Pass)
//Storyboard Layer 3 (Foreground)
//Storyboard Layer 4 (Overlay)
//Storyboard Sound Samples

[TimingPoints]
198,307.692307692308,4,2,1,30,1,0
1428,-100,4,2,1,30,0,0
6351,-100,4,2,1,65,0,0
6659,-100,4,2,1,45,0,0
7274,-100,4,2,1,50,0,0
7890,-100,4,2,1,55,0,0
8198,-100,4,2,1,60,0,0
8813,-100,4,2,1,65,0,0
9121,-100,4,2,1,55,0,0
11280,307.692307692308,4,2,1,65,1,0
11433,-100,4,2,1,60,0,0
22356,-100,4,2,1,50,0,0
22510,-100,4,2,1,40,0,0
32203,-100,4,2,1,50,0,0
33663,-100,4,2,1,5,0,0
33741,-100,4,2,1,50,0,0
37356,-100,4,2,1,5,0,0
37433,-100,4,2,1,50,0,0
41971,-100,4,2,1,5,0,0
42049,-100,4,2,1,50,0,0
42203,-100,4,2,1,40,0,0
46894,-100,4,2,1,5,0,0
46972,-100,4,2,1,40,0,0
47510,-100,4,2,1,5,0,0
47587,-100,4,2,1,40,0,0
49356,-100,4,2,1,5,0,0
49433,-100,4,2,1,35,0,0
50049,-100,4,2,1,40,0,0
50664,-100,4,2,1,45,0,0
51126,-100,4,2,1,50,0,0
51587,-100,4,2,1,55,0,0
51895,-100,4,2,1,60,0,0
52203,-100,4,2,1,50,0,0
52510,-100,4,2,1,55,0,0
52818,-100,4,2,1,60,0,0
54356,-100,4,2,1,65,0,1
63587,-100,4,2,1,55,0,1
63895,-100,4,2,1,60,0,1
64164,-100,4,2,1,65,0,1
70664,-100,4,2,1,60,0,1
70894,-100,4,2,1,5,0,1
70972,-100,4,2,1,60,0,1
71587,-100,4,2,1,30,0,0
73126,-100,4,2,1,30,0,0
73741,-100,4,2,1,30,0,0
74049,-100,4,2,1,60,0,0
82740,-100,4,2,1,5,0,0
82818,-100,4,2,1,60,0,0

[Colours]
Combo1 : 253,225,162
Combo2 : 252,141,114
Combo3 : 233,233,233
Combo4 : 150,158,209

[HitObjects]
120,328,659,5,0,0:0:0:0:
120,328,813,2,0,L|112:152,1,170
328,160,1428,5,2,2:0:0:0:
216,336,1736,1,2,2:0:0:0:
216,336,1890,2,0,P|224:176|312:144,1,255,2|2,2:0|2:0,0:0:0:0:
368,144,2505,5,2,2:0:0:0:
256,80,2813,1,2,2:0:0:0:
376,32,3121,1,2,2:0:0:0:
376,32,3274,2,0,P|360:128|296:152,1,170,2|2,2:0|2:0,0:0:0:0:
32,272,3890,6,0,P|56:144|152:64,2,255,2|2|2,2:0|2:0|2:0,0:0:0:0:
184,344,5121,6,0,L|192:152,1,170,2|2,2:0|2:0,0:0:0:0:
64,176,5736,2,0,L|56:80,1,85,2|4,2:0|2:3,0:0:0:0:
136,88,6044,1,4,2:3:0:0:
408,336,6351,5,4,2:0:0:0:
256,336,6659,2,0,L|136:208,2,170,0|0|0,3:0|3:0|3:0,0:0:0:0:
72,352,7582,6,0,L|64:168,1,170,0|2,3:0|3:0,0:0:0:0:
208,184,8198,1,2,3:0:0:0:
160,144,8351,1,2,3:0:0:0:
160,80,8505,1,2,3:0:0:0:
208,48,8659,1,2,3:0:0:0:
360,48,8813,5,6,2:0:0:0:
264,280,9121,1,10,2:0:0:0:
200,272,9274,2,0,L|200:64,1,170,8|10,2:0|2:0,0:0:0:0:
264,72,9736,6,0,L|64:72,1,170,10|0,2:0|0:0,0:0:0:0:
184,128,10351,1,0,0:0:0:0:
280,176,10659,1,0,0:0:0:0:
160,296,10967,2,0,L|159:194,1,85,0|0,0:0|2:0,0:0:0:0:
312,200,11280,6,0,L|448:72,2,170,6|8|2,2:0|2:0|3:0,0:0:0:0:
408,336,12203,1,10,2:0:0:0:
272,344,12356,6,0,P|224:280|280:216,1,170,2|0,3:0|3:0,0:0:0:0:
344,216,12818,2,0,L|184:104,1,170,10|2,2:0|3:0,0:0:0:0:
288,328,13433,1,10,2:0:0:0:
144,328,13587,6,0,P|104:240|160:192,1,170,2|0,3:0|3:0,0:0:0:0:
216,192,14049,2,0,L|344:72,2,170,10|2|10,2:0|3:0|2:0,0:0:0:0:
352,208,14818,6,0,P|400:264|344:336,1,170,2|2,3:0|3:0,0:0:0:0:
280,336,15279,1,10,2:0:0:0:
232,288,15433,1,2,2:0:0:0:
224,216,15587,1,2,3:0:0:0:
272,160,15741,1,2,3:0:0:0:
336,152,15895,1,10,2:0:0:0:
80,200,16203,6,0,P|96:104|160:72,1,170,6|8,2:0|2:0,0:0:0:0:
224,72,16664,1,2,2:0:0:0:
154,72,16818,1,0,3:0:0:0:
416,288,17126,6,0,P|384:176|312:152,1,170,10|0,2:0|0:0,0:0:0:0:
272,144,17587,1,2,3:0:0:0:
200,224,17741,2,0,L|192:24,1,170,8|2,2:0|3:0,0:0:0:0:
320,112,18356,1,10,2:0:0:0:
328,40,18510,1,0,3:0:0:0:
176,32,18664,6,0,P|96:80|88:168,1,170,14|0,2:0|3:0,0:0:0:0:
152,152,19126,2,0,P|218:199|217:281,1,170,10|0,2:0|3:0,0:0:0:0:
152,296,19587,1,10,3:0:0:0:
392,304,19895,5,8,3:0:0:0:
392,304,20049,1,6,2:0:0:0:
256,192,20356,12,2,21741,2:0:0:0:
160,296,22049,5,2,2:0:0:0:
160,296,22203,1,2,2:0:0:0:
304,176,22356,6,0,P|376:200|392:312,1,170,4|2,3:1|3:0,0:0:0:0:
336,344,22818,2,0,P|296:288|360:200,1,170,2|0,2:0|3:0,0:0:0:0:
408,200,23279,1,2,3:0:0:0:
408,200,23433,1,2,2:0:0:0:
338,206,23587,6,0,L|210:94,2,170,0|0|2,3:0|3:0|3:0,0:0:0:0:
216,312,24510,1,2,3:0:0:0:
216,312,24664,1,2,2:0:0:0:
288,216,24818,6,0,P|328:288|272:360,1,170,2|2,3:0|3:0,0:0:0:0:
208,360,25279,2,0,P|112:296|112:232,1,170,2|0,2:0|0:0,0:0:0:0:
107,250,25741,1,2,3:0:0:0:
152,208,25895,1,2,2:0:0:0:
216,200,26049,6,0,L|80:72,1,170,0|0,3:0|3:0,0:0:0:0:
240,200,26664,2,0,L|392:64,1,170,2|2,3:0|2:0,0:0:0:0:
64,56,27279,6,0,P|104:160|184:176,1,170,6|0,2:1|3:0,0:0:0:0:
224,176,27741,1,2,2:0:0:0:
224,176,27895,1,2,3:0:0:0:
368,312,28203,1,2,3:0:0:0:
368,312,28356,1,2,2:0:0:0:
296,320,28510,6,0,L|288:144,1,170,0|0,3:0|3:0,0:0:0:0:
216,152,28972,1,2,2:0:0:0:
144,200,29126,2,0,L|136:8,1,170,2|2,3:0|3:0,0:0:0:0:
384,344,29741,6,0,P|400:256|328:216,1,170,2|2,3:0|3:0,0:0:0:0:
272,216,30203,2,0,P|240:120|296:72,1,170,2|0,2:0|2:0,0:0:0:0:
352,72,30664,1,2,3:0:0:0:
240,336,30972,5,2,3:0:0:0:
304,312,31126,2,0,L|296:104,1,170,2|2,2:0|2:0,0:0:0:0:
232,144,31587,1,2,3:0:0:0:
128,96,31895,1,2,3:0:0:0:
128,96,32049,1,4,2:3:0:0:
272,336,32203,6,0,P|360:288|376:200,1,170,4|8,2:1|2:0,0:0:0:0:
312,224,32664,2,0,P|232:176|224:88,1,170,2|0,2:0|3:0,0:0:0:0:
288,104,33126,1,10,2:0:0:0:
360,104,33279,6,0,L|360:200,1,85,2|0,2:0|3:0,0:0:0:0:
240,336,33741,2,0,L|96:208,2,170,8|2|8,2:0|3:0|2:0,0:0:0:0:
304,336,34510,1,2,2:0:0:0:
376,320,34664,6,0,P|352:232|272:192,1,170,2|10,3:0|2:0,0:0:0:0:
160,288,35279,2,0,L|152:96,1,170,2|10,3:0|2:0,0:0:0:0:
232,112,35741,6,0,L|312:40,1,85,2|2,2:0|3:0,0:0:0:0:
192,336,36203,2,0,L|64:200,2,170,10|2|10,2:0|3:0|2:0,0:0:0:0:
264,336,36972,1,2,2:0:0:0:
400,344,37126,6,0,P|403:286|312:200,1,170,4|8,2:1|2:0,0:0:0:0:
256,208,37587,2,0,L|248:8,1,170,2|2,2:0|2:0,0:0:0:0:
333,205,38049,6,0,P|421:141|429:61,1,170,10|0,2:0|3:0,0:0:0:0:
312,72,38664,1,10,2:0:0:0:
184,120,38972,1,2,3:0:0:0:
312,176,39280,1,10,2:0:0:0:
312,312,39587,5,2,3:0:0:0:
72,352,39895,2,0,L|216:240,1,170,10|2,2:0|3:0,0:0:0:0:
144,224,40356,1,0,3:0:0:0:
144,224,40510,1,10,2:0:0:0:
384,216,40818,5,10,2:0:0:0:
272,160,41126,1,8,2:0:0:0:
328,144,41279,1,10,3:0:0:0:
384,128,41433,1,10,3:0:0:0:
408,80,41587,1,0,3:0:0:0:
384,32,41741,1,8,2:0:0:0:
128,336,42049,5,6,2:0:0:0:
128,336,42203,2,0,P|96:256|176:200,1,170,2|0,3:0|3:0,0:0:0:0:
216,200,42664,1,10,2:0:0:0:
344,200,42972,1,2,3:0:0:0:
400,196,43126,6,0,P|440:140|376:60,1,170,0|8,3:0|2:0,0:0:0:0:
328,64,43587,2,0,L|464:176,1,170,2|10,3:0|2:0,0:0:0:0:
336,264,44203,1,10,3:0:0:0:
56,336,44510,5,6,2:0:0:0:
56,336,44664,2,0,P|64:256|136:200,1,170,2|0,3:0|3:0,0:0:0:0:
200,192,45126,1,10,2:0:0:0:
336,192,45433,1,2,3:0:0:0:
272,184,45587,6,0,P|184:104|192:48,1,170,0|0,3:0|3:0,0:0:0:0:
256,56,46049,2,0,P|336:88|352:192,1,170,2|2,3:0|3:0,0:0:0:0:
312,168,46510,1,10,3:0:0:0:
360,168,46664,1,10,3:0:0:0:
104,336,46972,6,0,L|96:128,1,170,4|0,2:0|0:0,0:0:0:0:
352,352,47587,2,0,L|360:144,1,170,4|0,2:0|0:0,0:0:0:0:
216,176,48203,1,10,3:0:0:0:
358,182,48510,2,0,L|358:86,1,85,2|2,3:0|3:0,0:0:0:0:
296,88,48818,1,6,2:0:0:0:
424,48,49126,1,0,0:0:0:0:
176,304,49433,6,0,P|136:216|192:176,1,170,2|0,3:0|3:0,0:0:0:0:
312,176,50049,2,0,P|352:272|296:312,1,170,2|0,3:0|3:0,0:0:0:0:
56,336,50664,6,0,L|200:200,1,170,10|8,2:0|2:0,0:0:0:0:
240,224,51126,2,0,L|88:104,1,170,10|8,2:0|2:0,0:0:0:0:
40,120,51587,1,10,2:0:0:0:
296,336,51895,6,0,P|336:240|296:192,1,170,6|8,2:0|2:0,0:0:0:0:
224,192,52356,1,8,2:0:0:0:
301,195,52510,2,0,L|448:64,1,170,8|10,2:0|2:0,0:0:0:0:
176,80,53126,5,10,2:0:0:0:
176,80,53279,1,10,2:0:0:0:
296,240,53587,1,0,0:0:0:0:
296,240,53741,1,0,0:0:0:0:
176,312,54049,1,2,2:0:0:0:
432,144,54356,6,0,P|472:216|408:296,1,170,6|10,2:0|2:0,0:0:0:0:
376,288,54818,2,0,P|304:272|280:176,1,170,2|0,2:0|3:0,0:0:0:0:
328,184,55279,1,8,2:0:0:0:
376,176,55433,1,2,3:0:0:0:
136,136,55741,5,2,2:0:0:0:
248,104,56049,1,2,2:0:0:0:
184,312,56203,2,0,L|176:136,1,170,2|10,3:0|2:0,0:0:0:0:
432,80,56818,6,0,P|472:176|408:216,1,170,2|10,3:0|2:0,0:0:0:0:
352,208,57279,2,0,P|272:248|264:328,1,170,2|0,2:0|3:0,0:0:0:0:
328,320,57741,1,8,2:0:0:0:
480,320,57895,6,0,L|488:144,1,170,2|2,3:0|2:0,0:0:0:0:
328,336,58510,2,0,L|320:144,1,170,2|2,0:0|0:0,0:0:0:0:
432,160,59126,1,0,0:0:0:0:
272,288,59279,6,0,P|192:256|168:176,1,170,6|8,2:0|0:0,0:0:0:0:
232,176,59741,2,0,L|384:56,1,170,2|2,2:0|3:0,0:0:0:0:
120,256,60356,6,0,L|112:64,1,170,2|2,3:0|2:0,0:0:0:0:
176,320,60818,2,0,L|40:216,1,170,10|0,2:0|3:0,0:0:0:0:
168,104,61433,1,8,2:0:0:0:
168,56,61587,1,2,3:0:0:0:
320,280,61741,6,0,P|424:248|440:160,1,170,2|10,3:0|2:0,0:0:0:0:
368,216,62203,2,0,L|360:32,1,170,2|2,2:0|3:0,0:0:0:0:
312,48,62664,1,8,2:0:0:0:
64,112,62972,5,8,2:0:0:0:
312,160,63279,1,10,2:0:0:0:
192,232,63587,1,10,2:0:0:0:
136,192,63741,1,8,2:0:0:0:
136,128,63895,1,10,2:0:0:0:
192,104,64049,1,8,2:0:0:0:
344,104,64203,5,6,2:0:0:0:
216,320,64510,1,10,2:0:0:0:
216,320,64664,2,0,P|232:224|328:184,1,170,2|0,2:0|3:0,0:0:0:0:
232,176,65126,1,10,2:0:0:0:
176,176,65280,5,2,3:0:0:0:
312,186,65587,2,0,L|320:8,1,170,2|2,2:0|2:0,0:0:0:0:
240,184,66049,2,0,L|112:64,1,170,2|10,3:0|2:0,0:0:0:0:
376,48,66664,6,0,P|416:128|344:168,1,170,6|8,2:0|2:0,0:0:0:0:
96,160,67279,2,0,L|88:352,1,170,4|10,2:0|2:0,0:0:0:0:
352,336,67895,6,0,L|208:216,1,170,10|10,3:0|3:0,0:0:0:0:
280,208,68356,1,8,3:0:0:0:
336,192,68510,1,10,2:0:0:0:
392,184,68664,1,10,2:0:0:0:
48,336,69126,6,0,L|192:208,2,170,4|8|8,2:0|2:0|2:0,0:0:0:0:
176,344,70049,1,8,2:0:0:0:
432,272,70356,5,8,2:0:0:0:
312,216,70664,1,10,2:0:0:0:
432,144,70972,2,0,L|440:40,1,85,10|10,2:0|2:0,0:0:0:0:
384,40,71280,1,10,2:0:0:0:
328,32,71433,1,10,2:0:0:0:
192,24,71587,5,2,2:0:0:0:
304,120,71895,1,0,0:0:0:0:
304,120,72049,1,0,0:0:0:0:
192,248,72356,1,0,0:0:0:0:
256,256,72510,6,0,L|264:48,1,170,0|2,0:0|2:0,0:0:0:0:
152,80,73126,1,2,2:0:0:0:
264,80,73433,1,2,2:0:0:0:
376,120,73741,2,0,L|376:8,1,85,2|2,2:0|2:0,0:0:0:0:
224,200,74049,6,0,L|88:72,2,170,6|8|2,2:0|2:0|3:0,0:0:0:0:
120,336,74972,1,10,2:0:0:0:
272,344,75125,6,0,P|320:280|264:216,1,170,2|0,3:0|3:0,0:0:0:0:
192,216,75587,2,0,L|352:104,1,170,10|2,2:0|3:0,0:0:0:0:
232,328,76202,1,10,2:0:0:0:
376,328,76356,6,0,P|416:240|360:192,1,170,2|0,3:0|3:0,0:0:0:0:
304,192,76818,2,0,L|184:64,2,170,10|2|10,2:0|3:0|2:0,0:0:0:0:
168,208,77587,6,0,P|120:264|176:336,1,170,2|2,3:0|3:0,0:0:0:0:
232,336,78048,1,10,2:0:0:0:
280,288,78202,1,2,2:0:0:0:
288,216,78356,1,2,3:0:0:0:
240,160,78510,1,2,3:0:0:0:
176,152,78664,1,10,2:0:0:0:
432,200,78972,6,0,P|416:104|352:72,1,170,6|8,2:0|2:0,0:0:0:0:
288,72,79433,1,2,2:0:0:0:
358,72,79587,1,0,3:0:0:0:
96,288,79895,6,0,P|128:176|200:152,1,170,10|0,2:0|0:0,0:0:0:0:
240,144,80356,1,2,3:0:0:0:
312,224,80510,2,0,L|320:24,1,170,8|2,2:0|3:0,0:0:0:0:
192,112,81125,1,10,2:0:0:0:
184,40,81279,1,2,3:0:0:0:
336,32,81433,6,0,P|416:80|424:168,1,170,6|0,2:0|3:0,0:0:0:0:
360,152,81895,2,0,L|216:288,1,170,10|0,2:0|3:0,0:0:0:0:
168,272,82356,1,10,3:0:0:0:
264,336,82664,5,8,3:0:0:0:
128,336,82818,2,0,P|56:288|56:192,1,170,10|0,2:0|3:0,0:0:0:0:
112,192,83280,1,10,2:0:0:0:
176,184,83433,1,2,3:0:0:0:
432,184,83741,5,4,0:0:0:0:
256,192,84049,12,0,88587,3:0:0:0:
