osu file format v14

[General]
AudioFilename: audio.mp3
AudioLeadIn: 0
PreviewTime: 53741
Countdown: 0
SampleSet: Soft
StackLeniency: 0.7
Mode: 0
LetterboxInBreaks: 0
WidescreenStoryboard: 1

[Editor]
DistanceSpacing: 1.3
BeatDivisor: 4
GridSize: 32
TimelineZoom: 1.7

[Metadata]
Title:Kiseki nanka, Iranai.
TitleUnicode:奇跡なんか、いらない。
Artist:Sasaki Sayaka
ArtistUnicode:佐咲紗花
Creator:ckharv
Version:Hard
Source:創作彼女の恋愛公式
Tags:Aino+Links aino links Sousaku Kanojo no Ren'ai Koushiki renai vn eroge galgame galge opening op video game japanese pop jpop j-pop short version didah kowari -luminate luminate lumi
BeatmapID:3546567
BeatmapSetID:1735297

[Difficulty]
HPDrainRate:5
CircleSize:3.5
OverallDifficulty:6
ApproachRate:7.5
SliderMultiplier:1.6
SliderTickRate:1

[Events]
//Background and Video events
Video,202,"mv.mp4"
0,0,"yumemi2_osu.jpg",0,0
//Break Periods
//Storyboard Layer 0 (Background)
//Storyboard Layer 1 (Fail)
//Storyboard Layer 2 (Pass)
//Storyboard Layer 3 (Foreground)
//Storyboard Layer 4 (Overlay)
//Storyboard Sound Samples

[TimingPoints]
198,307.692307692308,4,2,1,100,1,0
198,-100,4,2,1,100,0,0
1428,-166.666666666667,4,2,1,30,0,0
6351,-117.647058823529,4,2,1,65,0,0
6659,-117.647058823529,4,2,1,45,0,0
7274,-117.647058823529,4,2,1,50,0,0
7890,-117.647058823529,4,2,1,55,0,0
8198,-117.647058823529,4,2,1,60,0,0
8813,-117.647058823529,4,2,1,65,0,0
9044,-117.647058823529,4,2,1,65,0,0
9121,-117.647058823529,4,2,1,55,0,0
11121,-117.647058823529,4,2,1,5,0,0
11280,307.692307692308,4,2,1,65,1,0
11280,-100,4,2,1,65,0,0
11433,-100,4,2,1,60,0,0
20049,-200,4,2,1,60,0,0
22049,-133.333333333333,4,2,1,60,0,0
22356,-133.333333333333,4,2,1,50,0,0
22510,-133.333333333333,4,2,1,40,0,0
32203,-113.636363636364,4,2,1,50,0,0
33664,-113.636363636364,4,2,1,5,0,0
33741,-113.636363636364,4,2,1,50,0,0
37356,-113.636363636364,4,2,1,5,0,0
37433,-113.636363636364,4,2,1,50,0,0
41972,-113.636363636364,4,2,1,5,0,0
42049,-113.636363636364,4,2,1,50,0,0
42203,-133.333333333333,4,2,1,40,0,0
46895,-133.333333333333,4,2,1,5,0,0
46972,-166.666666666667,4,2,1,40,0,0
47510,-166.666666666667,4,2,1,5,0,0
47587,-166.666666666667,4,2,1,40,0,0
48203,-133.333333333333,4,2,1,40,0,0
49356,-133.333333333333,4,2,1,5,0,0
49433,-113.636363636364,4,2,1,35,0,0
50049,-113.636363636364,4,2,1,40,0,0
50664,-113.636363636364,4,2,1,45,0,0
51126,-113.636363636364,4,2,1,50,0,0
51587,-113.636363636364,4,2,1,55,0,0
51895,-113.636363636364,4,2,1,60,0,0
52126,-113.636363636364,4,2,1,60,0,0
52203,-113.636363636364,4,2,1,50,0,0
52510,-113.636363636364,4,2,1,55,0,0
52818,-113.636363636364,4,2,1,60,0,0
54356,-100,4,2,1,65,0,1
63587,-100,4,2,1,55,0,1
63895,-100,4,2,1,60,0,1
64126,-100,4,2,1,60,0,0
64164,-100,4,2,1,65,0,0
64203,-100,4,2,1,65,0,1
70664,-100,4,2,1,60,0,1
70894,-100,4,2,1,5,0,1
70972,-100,4,2,1,60,0,1
71587,-100,4,2,1,30,0,0
73126,-100,4,2,1,30,0,0
73741,-100,4,2,1,30,0,0
74049,-100,4,2,1,60,0,0
82741,-100,4,2,1,5,0,0
82818,-100,4,2,1,60,0,0

[Colours]
Combo1 : 253,225,162
Combo2 : 252,141,114
Combo3 : 233,233,233
Combo4 : 150,158,209

[HitObjects]
30,320,1428,6,0,P|94:302|132:298,1,95.9999999999998,2|2,2:0|2:0,0:0:0:0:
188,249,1890,2,0,P|256:274|336:295,1,144,2|2,2:0|2:0,0:0:0:0:
382,351,2505,1,2,2:0:0:0:
488,227,2813,1,2,2:0:0:0:
403,87,3121,1,2,2:0:0:0:
345,144,3274,2,0,P|296:168|250:147,1,95.9999999999998,2|2,2:0|2:0,0:0:0:0:
168,18,3890,6,0,P|119:-6|73:15,1,95.9999999999998,2|0,2:0|2:0,0:0:0:0:
33,72,4351,2,0,P|47:139|55:185,1,95.9999999999998,2|0,2:0|2:0,0:0:0:0:
35,246,4813,1,2,2:0:0:0:
127,380,5121,1,2,2:0:0:0:
246,269,5428,1,2,2:0:0:0:
370,374,5736,2,0,P|414:383|430:384,1,47.9999999999999,2|4,2:0|2:3,0:0:0:0:
489,341,6044,1,4,2:3:0:0:
489,341,6198,1,2,2:0:0:0:
512,250,6351,6,0,P|500:190|486:109,1,136.000002593994,4|0,2:0|3:0,0:0:0:0:
431,49,6813,1,0,3:0:0:0:
383,120,6967,2,0,P|341:136|310:126,1,68.0000000000002,0|0,3:0|3:0,0:0:0:0:
277,53,7274,2,0,P|235:36|201:48,1,68.0000000000002,0|0,3:0|3:0,0:0:0:0:
146,98,7582,5,0,3:0:0:0:
10,217,7890,2,0,P|21:267|25:299,1,68.0000000000002,2|0,3:0|3:0,0:0:0:0:
82,357,8198,1,2,3:0:0:0:
82,357,8351,1,2,3:0:0:0:
150,300,8505,1,2,3:0:0:0:
150,300,8659,1,2,3:0:0:0:
215,359,8813,5,6,2:0:0:0:
360,255,9121,1,10,2:0:0:0:
360,255,9198,1,8,2:0:0:0:
360,255,9274,2,0,P|374:203|324:128,1,136,8|10,2:0|2:0,0:0:0:0:
255,106,9736,1,10,2:0:0:0:
255,106,9813,1,8,2:0:0:0:
255,106,9890,1,8,2:0:0:0:
255,106,11280,6,0,P|175:83|89:66,1,160,6|8,2:0|2:0,0:0:0:0:
14,113,11741,1,0,2:0:0:0:
77,182,11895,2,0,P|91:237|64:274,1,80,2|0,3:0|3:0,0:0:0:0:
12,324,12203,1,10,2:0:0:0:
96,369,12356,6,0,P|152:350|262:325,1,160,2|0,3:0|3:0,0:0:0:0:
314,254,12818,2,0,P|363:268|397:275,1,80,10|0,2:0|2:0,0:0:0:0:
467,214,13126,2,0,P|464:142|441:125,1,80,2|0,3:0|3:0,0:0:0:0:
413,57,13433,1,10,2:0:0:0:
344,124,13587,6,0,B|269:152|269:152|207:96,1,160,2|0,3:0|3:0,0:0:0:0:
146,25,14049,2,0,P|99:43|65:50,1,80,10|0,2:0|2:0,0:0:0:0:
6,121,14356,2,0,P|44:130|81:145,1,80,2|0,3:0|3:0,0:0:0:0:
151,212,14664,1,10,2:0:0:0:
80,277,14818,6,0,P|141:329|214:309,1,160,2|2,3:0|3:0,0:0:0:0:
259,228,15280,2,0,P|249:177|242:135,1,80,10|2,2:0|2:0,0:0:0:0:
287,62,15587,1,2,3:0:0:0:
360,124,15741,1,2,3:0:0:0:
415,46,15895,1,10,2:0:0:0:
415,46,16049,1,2,2:0:0:0:
486,109,16203,6,0,P|516:161|477:253,1,160,6|8,2:0|2:0,0:0:0:0:
429,328,16664,1,2,2:0:0:0:
347,277,16818,2,0,P|296:295|268:302,1,80,0|0,3:0|3:0,0:0:0:0:
219,384,17126,1,10,2:0:0:0:
219,384,17280,6,0,P|160:362|61:341,1,160,0|2,3:0|3:0,0:0:0:0:
0,269,17741,1,8,2:0:0:0:
92,106,18049,1,2,3:0:0:0:
140,188,18203,1,2,3:0:0:0:
217,133,18356,2,0,P|262:149|297:158,1,80,10|0,2:0|3:0,0:0:0:0:
357,229,18664,6,0,P|419:209|449:203,1,80,14|0,2:0|3:0,0:0:0:0:
512,150,18972,1,0,3:0:0:0:
469,66,19126,2,0,P|418:31|329:74,1,160,10|0,2:0|3:0,0:0:0:0:
293,157,19587,1,10,3:0:0:0:
293,157,19664,1,8,3:0:0:0:
293,157,19741,1,8,3:0:0:0:
357,229,19895,1,8,3:0:0:0:
284,298,20049,6,0,B|179:221|140:321|126:439|15:391|-54:325|-9:221|64:224,1,440,6|2,2:0|2:0,0:0:0:0:
45,226,22049,2,0,L|31:163,1,60.0000000000001,2|2,2:0|2:0,0:0:0:0:
30,77,22356,6,0,P|88:93|159:105,1,120,4|2,3:1|3:0,0:0:0:0:
217,47,22818,2,0,P|275:31|346:19,1,120,2|0,2:0|3:0,0:0:0:0:
419,47,23280,1,2,3:0:0:0:
370,123,23433,2,0,P|353:158|395:239,1,120,2|0,2:0|2:0,0:0:0:0:
463,267,23895,1,0,3:0:0:0:
311,364,24203,2,0,P|274:352|245:348,1,60.0000000000001,2|2,3:0|2:0,0:0:0:0:
190,284,24510,2,0,P|145:296|118:304,1,60.0000000000001,2|2,3:0|2:0,0:0:0:0:
59,364,24818,6,0,B|21:314|21:314|50:247,1,120,2|2,3:0|3:0,0:0:0:0:
117,208,25280,1,2,2:0:0:0:
117,208,25433,2,0,B|139:155|139:155|102:105,1,120,0|2,3:0|3:0,0:0:0:0:
155,31,25895,1,2,2:0:0:0:
155,31,26049,2,0,P|210:22|259:78,1,120,0|0,3:0|3:0,0:0:0:0:
361,207,26664,2,0,L|286:225,1,60.0000022888184,2|4,3:0|2:3,0:0:0:0:
358,292,26972,2,0,L|426:275,1,60.0000022888184,2|4,2:0|2:3,0:0:0:0:
477,210,27280,6,0,P|484:167|503:91,1,120.000004577637,6|0,2:1|3:0,0:0:0:0:
413,108,27741,1,2,2:0:0:0:
380,23,27895,2,0,P|357:3|261:23,1,120,2|2,3:0|3:0,0:0:0:0:
224,86,28356,2,0,P|186:104|159:96,1,60.0000000000001,2|0,2:0|3:0,0:0:0:0:
107,38,28664,2,0,P|69:20|42:28,1,60.0000000000001,2|0,2:0|3:0,0:0:0:0:
1,97,28972,1,2,2:0:0:0:
70,154,29126,2,0,P|59:210|55:234,1,60.0000000000001,2|0,3:0|2:0,0:0:0:0:
36,300,29433,1,2,3:0:0:0:
167,179,29741,6,0,B|203:227|203:227|180:295,1,120,2|2,3:0|3:0,0:0:0:0:
255,340,30203,2,0,B|300:380|300:380|370:363,1,120,2|0,2:0|2:0,0:0:0:0:
435,319,30664,2,0,P|444:259|456:200,1,120,2|2,3:0|3:0,0:0:0:0:
442,107,31126,2,0,P|398:128|338:93,1,120,2|2,2:0|2:0,0:0:0:0:
282,27,31587,1,2,3:0:0:0:
282,27,31741,1,6,2:3:0:0:
223,96,31895,1,2,3:0:0:0:
223,96,32049,1,4,2:3:0:0:
148,30,32203,6,0,P|86:17|28:71,1,140.8,4|8,2:1|2:0,0:0:0:0:
2,151,32664,2,0,P|14:202|18:251,1,70.3999999999998,2|0,2:0|3:0,0:0:0:0:
34,310,32972,1,0,3:0:0:0:
107,255,33126,1,10,2:0:0:0:
155,332,33280,2,0,P|221:373|280:355,1,140.800004296875,2|0,2:0|0:0,0:0:0:0:
336,287,33741,5,8,2:0:0:0:
195,178,34049,1,2,3:0:0:0:
195,178,34203,1,2,3:0:0:0:
249,106,34356,1,8,2:0:0:0:
249,106,34510,1,2,2:0:0:0:
322,160,34664,6,0,B|376:203|376:203|458:163,1,140.8,2|10,3:0|2:0,0:0:0:0:
494,246,35126,1,0,2:0:0:0:
465,333,35280,2,0,P|435:356|390:352,1,70.3999999999998,2|0,3:0|3:0,0:0:0:0:
344,287,35587,1,10,2:0:0:0:
283,356,35741,2,0,P|213:360|156:303,1,140.8,2|0,2:0|2:0,0:0:0:0:
81,360,36203,5,10,2:0:0:0:
9,191,36510,2,0,P|41:199|89:215,1,70.4000021484376,2|0,3:0|3:0,0:0:0:0:
146,150,36818,1,10,2:0:0:0:
103,68,36972,1,2,2:0:0:0:
180,18,37126,6,0,P|234:13|295:89,1,140.8,4|8,2:1|2:0,0:0:0:0:
346,144,37587,2,0,P|390:129|421:122,1,70.4000021484376,2|0,2:0|3:0,0:0:0:0:
481,187,37895,1,2,2:0:0:0:
438,267,38049,2,0,P|401:284|360:271,1,70.4000021484376,10|0,2:0|2:0,0:0:0:0:
296,228,38356,5,0,3:0:0:0:
146,104,38664,2,0,P|119:142|123:182,1,70.3999999999998,10|0,2:0|2:0,0:0:0:0:
28,185,38972,2,0,P|37:230|67:256,1,70.3999999999998,2|0,3:0|3:0,0:0:0:0:
19,333,39280,2,0,P|57:359|97:355,1,70.3999999999998,10|0,2:0|2:0,0:0:0:0:
165,326,39587,5,2,3:0:0:0:
269,145,39895,2,0,P|297:182|295:222,1,70.3999999999998,10|0,2:0|2:0,0:0:0:0:
390,196,40203,2,0,P|383:242|354:269,1,70.3999999999998,2|0,3:0|3:0,0:0:0:0:
418,336,40510,2,0,P|380:364|340:362,1,70.3999999999998,10|0,2:0|2:0,0:0:0:0:
277,301,40818,6,0,P|242:286|153:356,1,140.800004296875,10|8,2:0|2:0,0:0:0:0:
84,382,41280,1,10,3:0:0:0:
84,382,41356,1,8,3:0:0:0:
84,382,41433,2,0,P|75:326|64:295,1,70.4000021484376,10|0,3:0|3:0,0:0:0:0:
28,235,41741,1,8,2:0:0:0:
114,96,42049,5,6,2:0:0:0:
114,96,42203,1,2,3:0:0:0:
309,24,42664,2,0,P|366:42|390:47,1,60.0000000000001,10|2,2:0|2:0,0:0:0:0:
430,105,42972,2,0,P|468:166|412:272,1,180.000006866455,2|8,3:0|2:0,0:0:0:0:
358,310,43587,1,2,3:0:0:0:
358,310,43741,1,2,2:0:0:0:
279,265,43895,2,0,P|229:278|204:287,1,60.0000000000001,10|10,2:0|3:0,0:0:0:0:
166,353,44203,2,0,P|116:366|93:375,1,60.0000000000001,10|8,3:0|3:0,0:0:0:0:
33,311,44510,5,6,2:0:0:0:
33,311,44664,1,2,3:0:0:0:
43,102,45126,2,0,P|78:101|113:128,1,60.0000022888184,10|2,2:0|2:0,0:0:0:0:
163,176,45433,2,0,P|234:205|317:143,1,180.000006866455,2|0,3:0|3:0,0:0:0:0:
371,82,46049,1,2,3:0:0:0:
371,82,46203,1,10,2:0:0:0:
438,140,46356,2,0,P|430:187|429:215,1,60.0000000000001,2|10,3:0|3:0,0:0:0:0:
438,289,46664,1,10,3:0:0:0:
286,246,46972,6,0,P|166:210|119:198,1,168,4|0,2:0|2:0,0:0:0:0:
86,212,47587,2,0,P|54:240|58:302,1,95.9999999999998,4|2,2:0|2:0,0:0:0:0:
91,368,48049,1,8,3:0:0:0:
171,336,48203,2,0,P|222:348|290:371,1,120,10|2,3:0|3:0,0:0:0:0:
348,304,48664,1,2,3:0:0:0:
410,368,48818,1,6,2:0:0:0:
510,211,49126,1,0,0:0:0:0:
402,62,49433,6,0,P|368:73|255:100,1,140.8,2|0,3:0|3:0,0:0:0:0:
200,33,49895,1,0,3:0:0:0:
115,69,50049,2,0,P|79:108|94:198,1,140.8,2|0,3:0|3:0,0:0:0:0:
150,259,50510,1,0,3:0:0:0:
227,210,50664,6,0,L|299:192,1,70.3999999999998,10|8,2:0|2:0,0:0:0:0:
362,256,50972,1,8,2:0:0:0:
362,256,51126,2,0,L|434:238,1,70.3999999999998,10|8,2:0|2:0,0:0:0:0:
489,168,51433,1,8,2:0:0:0:
489,168,51587,2,0,P|488:120|456:87,1,70.3999999999998,10|8,2:0|2:0,0:0:0:0:
421,28,51895,6,0,P|373:29|340:61,1,70.3999999999998,6|0,2:0|0:0,0:0:0:0:
289,104,52203,2,0,P|241:103|208:71,1,70.3999999999998,8|8,2:0|2:0,0:0:0:0:
163,22,52510,1,8,2:0:0:0:
163,22,52664,1,8,2:0:0:0:
109,96,52818,1,10,2:0:0:0:
109,96,52895,1,2,2:0:0:0:
109,96,52972,2,0,P|118:133|120:141,2,35.1999999999999,2|2|10,2:0|2:0|2:0,0:0:0:0:
24,28,53280,5,10,2:0:0:0:
71,270,54049,1,2,2:0:0:0:
71,270,54356,6,0,P|105:230|208:240,1,160,6|10,2:0|2:0,0:0:0:0:
257,318,54818,2,0,P|291:357|394:347,1,160,2|0,2:0|3:0,0:0:0:0:
467,291,55280,1,8,2:0:0:0:
405,217,55433,2,0,P|358:231|322:239,1,80,2|0,3:0|3:0,0:0:0:0:
258,170,55741,2,0,P|245:117|264:89,1,80,2|8,2:0|2:0,0:0:0:0:
322,26,56049,1,2,2:0:0:0:
413,62,56203,2,0,P|442:98|436:141,1,80,2|0,3:0|3:0,0:0:0:0:
405,217,56510,1,10,2:0:0:0:
280,363,56818,6,0,P|230:349|113:329,1,160,2|10,3:0|2:0,0:0:0:0:
47,271,57280,2,0,P|29:216|81:135,1,160,2|0,2:0|3:0,0:0:0:0:
152,200,57741,1,8,2:0:0:0:
218,130,57895,2,0,P|203:73|196:42,1,80,2|0,3:0|3:0,0:0:0:0:
294,40,58203,2,0,P|351:25|382:18,1,80,2|8,2:0|2:0,0:0:0:0:
388,114,58510,2,0,P|403:171|410:202,1,80,2|0,2:0|3:0,0:0:0:0:
315,219,58818,2,0,P|258:234|227:241,1,80,2|8,3:0|2:0,0:0:0:0:
152,200,59126,1,0,3:0:0:0:
122,290,59280,6,0,P|140:345|259:352,1,160,6|10,2:0|2:0,0:0:0:0:
304,306,59741,2,0,P|353:295|395:321,1,80,2|0,2:0|3:0,0:0:0:0:
445,376,60049,1,2,3:0:0:0:
509,305,60203,1,8,2:0:0:0:
509,305,60356,2,0,P|493:232|479:143,1,160,2|2,3:0|2:0,0:0:0:0:
422,69,60818,2,0,P|362:86|330:91,1,80,10|0,2:0|2:0,0:0:0:0:
269,28,61126,1,0,3:0:0:0:
269,28,61280,1,0,3:0:0:0:
197,91,61433,2,0,P|157:82|119:70,1,80,8|2,2:0|3:0,0:0:0:0:
42,12,61741,6,0,B|-7:80|-7:80|30:156,1,160,2|10,3:0|2:0,0:0:0:0:
107,201,62203,2,0,P|105:270|94:292,1,80,2|0,2:0|3:0,0:0:0:0:
151,360,62510,2,0,P|220:361|242:372,1,80,2|8,3:0|2:0,0:0:0:0:
295,294,62818,2,0,P|296:224|307:202,1,80,2|8,3:0|2:0,0:0:0:0:
372,152,63126,1,2,3:0:0:0:
331,65,63280,2,0,P|288:42|239:65,1,80,10|0,2:0|3:0,0:0:0:0:
200,125,63587,2,0,P|170:132|153:137,3,40,10|8|8|8,2:0|2:0|0:0|0:0,0:0:0:0:
125,103,63895,2,0,P|106:96|86:92,3,40,10|8|8|8,2:0|2:0|2:0|2:0,0:0:0:0:
51,58,64203,6,0,B|-2:118|-2:118|30:206,1,160,6|10,2:0|2:0,0:0:0:0:
4,286,64664,2,0,P|38:339|145:325,1,160,2|0,2:0|3:0,0:0:0:0:
201,277,65126,1,10,2:0:0:0:
257,353,65280,2,0,P|309:362|340:371,1,80,2|0,3:0|3:0,0:0:0:0:
423,329,65587,2,0,P|441:278|424:243,1,80,2|8,2:0|2:0,0:0:0:0:
397,166,65895,1,2,2:0:0:0:
315,217,66049,2,0,P|276:206|236:200,1,80,2|0,3:0|3:0,0:0:0:0:
179,123,66356,1,10,2:0:0:0:
336,23,66664,6,0,P|384:38|495:65,1,160,6|8,2:0|2:0,0:0:0:0:
468,161,67126,1,2,3:0:0:0:
468,161,67280,2,0,P|419:145|308:118,1,160,4|10,2:0|2:0,0:0:0:0:
286,212,67741,1,0,2:0:0:0:
351,282,67895,2,0,P|374:293|409:290,2,40,10|8|8,3:0|3:0|3:0,0:0:0:0:
274,341,68203,2,0,P|251:352|216:349,2,40,10|8|8,3:0|3:0|3:0,0:0:0:0:
212,264,68510,1,10,2:0:0:0:
212,264,68664,1,10,2:0:0:0:
64,16,69126,6,0,P|81:79|101:179,1,160,4|8,2:0|2:0,0:0:0:0:
63,263,69587,1,0,3:0:0:0:
63,263,69741,2,0,P|49:318|43:349,1,80,8|0,2:0|3:0,0:0:0:0:
138,361,70049,2,0,P|146:321|156:283,1,80,8|0,2:0|3:0,0:0:0:0:
199,197,70356,1,8,2:0:0:0:
199,197,70510,1,0,3:0:0:0:
263,268,70664,6,0,P|306:302|354:291,1,80,10|0,2:0|0:0,0:0:0:0:
424,285,70972,2,0,P|453:291|464:298,2,40,10|8|10,2:0|2:0|2:0,0:0:0:0:
398,189,71280,1,10,2:0:0:0:
467,122,71433,1,10,2:0:0:0:
467,122,71510,1,8,2:0:0:0:
467,122,71587,5,2,2:0:0:0:
467,122,72818,5,2,2:0:0:0:
392,55,73126,1,2,2:0:0:0:
334,140,73433,1,2,2:0:0:0:
259,70,73741,1,2,2:0:0:0:
259,70,73895,1,2,2:0:0:0:
202,154,74049,6,0,P|159:198|52:157,1,160,6|8,2:0|2:0,0:0:0:0:
4,252,74510,1,0,2:0:0:0:
64,326,74664,2,0,P|121:309|152:302,1,80,2|0,3:0|3:0,0:0:0:0:
210,372,74972,1,10,2:0:0:0:
279,305,75126,6,0,P|347:323|453:346,1,160,2|0,3:0|3:0,0:0:0:0:
505,277,75587,2,0,P|521:231|502:189,1,80,10|0,2:0|2:0,0:0:0:0:
447,130,75895,2,0,P|393:147|369:153,1,80,2|0,3:0|3:0,0:0:0:0:
298,87,76203,1,10,2:0:0:0:
238,162,76356,6,0,P|169:146|72:127,1,160,2|0,3:0|3:0,0:0:0:0:
13,197,76818,2,0,P|-6:240|4:280,1,80,10|0,2:0|2:0,0:0:0:0:
50,352,77126,2,0,P|102:336|131:330,1,80,2|0,3:0|3:0,0:0:0:0:
190,258,77433,1,10,2:0:0:0:
260,323,77587,6,0,B|315:333|315:333|343:364|343:364|408:376,1,160,2|2,3:0|3:0,0:0:0:0:
475,310,78049,2,0,P|488:263|467:228,1,80,10|2,2:0|2:0,0:0:0:0:
428,152,78356,1,2,3:0:0:0:
352,210,78510,1,2,3:0:0:0:
300,135,78664,1,10,2:0:0:0:
300,135,78818,1,2,2:0:0:0:
235,206,78972,6,0,P|189:230|99:168,1,160,6|8,2:0|2:0,0:0:0:0:
84,86,79433,1,2,2:0:0:0:
167,37,79587,2,0,P|216:55|246:60,1,80,0|0,3:0|3:0,0:0:0:0:
300,135,79895,1,10,2:0:0:0:
300,135,80049,6,0,P|361:120|463:99,1,160,0|2,3:0|3:0,0:0:0:0:
509,180,80510,1,8,2:0:0:0:
402,339,80818,1,2,3:0:0:0:
346,261,80972,1,2,3:0:0:0:
286,336,81126,2,0,P|246:344|208:356,1,80,10|2,2:0|3:0,0:0:0:0:
130,299,81433,6,0,P|141:241|150:207,1,80,6|0,2:0|3:0,0:0:0:0:
90,141,81741,1,0,3:0:0:0:
171,90,81895,2,0,P|233:108|353:136,1,160,10|0,2:0|3:0,0:0:0:0:
403,203,82356,1,10,3:0:0:0:
403,203,82433,1,8,3:0:0:0:
403,203,82510,2,0,P|325:221|293:235,1,80,8|0,3:0|0:0,0:0:0:0:
258,290,82818,1,10,2:0:0:0:
86,215,83126,5,0,3:0:0:0:
86,215,83203,1,0,3:0:0:0:
86,215,83280,2,0,P|79:159|118:121,1,80,10|0,2:0|3:0,0:0:0:0:
240,20,83741,5,4,0:0:0:0:
256,192,83895,12,0,88587,3:0:0:0:
