osu file format v14

[General]
AudioFilename: audio.mp3
AudioLeadIn: 0
PreviewTime: 53741
Countdown: 0
SampleSet: Soft
StackLeniency: 0.7
Mode: 0
LetterboxInBreaks: 0
WidescreenStoryboard: 1

[Editor]
Bookmarks: 88587
DistanceSpacing: 1.4
BeatDivisor: 4
GridSize: 32
TimelineZoom: 1.7

[Metadata]
Title:Kiseki nanka, Iranai.
TitleUnicode:奇跡なんか、いらない。
Artist:Sasaki Sayaka
ArtistUnicode:佐咲紗花
Creator:ckharv
Version:Extra
Source:創作彼女の恋愛公式
Tags:Aino+Links aino links Sousaku Kanojo no Ren'ai Koushiki renai vn eroge galgame galge opening op video game japanese pop jpop j-pop short version didah kowari -luminate luminate lumi
BeatmapID:3546568
BeatmapSetID:1735297

[Difficulty]
HPDrainRate:5.5
CircleSize:3.8
OverallDifficulty:8
ApproachRate:8.8
SliderMultiplier:1.9
SliderTickRate:1

[Events]
//Background and Video events
Video,202,"mv.mp4"
0,0,"aisa4.jpg",0,0
//Break Periods
//Storyboard Layer 0 (Background)
//Storyboard Layer 1 (Fail)
//Storyboard Layer 2 (Pass)
//Storyboard Layer 3 (Foreground)
//Storyboard Layer 4 (Overlay)
//Storyboard Sound Samples

[TimingPoints]
198,307.692307692308,4,2,1,100,1,0
198,-100,4,2,1,100,0,0
1428,-166.666666666667,4,2,1,30,0,0
6351,-133.333333333333,4,2,1,65,0,0
6659,-133.333333333333,4,2,1,45,0,0
7274,-133.333333333333,4,2,1,50,0,0
7890,-133.333333333333,4,2,1,55,0,0
8198,-133.333333333333,4,2,1,60,0,0
8813,-133.333333333333,4,2,1,65,0,0
9121,-133.333333333333,4,2,1,55,0,0
11121,-133.333333333333,4,2,1,5,0,0
11280,307.692307692308,4,2,1,65,1,0
11280,-100,4,2,1,65,0,0
11433,-100,4,2,1,60,0,0
20049,-200,4,2,1,60,0,0
22356,-133.333333333333,4,2,1,50,0,0
22510,-133.333333333333,4,2,1,40,0,0
32203,-113.636363636364,4,2,1,50,0,0
33664,-113.636363636364,4,2,1,5,0,0
33741,-113.636363636364,4,2,1,50,0,0
37356,-113.636363636364,4,2,1,5,0,0
37433,-113.636363636364,4,2,1,50,0,0
41741,-133.333333333333,4,2,1,50,0,0
41972,-133.333333333333,4,2,1,5,0,0
42049,-133.333333333333,4,2,1,50,0,0
42203,-133.333333333333,4,2,1,40,0,0
46895,-133.333333333333,4,2,1,5,0,0
46972,-166.666666666667,4,2,1,40,0,0
47510,-166.666666666667,4,2,1,5,0,0
47587,-166.666666666667,4,2,1,40,0,0
49356,-166.666666666667,4,2,1,5,0,0
49433,-133.333333333333,4,2,1,35,0,0
50049,-133.333333333333,4,2,1,40,0,0
50664,-133.333333333333,4,2,1,45,0,0
51126,-133.333333333333,4,2,1,50,0,0
51587,-133.333333333333,4,2,1,55,0,0
51895,-100,4,2,1,60,0,0
52203,-100,4,2,1,50,0,0
52510,-100,4,2,1,55,0,0
52818,-100,4,2,1,60,0,0
54356,-100,4,2,1,65,0,1
63587,-100,4,2,1,55,0,1
63895,-100,4,2,1,60,0,1
64164,-100,4,2,1,65,0,0
64203,-100,4,2,1,65,0,1
64664,-100,4,2,1,65,0,1
70664,-166.666666666667,4,2,1,60,0,1
70895,-166.666666666667,4,2,1,5,0,1
70972,-100,4,2,1,60,0,1
71587,-166.666666666667,4,2,1,30,0,0
73126,-166.666666666667,4,2,1,30,0,0
73741,-166.666666666667,4,2,1,30,0,0
74049,-100,4,2,1,60,0,0
82741,-100,4,2,1,5,0,0
82818,-100,4,2,1,60,0,0
83741,-411.255411255411,4,2,1,60,0,0

[Colours]
Combo1 : 253,225,162
Combo2 : 252,141,114
Combo3 : 233,233,233
Combo4 : 150,158,209

[HitObjects]
223,335,1428,6,0,P|167:345|94:368,1,113.999996520996,2|2,2:0|2:0,0:0:0:0:
38,311,1890,2,0,P|6:267|51:157,1,170.999994781494,2|2,2:0|2:0,0:0:0:0:
114,118,2505,2,0,P|151:128|182:134,1,56.9999982604981,2|0,2:0|2:0,0:0:0:0:
223,198,2813,2,0,P|275:182|340:170,1,113.999996520996,2|2,2:0|2:0,0:0:0:0:
388,101,3274,2,0,P|349:80|315:91,1,56.9999982604981,2|0,2:0|2:0,0:0:0:0:
416,180,3582,2,0,P|444:177|468:158,1,56.9999982604981,2|0,2:0|2:0,0:0:0:0:
333,170,3890,6,0,P|321:213|309:287,1,113.999996520996,2|0,2:0|2:0,0:0:0:0:
260,362,4351,2,0,P|237:334|153:335,1,113.999996520996,2|0,2:0|2:0,0:0:0:0:
89,262,4813,2,0,P|122:255|145:227,1,56.9999982604981,2|0,2:0|2:0,0:0:0:0:
178,156,5121,6,0,L|234:172,1,56.9999982604981,2|0,2:0|2:0,0:0:0:0:
293,117,5428,2,0,L|348:133,1,56.9999982604981,2|0,2:0|2:0,0:0:0:0:
411,78,5736,2,0,L|467:94,1,56.9999982604981,2|4,2:0|2:3,0:0:0:0:
494,103,5967,1,4,2:3:0:0:
494,103,6044,1,4,2:3:0:0:
416,170,6198,1,2,2:0:0:0:
326,44,6351,6,0,P|276:31|216:98,1,142.500005435944,4|0,2:0|3:0,0:0:0:0:
145,5,6813,1,0,3:0:0:0:
46,93,6967,1,0,3:0:0:0:
46,93,7121,1,0,3:0:0:0:
183,173,7274,1,0,3:0:0:0:
183,173,7428,1,0,3:0:0:0:
27,231,7582,5,0,3:0:0:0:
125,111,7736,1,0,3:0:0:0:
191,319,7890,1,2,3:0:0:0:
191,319,8044,1,0,3:0:0:0:
394,159,8198,5,2,3:0:0:0:
251,224,8351,1,2,3:0:0:0:
353,32,8505,1,2,3:0:0:0:
452,244,8659,1,2,3:0:0:0:
353,22,8813,5,6,2:0:0:0:
353,22,9121,5,10,2:0:0:0:
353,22,9198,1,8,2:0:0:0:
353,22,9274,2,0,L|298:37,1,35.625001358986,8|8,2:0|2:0,0:0:0:0:
246,103,9428,1,8,2:0:0:0:
246,103,9505,1,8,2:0:0:0:
246,103,9582,2,0,L|195:91,1,35.625001358986,10|8,2:0|2:0,0:0:0:0:
134,16,9736,5,10,2:0:0:0:
86,35,9813,1,8,2:0:0:0:
66,81,9890,1,8,2:0:0:0:
83,129,9967,1,8,2:0:0:0:
256,192,10044,12,0,11121,2:0:0:0:
275,370,11280,6,0,P|216:353|88:330,1,190,6|8,2:0|2:0,0:0:0:0:
0,263,11741,1,0,2:0:0:0:
113,157,11895,2,0,P|131:201|107:249,1,95,2|0,3:0|3:0,0:0:0:0:
16,114,12203,1,10,2:0:0:0:
176,24,12356,6,0,P|236:44|384:74,1,190,2|0,3:0|3:0,0:0:0:0:
478,0,12818,2,0,P|493:50|475:92,1,95,10|0,2:0|2:0,0:0:0:0:
359,159,13126,2,0,P|344:109|362:67,1,95,2|0,3:0|3:0,0:0:0:0:
463,191,13433,1,10,2:0:0:0:
349,352,13587,6,0,P|323:297|409:319,1,190,2|0,3:0|3:0,0:0:0:0:
240,264,14049,2,0,P|191:250|144:235,1,95,10|0,2:0|2:0,0:0:0:0:
124,126,14356,2,0,P|173:140|220:155,1,95,2|0,3:0|3:0,0:0:0:0:
64,216,14664,1,10,2:0:0:0:
300,177,14818,6,0,P|334:143|303:8,1,190,2|2,3:0|3:0,0:0:0:0:
428,90,15280,2,0,P|466:119|513:111,1,95,10|2,2:0|2:0,0:0:0:0:
371,289,15587,1,2,3:0:0:0:
474,197,15741,1,2,3:0:0:0:
501,327,15895,1,10,2:0:0:0:
378,178,16049,1,2,2:0:0:0:
249,344,16203,6,0,B|222:397|149:375|149:375|128:317|89:315,1,190,6|8,2:0|2:0,0:0:0:0:
10,214,16664,1,2,2:0:0:0:
140,145,16818,2,0,P|122:195|110:241,1,95,0|0,3:0|3:0,0:0:0:0:
73,38,17126,1,10,2:0:0:0:
73,38,17280,2,0,P|95:89|218:97,1,190,0|2,3:0|3:0,0:0:0:0:
312,11,17741,1,8,2:0:0:0:
312,11,18049,5,2,3:0:0:0:
273,160,18203,1,2,3:0:0:0:
432,29,18356,1,10,2:0:0:0:
464,184,18510,1,0,3:0:0:0:
312,11,18664,6,0,P|248:27|212:35,1,95,14|0,2:0|3:0,0:0:0:0:
153,145,18972,1,0,3:0:0:0:
5,4,19126,2,0,P|24:69|52:198,1,190,10|0,2:0|3:0,0:0:0:0:
52,311,19587,5,10,3:0:0:0:
75,349,19664,1,8,3:0:0:0:
117,371,19741,1,8,3:0:0:0:
164,367,19818,1,0,3:0:0:0:
203,341,19895,2,0,L|221:282,1,47.5,8|8,3:0|3:0,0:0:0:0:
289,212,20049,6,0,B|323:207|369:216|525:332|476:447|347:420|227:373|228:263|448:227|474:236|511:260,1,522.5,6|2,2:0|2:0,0:0:0:0:
492,54,22049,2,0,P|453:66|433:74,1,47.5,2|2,2:0|2:0,0:0:0:0:
357,122,22356,6,0,P|305:105|270:95,1,71.2500027179719,4|0,3:1|2:0,0:0:0:0:
160,61,22664,1,2,3:0:0:0:
265,6,22818,2,0,P|245:64|218:175,1,142.500005435944,2|0,2:0|3:0,0:0:0:0:
207,237,23280,1,2,3:0:0:0:
123,169,23433,1,2,2:0:0:0:
123,169,23587,6,0,P|72:187|41:193,1,71.2500027179719,0|0,3:0|2:0,0:0:0:0:
0,274,23895,2,0,P|34:282|67:295,1,71.2500027179719,0|0,3:0|2:0,0:0:0:0:
142,384,24203,1,2,3:0:0:0:
254,311,24356,1,2,2:0:0:0:
130,246,24510,1,2,3:0:0:0:
175,314,24664,1,2,2:0:0:0:
175,314,24818,6,0,P|236:296|318:268,1,142.500005435944,2|2,3:0|3:0,0:0:0:0:
400,204,25280,1,2,2:0:0:0:
400,204,25434,2,0,P|339:186|257:158,1,142.500005435944,0|2,3:0|3:0,0:0:0:0:
182,89,25895,1,2,2:0:0:0:
145,189,26049,6,0,P|110:206|69:196,1,71.2500027179719,0|0,3:0|2:0,0:0:0:0:
11,104,26356,2,0,P|45:100|76:116,1,71.2500027179719,0|0,3:0|2:0,0:0:0:0:
182,89,26664,2,0,P|172:45|164:10,1,71.2500027179719,2|4,3:0|2:3,0:0:0:0:
280,91,26972,2,0,P|272:125|264:160,1,71.2500027179719,2|4,2:0|2:3,0:0:0:0:
364,24,27280,6,0,P|428:17|472:100,1,142.500005435944,6|0,2:1|3:0,0:0:0:0:
445,214,27741,1,2,2:0:0:0:
445,214,27895,2,0,P|489:198|519:191,1,71.2500027179719,2|0,3:0|2:0,0:0:0:0:
368,151,28203,1,2,3:0:0:0:
320,248,28356,6,0,P|332:291|340:324,1,71.2500027179719,2|0,2:0|3:0,0:0:0:0:
215,251,28664,2,0,P|223:216|232:181,1,71.2500027179719,2|0,2:0|3:0,0:0:0:0:
295,93,28972,1,2,2:0:0:0:
295,93,29126,2,0,P|248:79|228:70,1,71.2500027179719,2|0,3:0|2:0,0:0:0:0:
157,8,29433,2,0,P|124:21|89:31,1,71.2500027179719,2|0,3:0|2:0,0:0:0:0:
35,169,29741,6,0,P|28:125|1:26,1,142.500005435944,2|2,3:0|3:0,0:0:0:0:
144,125,30203,2,0,P|124:193|111:263,1,142.500005435944,2|0,2:0|2:0,0:0:0:0:
191,366,30664,2,0,P|256:379|310:323,1,142.500005435944,2|2,3:0|3:0,0:0:0:0:
423,251,31126,6,0,P|468:264|495:272,2,71.2500027179719,2|0|2,2:0|3:0|2:0,0:0:0:0:
366,151,31587,1,2,3:0:0:0:
275,202,31741,1,6,2:3:0:0:
210,298,31895,5,2,3:0:0:0:
106,260,32049,1,4,2:3:0:0:
11,144,32203,6,0,P|65:134|186:98,1,167.200005102539,4|8,2:1|2:0,0:0:0:0:
278,29,32664,2,0,P|227:15|193:-2,1,83.6000025512696,2|0,2:0|3:0,0:0:0:0:
264,115,32972,1,0,3:0:0:0:
367,12,33126,1,10,2:0:0:0:
453,71,33280,1,2,2:0:0:0:
358,162,33433,6,0,P|369:221|382:297,1,125.400003826904,0|0,3:0|2:0,0:0:0:0:
356,317,33741,2,0,P|318:288|279:297,1,83.6000025512696,8|0,2:0|2:0,0:0:0:0:
207,384,34049,1,2,3:0:0:0:
133,286,34203,1,2,3:0:0:0:
217,196,34356,5,8,2:0:0:0:
242,77,34510,1,2,2:0:0:0:
106,0,34664,5,2,3:0:0:0:
106,0,34972,2,0,P|118:54|125:91,1,83.6000025512696,10|0,2:0|2:0,0:0:0:0:
217,196,35280,2,0,P|253:186|299:175,1,83.6000025512696,2|0,3:0|3:0,0:0:0:0:
395,251,35587,1,10,2:0:0:0:
460,151,35741,1,2,2:0:0:0:
340,14,35895,6,0,P|353:64|361:102,1,83.6000025512696,2|0,3:0|2:0,0:0:0:0:
395,251,36203,1,10,2:0:0:0:
395,251,36510,2,0,P|382:301|374:339,1,83.6000025512696,2|0,3:0|3:0,0:0:0:0:
272,272,36818,1,10,2:0:0:0:
211,363,36972,1,2,2:0:0:0:
77,272,37126,6,0,P|53:225|104:118,1,167.200005102539,4|8,2:1|2:0,0:0:0:0:
195,42,37587,2,0,P|149:29|116:16,1,83.6000025512696,2|0,2:0|3:0,0:0:0:0:
230,137,37895,1,2,2:0:0:0:
311,53,38049,2,0,P|348:47|391:78,1,83.6000025512696,10|0,2:0|2:0,0:0:0:0:
442,205,38356,5,0,3:0:0:0:
442,205,38664,2,0,P|454:158|467:119,1,83.6000025512696,10|0,2:0|2:0,0:0:0:0:
341,164,38972,1,2,3:0:0:0:
341,164,39126,1,0,3:0:0:0:
382,277,39280,2,0,P|431:289|468:300,1,83.6000025512696,10|0,2:0|2:0,0:0:0:0:
318,381,39587,5,2,3:0:0:0:
318,381,39895,2,0,P|277:368|237:358,1,83.6000025512696,10|0,2:0|2:0,0:0:0:0:
163,258,40203,1,2,3:0:0:0:
163,258,40356,1,0,3:0:0:0:
290,190,40510,2,0,P|277:229|267:270,1,83.6000025512696,10|0,2:0|2:0,0:0:0:0:
186,122,40818,6,0,P|117:112|52:187,1,167.200005102539,10|8,2:0|2:0,0:0:0:0:
60,321,41280,1,10,3:0:0:0:
60,321,41356,1,8,3:0:0:0:
60,321,41433,1,10,3:0:0:0:
163,258,41587,1,0,3:0:0:0:
235,357,41741,2,0,P|280:383|342:360,1,106.875004076958,8|0,2:0|2:0,0:0:0:0:
355,341,42049,5,6,2:0:0:0:
495,262,42203,2,0,P|446:249|357:216,1,142.500005435944,2|0,3:0|3:0,0:0:0:0:
282,251,42664,1,10,2:0:0:0:
223,189,42818,1,2,2:0:0:0:
298,89,42972,1,2,3:0:0:0:
186,25,43126,6,0,P|135:39|39:61,1,142.500005435944,0|8,3:0|2:0,0:0:0:0:
0,128,43587,1,2,3:0:0:0:
56,194,43741,1,2,2:0:0:0:
4,265,43895,2,0,P|10:308|14:341,1,71.2500027179719,10|10,2:0|3:0,0:0:0:0:
93,384,44203,2,0,P|97:348|103:313,1,71.2500027179719,10|8,3:0|3:0,0:0:0:0:
148,230,44510,5,6,2:0:0:0:
219,340,44664,2,0,P|259:377|340:358,1,142.500005435944,2|0,3:0|3:0,0:0:0:0:
395,296,45126,1,10,2:0:0:0:
357,214,45280,1,2,2:0:0:0:
243,263,45433,1,2,3:0:0:0:
167,139,45587,6,0,P|176:94|198:-5,1,142.500005435944,0|0,3:0|3:0,0:0:0:0:
105,15,46049,1,2,3:0:0:0:
84,97,46203,1,10,2:0:0:0:
167,139,46356,2,0,P|223:126|250:122,1,71.2500027179719,2|10,3:0|3:0,0:0:0:0:
298,56,46664,2,0,P|354:69|405:77,1,106.875004076958,10|0,3:0|2:0,0:0:0:0:
473,124,46972,6,0,B|524:178|480:233|480:233|424:240|403:197,1,199.499993911743,4|0,2:0|2:0,0:0:0:0:
339,168,47587,6,0,B|288:167|278:214|278:214|298:219|319:235,1,113.999996520996,4|2,2:0|2:0,0:0:0:0:
374,317,48049,5,8,3:0:0:0:
374,317,48126,1,8,3:0:0:0:
374,317,48203,2,0,P|402:306|414:305,2,28.4999991302491,10|8|8,3:0|3:0|3:0,0:0:0:0:
316,378,48510,1,2,3:0:0:0:
269,300,48664,1,2,3:0:0:0:
165,384,48818,6,0,P|155:331|120:176,1,199.499993911743,6|0,2:0|2:0,0:0:0:0:
96,159,49433,6,0,P|53:172|19:160,1,71.2500027179719,2|0,3:0|3:0,0:0:0:0:
78,64,49741,2,0,P|112:57|145:70,1,71.2500027179719,0|0,3:0|3:0,0:0:0:0:
212,183,50049,1,2,3:0:0:0:
212,183,50203,1,0,3:0:0:0:
299,58,50356,1,0,3:0:0:0:
299,58,50510,1,0,3:0:0:0:
425,190,50664,5,10,2:0:0:0:
269,131,50818,1,8,2:0:0:0:
335,289,50972,1,8,2:0:0:0:
505,131,51126,5,10,2:0:0:0:
337,204,51280,1,8,2:0:0:0:
404,6,51433,1,8,2:0:0:0:
475,259,51587,5,10,2:0:0:0:
319,74,51741,1,8,2:0:0:0:
271,342,51895,5,6,2:0:0:0:
271,342,52203,5,8,2:0:0:0:
271,342,52280,1,8,2:0:0:0:
271,342,52356,2,0,L|208:321,1,47.5,8|8,2:0|2:0,0:0:0:0:
162,219,52510,1,8,2:0:0:0:
116,206,52586,1,8,2:0:0:0:
72,222,52663,1,8,2:0:0:0:
46,260,52740,1,8,2:0:0:0:
45,306,52818,2,0,L|61:353,3,47.5,10|2|2|2,2:0|2:0|2:0|2:0,0:0:0:0:
136,370,53126,5,10,2:0:0:0:
51,134,53280,1,10,2:0:0:0:
461,19,54049,5,2,2:0:0:0:
461,19,54356,6,0,P|446:82|422:210,1,190,6|10,2:0|2:0,0:0:0:0:
499,361,54818,2,0,P|466:323|418:324,1,95,2|0,2:0|3:0,0:0:0:0:
280,384,55126,1,0,3:0:0:0:
359,246,55280,1,8,2:0:0:0:
179,174,55433,6,0,P|196:236|205:282,1,95,2|0,3:0|3:0,0:0:0:0:
308,57,55741,2,0,P|295:102|285:149,1,95,2|8,2:0|2:0,0:0:0:0:
165,63,56049,1,2,2:0:0:0:
92,239,56203,2,0,P|40:224|1:215,1,95,2|0,3:0|3:0,0:0:0:0:
17,5,56510,2,0,P|61:44|50:94,1,95,10|0,2:0|3:0,0:0:0:0:
202,266,56818,6,0,P|262:249|401:219,1,190,2|10,3:0|2:0,0:0:0:0:
476,64,57280,2,0,P|435:33|376:48,1,95,2|0,2:0|3:0,0:0:0:0:
311,151,57587,1,0,3:0:0:0:
464,257,57741,1,8,2:0:0:0:
268,367,57895,6,0,P|213:355|170:347,1,95,2|0,3:0|3:0,0:0:0:0:
47,193,58203,2,0,P|102:205|145:213,1,95,2|8,2:0|2:0,0:0:0:0:
67,384,58510,2,0,P|77:337|86:290,1,95,2|0,2:0|3:0,0:0:0:0:
241,165,58818,2,0,P|230:211|221:258,1,95,2|8,3:0|2:0,0:0:0:0:
268,367,59126,1,0,3:0:0:0:
445,283,59280,6,0,P|490:215|427:102,1,190,6|10,2:0|2:0,0:0:0:0:
325,2,59741,2,0,P|366:34|411:21,1,95,2|0,2:0|3:0,0:0:0:0:
338,152,60049,1,2,3:0:0:0:
229,68,60203,1,8,2:0:0:0:
90,187,60356,6,0,P|145:201|299:257,1,190,2|2,3:0|2:0,0:0:0:0:
397,355,60818,2,0,P|347:366|302:384,1,95,10|0,2:0|2:0,0:0:0:0:
419,260,61126,1,0,3:0:0:0:
419,260,61280,1,0,3:0:0:0:
287,164,61433,1,8,2:0:0:0:
382,0,61587,1,2,3:0:0:0:
505,154,61741,6,0,P|425:177|355:98,1,190,2|10,3:0|2:0,0:0:0:0:
247,1,62203,2,0,P|192:16|146:25,1,95,2|0,2:0|3:0,0:0:0:0:
23,120,62510,2,0,P|69:129|115:142,1,95,2|8,3:0|2:0,0:0:0:0:
214,208,62818,1,2,3:0:0:0:
81,56,62972,5,8,2:0:0:0:
45,269,63126,1,2,3:0:0:0:
208,97,63280,5,10,2:0:0:0:
220,302,63433,1,0,3:0:0:0:
353,74,63587,5,10,2:0:0:0:
353,74,63664,1,8,2:0:0:0:
353,74,63741,2,0,P|389:63|410:56,1,47.5,8|8,2:0|2:0,0:0:0:0:
476,115,63895,1,10,2:0:0:0:
504,152,63971,1,8,2:0:0:0:
511,198,64048,1,8,2:0:0:0:
496,242,64125,1,8,2:0:0:0:
461,273,64203,6,0,P|394:256|275:228,1,190,6|10,2:0|2:0,0:0:0:0:
167,372,64664,2,0,P|228:372|262:336,1,95,2|0,2:0|3:0,0:0:0:0:
117,271,64972,1,0,3:0:0:0:
238,137,65126,1,10,2:0:0:0:
76,74,65280,6,0,P|94:132|104:177,1,95,2|0,3:0|3:0,0:0:0:0:
174,18,65587,2,0,P|216:-7|267:4,1,95,2|8,2:0|2:0,0:0:0:0:
365,81,65895,1,2,2:0:0:0:
263,228,66049,2,0,P|250:181|237:136,1,95,2|0,3:0|3:0,0:0:0:0:
166,284,66356,2,0,P|120:310|69:296,1,95,10|0,2:0|2:0,0:0:0:0:
237,136,66664,6,0,P|301:154|456:188,1,190,6|8,2:0|2:0,0:0:0:0:
297,11,67126,1,2,3:0:0:0:
297,11,67203,1,0,3:0:0:0:
297,11,67280,2,0,P|233:29|78:63,1,190,4|10,2:0|2:0,0:0:0:0:
39,171,67741,1,0,2:0:0:0:
165,281,67895,5,10,3:0:0:0:
141,275,67971,1,8,3:0:0:0:
118,270,68048,1,8,3:0:0:0:
234,384,68203,5,10,3:0:0:0:
258,378,68279,1,8,3:0:0:0:
281,373,68356,1,8,3:0:0:0:
410,255,68510,5,10,2:0:0:0:
410,255,68664,1,10,2:0:0:0:
410,255,69126,6,0,P|424:189|458:61,1,190,4|8,2:0|2:0,0:0:0:0:
340,138,69587,1,0,3:0:0:0:
204,12,69741,5,8,2:0:0:0:
257,217,69895,1,0,3:0:0:0:
83,30,70049,5,8,2:0:0:0:
55,233,70203,1,0,3:0:0:0:
291,81,70356,5,8,2:0:0:0:
291,81,70664,6,0,P|245:96|191:118,1,85.4999973907472,10|0,2:0|2:0,0:0:0:0:
156,214,70972,6,0,P|145:185|129:166,3,47.5,10|8|10|8,2:0|2:0|2:0|2:0,0:0:0:0:
158,262,71280,1,10,2:0:0:0:
184,299,71356,1,8,2:0:0:0:
227,316,71433,1,10,2:0:0:0:
274,309,71510,1,8,2:0:0:0:
308,277,71587,5,2,2:0:0:0:
308,277,72203,5,2,2:0:0:0:
308,277,72818,5,2,2:0:0:0:
248,215,73126,1,2,2:0:0:0:
305,153,73433,1,2,2:0:0:0:
154,197,73741,5,2,2:0:0:0:
208,332,73895,1,2,2:0:0:0:
33,217,74049,6,0,P|46:158|73:19,1,190,6|8,2:0|2:0,0:0:0:0:
158,115,74510,1,0,2:0:0:0:
300,33,74664,2,0,P|262:5|215:8,1,95,2|0,3:0|3:0,0:0:0:0:
314,154,74972,1,10,2:0:0:0:
480,16,75126,6,0,P|433:39|438:163,1,190,2|0,3:0|3:0,0:0:0:0:
502,285,75587,2,0,P|511:334|476:380,1,95,10|0,2:0|2:0,0:0:0:0:
318,278,75895,2,0,P|363:263|419:249,1,95,2|0,3:0|3:0,0:0:0:0:
310,382,76203,1,10,2:0:0:0:
136,281,76356,6,0,P|157:238|182:321,1,190,2|0,3:0|3:0,0:0:0:0:
23,251,76818,2,0,P|29:194|67:164,1,95,10|0,2:0|2:0,0:0:0:0:
153,64,77126,2,0,P|97:47|57:28,1,95,2|0,3:0|3:0,0:0:0:0:
152,160,77433,1,10,2:0:0:0:
266,16,77587,6,0,P|352:17|403:107,1,190,2|2,3:0|3:0,0:0:0:0:
510,216,78049,2,0,P|457:215|426:270,1,95,10|2,2:0|2:0,0:0:0:0:
306,101,78356,1,2,3:0:0:0:
339,252,78510,1,2,3:0:0:0:
197,91,78664,1,10,2:0:0:0:
165,239,78818,1,2,2:0:0:0:
18,35,78972,6,0,P|35:96|63:226,1,190,6|8,2:0|2:0,0:0:0:0:
53,379,79433,1,2,2:0:0:0:
197,329,79587,2,0,P|140:313|91:303,1,95,0|0,3:0|3:0,0:0:0:0:
305,220,79895,1,10,2:0:0:0:
305,220,80049,2,0,P|238:231|169:134,1,190,0|2,3:0|3:0,0:0:0:0:
309,7,80510,1,8,2:0:0:0:
309,7,80818,5,2,3:0:0:0:
256,147,80972,1,2,3:0:0:0:
421,18,81125,1,10,2:0:0:0:
454,166,81279,1,2,3:0:0:0:
309,7,81433,6,0,P|242:24|201:29,1,95,6|0,2:0|3:0,0:0:0:0:
75,2,81741,1,0,3:0:0:0:
168,143,81895,6,0,P|197:197|131:309,1,190,10|0,2:0|3:0,0:0:0:0:
8,195,82356,1,10,3:0:0:0:
8,195,82433,1,8,3:0:0:0:
8,195,82510,2,0,P|62:205|106:215,1,95,8|0,3:0|0:0,0:0:0:0:
219,292,82818,1,10,2:0:0:0:
341,170,82972,5,0,3:0:0:0:
341,170,83049,1,0,3:0:0:0:
341,170,83126,1,0,3:0:0:0:
341,170,83203,1,0,3:0:0:0:
341,170,83280,2,0,P|286:159|244:148,1,95,10|0,2:0|3:0,0:0:0:0:
349,293,83741,6,1,B|381:307|416:341|416:341|483:310|483:310|432:258|432:258|398:273|352:270|352:270|335:278|335:278|268:262|268:262|257:297|274:232|264:261|264:261|102:225|102:225|89:262|108:194|98:225|98:225|16:206,1,727.65,4|0,0:0|3:0,0:0:0:0:
