osu file format v14

[General]
AudioFilename: Kiseki nanka, Iranai..mp3
AudioLeadIn: 0
PreviewTime: 53297
Countdown: 0
SampleSet: Soft
StackLeniency: 0.3
Mode: 0
LetterboxInBreaks: 0
WidescreenStoryboard: 0

[Editor]
DistanceSpacing: 1
BeatDivisor: 4
GridSize: 32
TimelineZoom: 1.700001

[Metadata]
Title:Kiseki nanka, Iranai.
TitleUnicode:奇跡なんか、いらない。
Artist:Sasaki Sayaka
ArtistUnicode:佐咲紗花
Creator:Hakusui3820
Version:dahkjdas' Expert.
Source:創作彼女の恋愛公式
Tags:dahkjdas Japanese JP Jpop J-pop pop ハラユカ。 HaraYuka. 折倉俊則 Orikura Toshinori from STRIKERS Visual Novel Vocals VN Galgame 美少女ゲーム Eroge Video Game Aino+Links Sousaku Kanojo no Ren'ai Koushiki OP Opening Short Version 彩瀬逢桜 Ayase Aisa 月見坂桐葉 Tsukimizaka Kiriha 凪間ゆめみ Nagima Yumemi 雪妃エレナ Yukisaki Erena
BeatmapID:3628710
BeatmapSetID:1740626

[Difficulty]
HPDrainRate:7
CircleSize:4
OverallDifficulty:8.7
ApproachRate:9.2
SliderMultiplier:1.9
SliderTickRate:1

[Events]
//Background and Video events
0,0,"Kiriha-2.jpg",0,0
Video,0,"OP.mp4"
//Break Periods
2,22333,31410
//Storyboard Layer 0 (Background)
//Storyboard Layer 1 (Fail)
//Storyboard Layer 2 (Pass)
//Storyboard Layer 3 (Foreground)
//Storyboard Layer 4 (Overlay)
//Storyboard Sound Samples

[TimingPoints]
-20,307.692307692308,4,2,1,60,1,0
1210,-200,4,2,2,30,0,0
5672,-200,4,2,2,35,0,0
6133,-83.3333333333333,4,2,1,40,0,0
6287,-83.3333333333333,4,2,1,42,0,0
6441,-83.3333333333333,4,2,1,44,0,0
6595,-83.3333333333333,4,2,1,46,0,0
6749,-83.3333333333333,4,2,1,48,0,0
6903,-83.3333333333333,4,2,1,50,0,0
7056,-83.3333333333333,4,2,1,52,0,0
7210,-83.3333333333333,4,2,1,54,0,0
7364,-83.3333333333333,4,2,1,56,0,0
7518,-83.3333333333333,4,2,1,58,0,0
7672,-83.3333333333333,4,2,1,60,0,0
7826,-83.3333333333333,4,2,1,62,0,0
7980,-83.3333333333333,4,2,1,64,0,0
8133,-83.3333333333333,4,2,1,66,0,0
8287,-83.3333333333333,4,2,1,68,0,0
8441,-83.3333333333333,4,2,1,70,0,0
8595,-83.3333333333333,4,2,1,72,0,0
8672,-83.3333333333333,4,2,1,73,0,0
8749,-83.3333333333333,4,2,1,74,0,0
8826,-83.3333333333333,4,2,1,75,0,0
8903,-83.3333333333333,4,2,1,76,0,0
8980,-83.3333333333333,4,2,1,77,0,0
9056,-83.3333333333333,4,2,1,78,0,0
9133,-83.3333333333333,4,2,1,79,0,0
9210,-83.3333333333333,4,2,1,80,0,0
9287,-83.3333333333333,4,2,1,81,0,0
9364,-83.3333333333333,4,2,1,82,0,0
9441,-83.3333333333333,4,2,1,83,0,0
9518,-83.3333333333333,4,2,1,84,0,0
9595,-83.3333333333333,4,2,1,85,0,0
9672,-83.3333333333333,4,2,1,86,0,0
9749,-83.3333333333333,4,2,1,87,0,0
9826,-83.3333333333333,4,2,95,40,0,0
11056,-90.9090909090909,4,2,1,70,0,0
16903,-133.333333333333,4,2,1,70,0,0
17364,-90.9090909090909,4,2,1,70,0,0
18441,-90.9090909090909,4,2,1,70,0,0
19826,-90.9090909090909,4,2,1,60,0,0
22133,-90.9090909090909,4,2,1,50,0,0
31980,-111.111111111111,4,2,1,60,0,0
41826,-111.111111111111,4,2,1,70,0,0
46749,-133.333333333333,4,2,1,70,0,0
47980,-111.111111111111,4,2,1,70,0,0
49210,-100,4,2,1,40,0,0
49364,-100,4,2,1,42,0,0
49518,-100,4,2,1,44,0,0
49672,-100,4,2,1,46,0,0
49826,-100,4,2,1,48,0,0
49980,-100,4,2,1,50,0,0
50133,-100,4,2,1,52,0,0
50287,-100,4,2,1,54,0,0
50441,-100,4,2,1,56,0,0
50595,-100,4,2,1,58,0,0
50749,-100,4,2,1,60,0,0
50903,-100,4,2,1,62,0,0
51056,-100,4,2,1,64,0,0
51210,-100,4,2,1,66,0,0
51364,-100,4,2,1,68,0,0
51518,-100,4,2,1,70,0,0
51672,-90.9090909090909,4,2,1,72,0,0
51749,-90.9090909090909,4,2,1,73,0,0
51826,-90.9090909090909,4,2,1,74,0,0
51903,-90.9090909090909,4,2,1,75,0,0
51980,-90.9090909090909,4,2,1,76,0,0
52056,-90.9090909090909,4,2,1,77,0,0
52133,-90.9090909090909,4,2,1,78,0,0
52210,-90.9090909090909,4,2,1,79,0,0
52287,-90.9090909090909,4,2,1,80,0,0
52364,-90.9090909090909,4,2,1,81,0,0
52441,-90.9090909090909,4,2,1,82,0,0
52518,-90.9090909090909,4,2,1,83,0,0
52595,-90.9090909090909,4,2,1,84,0,0
52672,-90.9090909090909,4,2,1,85,0,0
52749,-90.9090909090909,4,2,1,86,0,0
52826,-90.9090909090909,4,2,1,87,0,0
52903,-90.9090909090909,4,2,1,88,0,0
52980,-90.9090909090909,4,2,1,44,0,0
53056,-90.9090909090909,4,2,1,90,0,0
53133,-90.9090909090909,4,2,1,45,0,0
53364,-200,4,2,1,45,0,0
54133,-83.3333333333333,4,2,1,80,0,1
66441,-133.333333333333,4,2,1,70,0,0
67672,-83.3333333333333,4,2,1,70,0,0
68287,-83.3333333333333,4,2,1,88,0,0
68364,-83.3333333333333,4,2,1,44,0,0
68441,-83.3333333333333,4,2,1,90,0,0
68518,-83.3333333333333,4,2,1,45,0,0
68595,-83.3333333333333,4,2,1,45,0,0
68903,-83.3333333333333,4,2,1,80,0,0
71364,-83.3333333333333,4,2,95,40,0,0
73826,-90.9090909090909,4,2,1,70,0,0
79672,-133.333333333333,4,2,1,70,0,0
80133,-90.9090909090909,4,2,1,70,0,0
81210,-90.9090909090909,4,2,1,70,0,0
82133,-90.9090909090909,4,2,1,80,0,0
83518,-200,4,2,1,70,0,0
88364,-200,4,2,99,20,0,0

[Colours]
Combo1 : 170,170,170
Combo2 : 85,170,255
Combo3 : 199,141,141
Combo4 : 255,169,128
Combo5 : 128,128,255

[HitObjects]
71,262,1210,5,2,0:0:0:0:
138,227,1826,1,2,0:0:0:0:
211,245,2441,1,2,0:0:0:0:
252,308,3056,1,2,0:0:0:0:
407,173,3672,6,0,P|360:177|293:184,2,95,2|0|0,0:0|0:0|0:0,0:0:0:0:
102,102,4903,2,0,P|149:106|216:113,2,95,2|0|0,0:0|0:0|0:0,0:0:0:0:
327,52,5826,1,0,0:0:0:0:
327,52,6133,5,10,2:1:0:0:
153,22,6287,1,8,2:1:0:0:
355,143,6441,1,8,2:1:0:0:
124,194,6595,1,8,2:1:0:0:
271,118,6749,5,8,2:1:0:0:
271,118,6903,1,8,2:1:0:0:
47,79,7056,1,8,2:1:0:0:
47,79,7210,1,8,2:1:0:0:
237,203,7364,5,10,2:1:0:0:
35,253,7518,1,8,2:1:0:0:
160,108,7672,1,8,2:1:0:0:
189,317,7826,1,8,2:1:0:0:
293,120,7980,5,8,2:1:0:0:
277,288,8133,1,8,2:1:0:0:
426,164,8287,5,8,2:1:0:0:
370,301,8441,1,8,2:1:0:0:
181,197,8595,6,0,B|247:191|247:191|280:205|280:205|365:197,1,170.999994781494,6|0,3:1|3:0,0:0:0:0:
424,248,8903,1,0,3:0:0:0:
424,248,8980,1,0,3:0:0:0:
424,248,9056,2,0,P|427:212|437:163,1,56.9999982604981,0|0,3:0|3:0,0:0:0:0:
305,68,9210,1,10,1:0:0:0:
305,68,9287,1,8,1:0:0:0:
305,68,9364,2,0,P|302:104|292:153,1,56.9999982604981,8|8,1:0|1:0,0:0:0:0:
208,327,9518,1,8,1:0:0:0:
173,286,9595,1,8,1:0:0:0:
123,265,9672,1,8,1:0:0:0:
70,267,9749,1,8,1:0:0:0:
23,294,9826,1,4,0:0:0:0:
43,89,11056,6,0,P|103:72|182:128,1,156.750004783631,12|0,2:1|0:0,0:0:0:0:
181,138,11364,2,0,P|242:130|288:127,1,104.500003189087,8|0,0:0|0:0,0:0:0:0:
284,127,11595,1,0,0:0:0:0:
284,127,11672,1,8,2:1:0:0:
95,162,11826,1,0,0:0:0:0:
236,42,11980,1,8,0:0:0:0:
233,228,12133,6,0,B|195:229|155:236|155:236|115:257|115:257|74:257|12:246,1,209.000006378174,10|8,2:1|2:1,0:0:0:0:
192,322,12595,2,0,P|269:330|330:336,1,104.500003189087,8|0,0:0|0:0,0:0:0:0:
295,332,12826,1,0,0:0:0:0:
295,332,12903,1,8,2:1:0:0:
499,240,13056,1,0,0:0:0:0:
330,182,13210,1,8,0:0:0:0:
415,371,13364,6,0,B|423:331|426:294|426:294|412:250|412:250|414:208|428:144,1,209.000006378174,10|8,2:1|2:1,0:0:0:0:
263,31,13826,2,0,P|255:115|251:163,1,104.500003189087,8|0,0:0|0:0,0:0:0:0:
84,259,14133,2,0,P|135:213|234:241,1,156.750004783631,8|0,2:1|0:0,0:0:0:0:
217,225,14441,1,8,0:0:0:0:
463,244,14595,6,0,P|401:233|286:210,1,156.750004783631,10|0,2:1|0:0,0:0:0:0:
308,214,14903,1,8,2:1:0:0:
162,125,15056,1,8,0:0:0:0:
357,67,15210,1,8,2:1:0:0:
197,0,15364,5,10,2:1:0:0:
245,157,15518,1,8,2:1:0:0:
357,67,15672,1,8,0:0:0:0:
162,125,15826,1,8,2:1:0:0:
332,274,15980,6,0,P|341:189|357:63,1,209.000006378174,10|8,2:1|0:0,0:0:0:0:
162,125,16441,2,0,P|153:210|136:336,1,209.000006378174,10|8,2:1|2:1,0:0:0:0:
371,346,16903,6,0,P|409:306|392:221,1,142.500005435944,8|0,0:0|0:0,0:0:0:0:
219,236,17364,1,10,2:1:0:0:
203,239,17441,1,0,0:0:0:0:
187,242,17518,1,8,0:0:0:0:
330,158,17672,1,0,0:0:0:0:
282,355,17826,5,10,2:1:0:0:
330,158,17980,1,8,2:1:0:0:
107,212,18133,1,8,0:0:0:0:
304,274,18287,1,8,2:1:0:0:
142,363,18441,5,8,0:0:0:0:
209,145,18595,1,8,2:1:0:0:
363,335,18749,1,8,2:1:0:0:
80,129,18903,5,8,0:0:0:0:
227,297,19056,1,8,2:1:0:0:
297,76,19210,1,8,2:1:0:0:
373,231,19364,5,8,0:0:0:0:
357,235,19441,1,8,0:0:0:0:
341,239,19518,2,0,P|303:238|273:226,1,52.2500015945435,8|8,2:3|2:3,0:0:0:0:
133,199,19672,1,4,2:3:0:0:
123,223,19749,1,4,2:3:0:0:
119,248,19826,1,12,2:1:0:0:
256,192,19903,12,6,22133,0:0:0:0:
83,286,31980,6,0,P|162:275|228:267,1,128.249996086121,12|0,2:1|0:0,0:0:0:0:
220,276,32287,2,0,P|230:209|239:155,1,85.4999973907472,8|0,0:0|0:0,0:0:0:0:
184,56,32595,1,8,2:1:0:0:
184,56,32749,1,8,2:1:0:0:
329,98,32903,2,0,P|268:106|217:112,1,85.4999973907472,8|0,0:0|0:0,0:0:0:0:
315,242,33210,6,0,P|405:231|496:221,1,170.999994781494,8|8,2:1|0:0,0:0:0:0:
265,313,33826,1,8,2:1:0:0:
232,229,33980,1,8,2:1:0:0:
178,298,34133,2,0,P|165:364|158:403,1,85.4999973907472,8|0,0:0|0:0,0:0:0:0:
315,242,34441,6,0,P|333:188|308:75,1,170.999994781494,8|8,2:1|0:0,0:0:0:0:
189,132,34903,1,0,0:0:0:0:
189,132,35056,2,0,P|128:129|82:118,1,85.4999973907472,8|8,2:1|2:1,0:0:0:0:
221,52,35364,1,8,0:0:0:0:
243,203,35518,1,0,0:0:0:0:
243,203,35672,6,0,P|298:178|421:198,1,170.999994781494,8|8,2:1|0:0,0:0:0:0:
480,270,36133,1,0,0:0:0:0:
480,270,36287,2,0,P|469:332|461:376,1,85.4999973907472,8|8,2:1|2:1,0:0:0:0:
336,366,36595,1,8,0:0:0:0:
389,298,36749,1,2,0:0:0:0:
280,142,36903,6,0,P|288:211|297:291,1,128.249996086121,12|0,2:1|0:0,0:0:0:0:
289,285,37210,2,0,P|233:277|179:265,1,85.4999973907472,8|2,0:0|0:0,0:0:0:0:
153,136,37518,1,8,2:1:0:0:
113,255,37672,1,8,2:1:0:0:
0,191,37826,2,0,P|58:184|121:177,1,85.4999973907472,8|0,0:0|0:0,0:0:0:0:
230,79,38133,5,8,2:1:0:0:
230,79,38441,2,0,P|243:153|244:189,1,85.4999973907472,8|0,0:0|0:0,0:0:0:0:
404,187,38749,2,0,P|333:161|301:144,1,85.4999973907472,8|8,2:1|2:1,0:0:0:0:
221,288,39056,2,0,P|278:239|309:220,1,85.4999973907472,8|0,0:0|0:0,0:0:0:0:
476,320,39364,5,8,2:1:0:0:
476,320,39672,2,0,P|416:328|370:335,1,85.4999973907472,8|0,0:0|0:0,0:0:0:0:
270,368,39980,1,8,2:1:0:0:
270,368,40133,1,8,2:1:0:0:
304,208,40287,2,0,P|311:261|319:321,1,85.4999973907472,8|8,0:0|2:1,0:0:0:0:
163,193,40595,5,8,0:0:0:0:
163,193,40749,1,8,2:1:0:0:
338,131,40903,1,8,0:0:0:0:
338,131,41056,1,8,2:1:0:0:
209,59,41210,1,8,2:1:0:0:
277,212,41364,1,8,2:3:0:0:
277,212,41518,2,0,P|348:221|387:225,1,85.4999973907472,4|4,2:3|2:3,0:0:0:0:
208,319,41826,5,4,1:3:0:0:
208,319,41980,2,0,P|135:309|21:290,1,170.999994781494,4|8,1:3|2:1,0:0:0:0:
117,129,42441,1,8,0:0:0:0:
149,209,42595,1,0,0:0:0:0:
66,195,42749,1,4,1:3:0:0:
200,140,42903,6,0,P|258:150|346:70,1,170.999994781494,4|8,1:3|2:1,0:0:0:0:
474,168,43364,2,0,P|418:162|377:157,1,85.4999973907472,8|0,0:0|0:0,0:0:0:0:
248,61,43672,1,8,0:0:0:0:
317,225,43826,1,8,2:3:0:0:
440,85,43980,1,4,2:3:0:0:
440,85,44287,5,4,1:3:0:0:
440,85,44441,2,0,P|449:165|453:256,1,170.999994781494,4|8,1:3|2:1,0:0:0:0:
280,141,44903,2,0,P|336:144|397:153,1,85.4999973907472,8|0,0:0|0:0,0:0:0:0:
475,5,45210,1,4,1:3:0:0:
475,5,45364,6,0,B|365:-8|419:42|309:26,1,170.999994781494,4|8,1:3|2:1,0:0:0:0:
107,104,45826,1,8,2:1:0:0:
202,79,45980,1,8,0:0:0:0:
130,13,46133,1,8,2:1:0:0:
180,181,46287,1,8,2:3:0:0:
180,181,46441,2,0,P|118:190|75:195,1,85.4999973907472,4|0,2:3|0:0,0:0:0:0:
8,365,46749,6,0,P|54:305|188:338,1,213.750008153916,14|0,2:1|0:0,0:0:0:0:
178,324,47364,2,0,P|186:260|197:168,1,142.500005435944,12|0,2:1|0:0,0:0:0:0:
316,79,47826,1,8,2:3:0:0:
316,79,47903,1,8,2:3:0:0:
316,79,47980,6,0,P|308:153|298:268,1,170.999994781494,8|4,2:3|2:3,0:0:0:0:
398,208,48441,1,0,0:0:0:0:
439,310,48595,2,0,B|326:297|379:345|272:332,1,170.999994781494,12|0,2:1|0:0,0:0:0:0:
74,155,49210,5,10,2:1:0:0:
171,209,49364,1,8,2:1:0:0:
32,247,49518,1,8,2:1:0:0:
154,129,49672,1,8,2:1:0:0:
240,275,49826,5,10,2:1:0:0:
335,126,49980,1,8,2:1:0:0:
171,209,50133,1,8,2:1:0:0:
362,288,50287,1,8,2:1:0:0:
134,358,50441,5,10,2:1:0:0:
134,358,50595,1,8,2:1:0:0:
323,207,50749,1,8,2:1:0:0:
323,207,50903,1,10,2:1:0:0:
156,84,51056,5,8,2:1:0:0:
243,260,51210,1,8,2:1:0:0:
316,115,51364,5,10,2:1:0:0:
85,221,51518,1,8,2:1:0:0:
293,339,51672,6,0,L|465:329,1,156.750004783631,6|0,3:1|3:0,0:0:0:0:
462,346,51980,1,0,3:0:0:0:
416,334,52056,1,0,3:0:0:0:
379,306,52133,1,2,3:1:0:0:
355,266,52210,1,0,3:0:0:0:
349,220,52287,1,0,3:0:0:0:
362,175,52364,1,0,3:0:0:0:
394,139,52441,2,0,L|453:134,1,52.2500015945435,0|0,3:0|3:0,0:0:0:0:
274,256,52595,5,10,1:0:0:0:
225,275,52672,1,8,1:0:0:0:
174,262,52749,1,8,1:0:0:0:
138,223,52826,1,8,1:0:0:0:
135,170,52903,2,0,L|120:89,1,52.2500015945435,12|0,0:0|0:0,0:0:0:0:
256,32,53056,1,12,0:0:0:0:
356,229,54133,6,0,B|405:192|479:195|479:195|433:227,1,170.999994781494,12|0,2:1|0:0,0:0:0:0:
445,218,54441,1,8,0:0:0:0:
274,304,54595,1,0,0:0:0:0:
274,304,54672,1,0,0:0:0:0:
274,304,54749,2,0,P|266:232|259:168,1,113.999996520996,8|8,2:1|2:1,0:0:0:0:
333,25,55056,1,8,0:0:0:0:
473,105,55210,6,0,P|405:118|347:127,1,113.999996520996,8|8,2:1|2:1,0:0:0:0:
122,62,55518,1,2,0:0:0:0:
241,257,55672,2,0,P|247:174|260:113,1,113.999996520996,8|0,0:0|0:0,0:0:0:0:
258,119,55903,1,0,0:0:0:0:
258,119,55980,2,0,B|149:108|205:155|93:143,1,170.999994781494,8|0,2:1|0:0,0:0:0:0:
16,255,56287,2,0,P|44:285|122:281,1,113.999996520996,8|8,0:0|2:1,0:0:0:0:
188,327,56518,1,8,2:1:0:0:
188,327,56595,6,0,P|231:269|359:304,1,170.999994781494,8|0,2:1|0:0,0:0:0:0:
323,268,56903,1,8,0:0:0:0:
501,357,57056,2,0,P|433:365|353:376,1,113.999996520996,0|8,0:0|2:1,0:0:0:0:
270,167,57364,1,8,2:1:0:0:
270,167,57441,1,8,2:1:0:0:
270,167,57518,1,8,0:0:0:0:
424,279,57672,6,0,P|433:194|441:131,1,113.999996520996,8|8,2:1|2:1,0:0:0:0:
88,105,57980,2,0,P|79:190|71:252,1,113.999996520996,0|8,2:1|0:0,0:0:0:0:
334,249,58287,5,0,2:1:0:0:
189,77,58441,1,8,2:1:0:0:
349,104,58595,5,8,2:1:0:0:
349,104,58672,1,8,2:1:0:0:
349,104,58749,1,8,0:0:0:0:
162,221,58903,1,8,2:1:0:0:
422,288,59056,6,0,P|356:270|268:341,1,170.999994781494,12|0,2:1|0:0,0:0:0:0:
275,323,59364,1,8,0:0:0:0:
420,179,59518,2,0,P|434:101|434:42,1,113.999996520996,0|8,0:0|2:1,0:0:0:0:
269,6,59826,2,0,P|255:84|255:143,1,113.999996520996,8|8,2:1|0:0,0:0:0:0:
104,240,60133,6,0,B|255:256|186:188|323:197,1,227.999993041992,8|0,2:1|0:0,0:0:0:0:
399,280,60595,2,0,L|279:291,1,113.999996520996,8|0,0:0|0:0,0:0:0:0:
152,153,60903,2,0,L|32:164,1,113.999996520996,8|8,2:1|2:1,0:0:0:0:
331,0,61210,2,0,P|324:95|321:140,1,113.999996520996,8|8,0:0|2:1,0:0:0:0:
260,189,61441,5,8,2:1:0:0:
260,189,61518,2,0,P|311:146|420:179,1,170.999994781494,14|0,2:1|0:0,0:0:0:0:
407,164,61826,1,8,0:0:0:0:
223,90,61980,1,8,2:1:0:0:
223,90,62056,1,8,2:1:0:0:
223,90,62133,1,8,2:1:0:0:
342,232,62287,1,8,2:1:0:0:
412,57,62441,1,8,0:0:0:0:
263,279,62595,5,8,2:1:0:0:
246,281,62672,1,8,2:1:0:0:
229,284,62749,1,12,0:0:0:0:
497,339,62903,1,8,2:1:0:0:
412,57,63056,5,12,0:0:0:0:
359,324,63210,1,8,2:1:0:0:
162,124,63364,5,2,3:1:0:0:
162,124,63441,1,0,3:0:0:0:
162,124,63518,1,0,3:0:0:0:
162,124,63595,1,0,3:0:0:0:
162,124,63672,2,0,L|168:191,1,56.9999982604981,2|8,3:1|2:3,0:0:0:0:
224,340,63826,2,0,L|231:241,1,56.9999982604981,4|4,2:3|2:3,0:0:0:0:
258,203,63980,6,0,B|153:194|207:243|93:229,1,170.999994781494,12|0,2:1|0:0,0:0:0:0:
93,229,64287,1,8,0:0:0:0:
237,5,64441,1,0,0:0:0:0:
237,5,64518,1,0,0:0:0:0:
237,5,64595,2,0,P|245:79|248:167,1,113.999996520996,8|8,2:1|2:1,0:0:0:0:
66,72,64903,1,8,0:0:0:0:
201,210,65056,6,0,P|280:204|345:195,1,113.999996520996,8|8,2:1|2:1,0:0:0:0:
447,73,65364,2,0,P|369:65|304:63,1,113.999996520996,2|8,0:0|0:0,0:0:0:0:
132,257,65672,1,2,0:0:0:0:
314,199,65826,5,8,2:1:0:0:
78,80,65980,1,8,2:1:0:0:
261,8,66133,5,8,0:0:0:0:
123,273,66287,1,8,2:1:0:0:
404,185,66441,6,0,P|381:137|226:164,1,213.750008153916,14|0,2:1|0:0,0:0:0:0:
69,360,67056,2,0,P|142:354|232:346,1,142.500005435944,12|0,2:1|0:0,0:0:0:0:
337,284,67672,5,12,2:1:0:0:
365,285,67749,1,8,0:0:0:0:
393,287,67826,1,0,3:0:0:0:
160,190,67980,5,8,2:3:0:0:
131,192,68056,1,8,2:3:0:0:
102,194,68133,1,4,2:3:0:0:
210,347,68287,6,0,L|222:263,1,56.9999982604981,12|0,0:0|0:0,0:0:0:0:
379,139,68441,2,0,L|370:195,1,56.9999982604981,12|0,0:0|0:0,0:0:0:0:
136,324,68903,6,0,P|226:313|335:308,1,170.999994781494,12|0,2:1|0:0,0:0:0:0:
306,309,69210,1,8,1:2:0:0:
111,210,69364,1,8,2:1:0:0:
312,159,69518,1,8,1:2:0:0:
161,70,69672,1,8,2:1:0:0:
218,290,69826,1,10,1:2:0:0:
398,161,69980,1,8,2:1:0:0:
183,154,70133,5,10,1:2:0:0:
426,76,70287,1,8,2:1:0:0:
327,284,70441,1,10,1:2:0:0:
238,22,70595,1,8,2:1:0:0:
59,263,70749,5,10,1:0:0:0:
87,231,70826,1,8,1:0:0:0:
121,205,70903,1,8,1:0:0:0:
160,186,70980,1,8,1:0:0:0:
201,175,71056,1,8,1:0:0:0:
243,171,71133,1,8,1:0:0:0:
286,175,71210,1,8,1:0:0:0:
327,186,71287,1,8,1:0:0:0:
365,205,71364,1,4,0:0:0:0:
455,116,73826,6,0,P|401:161|303:138,1,156.750004783631,12|0,2:1|0:0,0:0:0:0:
304,141,74133,2,0,P|294:234|290:285,1,104.500003189087,8|0,0:0|0:0,0:0:0:0:
293,244,74364,1,0,0:0:0:0:
293,244,74441,1,8,2:1:0:0:
130,120,74595,1,0,0:0:0:0:
106,364,74749,1,8,0:0:0:0:
36,152,74903,6,0,P|90:207|229:153,1,209.000006378174,10|8,2:1|2:1,0:0:0:0:
366,326,75364,2,0,P|307:333|230:339,1,104.500003189087,8|0,0:0|0:0,0:0:0:0:
262,336,75595,1,0,0:0:0:0:
262,336,75672,1,8,2:1:0:0:
442,205,75826,1,0,0:0:0:0:
201,84,75980,1,8,0:0:0:0:
335,243,76133,6,0,B|328:196|330:160|330:160|344:123|344:123|347:81|337:34,1,209.000006378174,10|8,2:1|2:1,0:0:0:0:
244,210,76595,2,0,P|190:209|131:199,1,104.500003189087,8|0,0:0|0:0,0:0:0:0:
14,63,76903,2,0,P|65:52|127:50,1,104.500003189087,8|0,2:1|0:0,0:0:0:0:
68,250,77210,1,8,0:0:0:0:
329,105,77364,6,0,L|164:120,1,156.750004783631,10|0,2:1|0:0,0:0:0:0:
172,119,77672,1,8,2:1:0:0:
362,191,77826,1,8,0:0:0:0:
141,343,77980,1,8,2:1:0:0:
338,270,78133,5,10,2:1:0:0:
157,230,78287,1,8,2:1:0:0:
287,166,78441,1,8,0:0:0:0:
248,342,78595,1,8,2:1:0:0:
182,90,78749,6,0,P|277:86|406:74,1,209.000006378174,10|8,2:1|0:0,0:0:0:0:
330,294,79210,2,0,P|235:298|106:310,1,209.000006378174,10|8,2:1|2:1,0:0:0:0:
264,123,79672,6,0,P|255:196|245:282,1,142.500005435944,8|0,0:0|0:0,0:0:0:0:
339,188,80133,1,10,2:1:0:0:
354,188,80210,1,0,0:0:0:0:
369,188,80287,1,8,0:0:0:0:
176,136,80441,1,0,0:0:0:0:
346,101,80595,5,10,2:1:0:0:
167,222,80749,1,8,2:1:0:0:
341,280,80903,5,8,0:0:0:0:
176,136,81056,1,8,2:1:0:0:
356,88,81210,5,8,0:0:0:0:
97,172,81364,1,8,2:1:0:0:
352,289,81518,1,8,2:1:0:0:
107,87,81672,5,8,0:0:0:0:
373,183,81826,1,8,2:1:0:0:
125,295,81980,1,8,2:1:0:0:
254,158,82133,1,12,0:0:0:0:
187,362,82287,5,0,3:0:0:0:
213,359,82364,1,0,3:0:0:0:
239,356,82441,1,0,3:0:0:0:
265,353,82518,1,0,3:0:0:0:
291,351,82595,2,0,L|361:359,1,52.2500015945435,12|0,0:0|3:0,0:0:0:0:
414,242,82749,5,0,3:0:0:0:
382,237,82826,1,0,3:0:0:0:
350,233,82903,1,0,3:0:0:0:
318,229,82980,1,0,3:0:0:0:
287,225,83056,2,0,L|217:231,1,52.2500015945435,12|0,0:0|3:0,0:0:0:0:
96,142,83210,5,0,3:0:0:0:
132,136,83287,1,0,3:0:0:0:
168,130,83364,1,0,3:0:0:0:
204,124,83441,1,0,3:0:0:0:
236,120,83518,6,0,B|303:209|438:231|524:153|520:54|431:17|333:55|298:165|298:165|237:250|122:226|85:117|121:18|201:-29|308:-19|471:95|382:291|382:291|361:339|329:370|290:373|261:349|268:307|321:293|387:328,1,1496.25,12|2,2:1|3:2,0:0:0:0:
