osu file format v14

[General]
AudioFilename: Kiseki nanka, Iranai..mp3
AudioLeadIn: 0
PreviewTime: 53297
Countdown: 0
SampleSet: Soft
StackLeniency: 0
Mode: 0
LetterboxInBreaks: 0
WidescreenStoryboard: 0

[Editor]
DistanceSpacing: 1
BeatDivisor: 4
GridSize: 32
TimelineZoom: 3

[Metadata]
Title:Kiseki nanka, Iranai.
TitleUnicode:奇跡なんか、いらない。
Artist:Sasaki Sayaka
ArtistUnicode:佐咲紗花
Creator:Hakusui3820
Version:Hope, Ideal.
Source:創作彼女の恋愛公式
Tags:dahkjdas Japanese JP Jpop J-pop pop ハラユカ。 HaraYuka. 折倉俊則 Orikura Toshinori from STRIKERS Visual Novel Vocals VN Galgame 美少女ゲーム Eroge Video Game Aino+Links Sousaku Kanojo no Ren'ai Koushiki OP Opening Short Version 彩瀬逢桜 Ayase Aisa 月見坂桐葉 Tsukimizaka Kiriha 凪間ゆめみ Nagima Yumemi 雪妃エレナ Yukisaki Erena
BeatmapID:3558307
BeatmapSetID:1740626

[Difficulty]
HPDrainRate:8
CircleSize:4.2
OverallDifficulty:9
ApproachRate:9.3
SliderMultiplier:1.75
SliderTickRate:1

[Events]
//Background and Video events
0,0,"Aisa.jpg",0,0
Video,0,"OP.mp4"
//Break Periods
2,22333,26502
//Storyboard Layer 0 (Background)
//Storyboard Layer 1 (Fail)
//Storyboard Layer 2 (Pass)
//Storyboard Layer 3 (Foreground)
//Storyboard Layer 4 (Overlay)
//Storyboard Sound Samples

[TimingPoints]
-20,307.692307692308,4,2,1,60,1,0
1210,-166.666666666667,4,2,2,30,0,0
5672,-166.666666666667,4,2,2,35,0,0
5826,-125,4,2,2,35,0,0
6133,-83.3333333333333,4,2,1,40,0,1
6172,-83.3333333333333,4,2,1,40,0,0
6287,-83.3333333333333,4,2,1,42,0,0
6441,-83.3333333333333,4,2,1,44,0,0
6595,-83.3333333333333,4,2,1,46,0,0
6749,-83.3333333333333,4,2,1,48,0,0
6903,-83.3333333333333,4,2,1,50,0,0
7056,-83.3333333333333,4,2,1,52,0,0
7210,-83.3333333333333,4,2,1,54,0,0
7364,-83.3333333333333,4,2,1,56,0,0
7518,-83.3333333333333,4,2,1,58,0,0
7672,-83.3333333333333,4,2,1,60,0,0
7826,-83.3333333333333,4,2,1,62,0,0
7980,-83.3333333333333,4,2,1,64,0,0
8133,-83.3333333333333,4,2,1,66,0,0
8287,-83.3333333333333,4,2,1,68,0,0
8441,-83.3333333333333,4,2,1,70,0,0
8595,-83.3333333333333,4,2,1,72,0,1
8672,-83.3333333333333,4,2,1,73,0,1
8749,-83.3333333333333,4,2,1,74,0,1
8826,-83.3333333333333,4,2,1,75,0,1
8903,-83.3333333333333,4,2,1,76,0,1
8980,-83.3333333333333,4,2,1,77,0,1
9056,-83.3333333333333,4,2,1,78,0,1
9133,-83.3333333333333,4,2,1,79,0,1
9210,-83.3333333333333,4,2,1,80,0,1
9287,-83.3333333333333,4,2,1,81,0,1
9364,-83.3333333333333,4,2,1,82,0,1
9441,-83.3333333333333,4,2,1,83,0,1
9518,-83.3333333333333,4,2,1,84,0,1
9595,-83.3333333333333,4,2,1,85,0,1
9672,-83.3333333333333,4,2,1,86,0,1
9749,-83.3333333333333,4,2,1,87,0,1
9826,-166.666666666667,4,2,95,40,0,0
11056,-100,4,2,1,70,0,1
11095,-100,4,2,1,70,0,0
15364,-62.5,4,2,1,70,0,1
15980,-71.4285714285714,4,2,1,70,0,0
16441,-83.3333333333333,4,2,1,70,0,0
16903,-100,4,2,1,70,0,0
17364,-125,4,2,1,70,0,0
17826,-100,4,2,1,70,0,0
19364,-62.5,4,2,1,70,0,0
19672,-100,4,2,1,70,0,0
19826,-250,4,2,1,60,0,0
22133,-166.666666666667,4,2,1,50,0,0
27056,-125,4,2,1,50,0,0
31980,-100,4,2,1,60,0,0
41826,-166.666666666667,4,2,1,70,0,0
49210,-83.3333333333333,4,2,1,40,0,1
49249,-83.3333333333333,4,2,1,40,0,0
49364,-83.3333333333333,4,2,1,42,0,0
49518,-83.3333333333333,4,2,1,44,0,0
49672,-83.3333333333333,4,2,1,46,0,0
49826,-83.3333333333333,4,2,1,48,0,0
49980,-83.3333333333333,4,2,1,50,0,0
50133,-83.3333333333333,4,2,1,52,0,0
50287,-83.3333333333333,4,2,1,54,0,0
50441,-83.3333333333333,4,2,1,56,0,0
50595,-83.3333333333333,4,2,1,58,0,0
50749,-83.3333333333333,4,2,1,60,0,0
50903,-83.3333333333333,4,2,1,62,0,0
51056,-83.3333333333333,4,2,1,64,0,0
51210,-83.3333333333333,4,2,1,66,0,0
51364,-83.3333333333333,4,2,1,68,0,0
51518,-83.3333333333333,4,2,1,70,0,0
51672,-83.3333333333333,4,2,1,72,0,1
51749,-83.3333333333333,4,2,1,73,0,1
51826,-83.3333333333333,4,2,1,74,0,1
51903,-83.3333333333333,4,2,1,75,0,1
51980,-83.3333333333333,4,2,1,76,0,1
52056,-83.3333333333333,4,2,1,77,0,1
52133,-83.3333333333333,4,2,1,78,0,1
52210,-83.3333333333333,4,2,1,79,0,1
52287,-83.3333333333333,4,2,1,80,0,1
52364,-83.3333333333333,4,2,1,81,0,1
52441,-83.3333333333333,4,2,1,82,0,1
52518,-83.3333333333333,4,2,1,83,0,1
52595,-83.3333333333333,4,2,1,84,0,1
52672,-83.3333333333333,4,2,1,85,0,1
52749,-83.3333333333333,4,2,1,86,0,1
52826,-83.3333333333333,4,2,1,87,0,1
52903,-50,4,2,1,88,0,1
52980,-50,4,2,1,44,0,1
53056,-50,4,2,1,90,0,1
53133,-50,4,2,1,45,0,1
53210,-100,4,2,1,45,0,0
54133,-83.3333333333333,4,2,1,80,0,1
57672,-50,4,2,1,80,0,1
59056,-83.3333333333333,4,2,1,80,0,1
61518,-62.5,4,2,1,80,0,1
61826,-83.3333333333333,4,2,1,80,0,1
63903,-83.3333333333333,4,2,1,80,0,0
63980,-62.5,4,2,1,80,0,1
64287,-83.3333333333333,4,2,1,80,0,1
66441,-166.666666666667,4,2,1,70,0,0
67672,-83.3333333333333,4,2,1,70,0,0
68287,-50,4,2,1,88,0,1
68364,-50,4,2,1,44,0,1
68441,-50,4,2,1,90,0,1
68518,-50,4,2,1,45,0,1
68595,-83.3333333333333,4,2,1,45,0,0
68903,-83.3333333333333,4,2,1,80,0,1
71364,-100,4,2,95,40,0,0
73826,-100,4,2,1,70,0,1
73864,-100,4,2,1,70,0,0
78133,-62.5,4,2,1,70,0,1
78749,-71.4285714285714,4,2,1,70,0,0
79210,-83.3333333333333,4,2,1,70,0,0
79672,-100,4,2,1,70,0,0
80133,-125,4,2,1,70,0,0
80595,-100,4,2,1,70,0,0
82133,-83.3333333333333,4,2,1,80,0,1
83518,-166.666666666667,4,2,1,70,0,0
88364,-166.666666666667,4,2,99,20,0,0

[Colours]
Combo1 : 170,170,170
Combo2 : 255,128,192
Combo3 : 185,113,113
Combo4 : 255,169,128
Combo5 : 128,128,255

[HitObjects]
114,99,1210,6,0,B|166:87|166:87|197:130,1,104.999996795654,2|0,0:0|0:0,0:0:0:0:
169,205,1826,2,0,B|117:217|117:217|86:174,1,104.999996795654,2|0,0:0|0:0,0:0:0:0:
105,254,2441,1,2,0:0:0:0:
113,293,3056,1,2,0:0:0:0:
169,205,3672,5,2,0:0:0:0:
244,232,3980,1,0,0:0:0:0:
319,259,4287,1,0,0:0:0:0:
206,246,4903,5,2,0:0:0:0:
244,232,5210,1,0,0:0:0:0:
282,218,5518,1,0,0:0:0:0:
357,245,5672,5,0,0:0:0:0:
371,250,5749,1,0,0:0:0:0:
385,255,5826,2,1,B|451:279,1,69.9999999999999,0|0,0:0|0:0,0:0:0:0:
105,254,6133,21,10,2:1:0:0:
72,165,6287,1,8,2:1:0:0:
111,78,6441,1,8,2:1:0:0:
200,44,6595,1,8,2:1:0:0:
287,82,6749,1,8,2:1:0:0:
321,171,6903,1,8,2:1:0:0:
282,257,7056,1,8,2:1:0:0:
193,291,7210,1,8,2:1:0:0:
192,164,7364,5,10,2:1:0:0:
196,168,7518,1,8,2:1:0:0:
376,248,7672,2,0,L|473:291,1,104.999996795654,8|8,2:1|2:1,0:0:0:0:
168,156,7980,5,8,2:1:0:0:
267,351,8133,1,8,2:1:0:0:
381,97,8287,5,8,2:1:0:0:
277,371,8441,1,8,2:1:0:0:
17,88,8595,5,6,3:1:0:0:
28,70,8672,1,0,3:0:0:0:
45,53,8749,1,0,3:0:0:0:
69,41,8826,1,0,3:0:0:0:
98,37,8903,1,0,3:0:0:0:
129,45,8980,1,0,3:0:0:0:
156,65,9056,1,0,3:0:0:0:
174,97,9133,1,0,3:0:0:0:
175,137,9210,5,10,1:0:0:0:
183,184,9287,5,8,1:0:0:0:
210,232,9364,5,8,1:0:0:0:
259,272,9441,5,8,1:0:0:0:
328,289,9518,21,8,1:0:0:0:
405,270,9595,5,8,1:0:0:0:
466,208,9672,5,8,1:0:0:0:
484,115,9749,5,8,1:0:0:0:
438,23,9826,5,4,0:0:0:0:
438,23,11056,6,0,P|374:22|324:67,1,131.25,12|0,2:1|0:0,0:0:0:0:
413,187,11364,2,0,P|418:137|404:104,1,87.5,8|0,0:0|0:0,0:0:0:0:
313,82,11595,1,0,0:0:0:0:
297,96,11672,2,0,P|256:111|213:105,1,87.5,8|0,2:1|0:0,0:0:0:0:
120,0,11980,2,0,L|125:44,1,43.75,8|0,0:0|0:0,0:0:0:0:
141,183,12133,6,0,P|224:186|257:111,1,175,10|8,2:1|2:1,0:0:0:0:
81,119,12595,2,0,P|58:155|55:198,1,87.5,8|0,0:0|0:0,0:0:0:0:
113,265,12826,1,0,0:0:0:0:
130,279,12903,2,0,P|173:290|215:287,1,87.5,8|0,2:1|0:0,0:0:0:0:
282,163,13210,2,0,L|290:210,1,43.75,8|0,0:0|0:0,0:0:0:0:
312,336,13364,6,0,P|391:311|397:229,1,175,10|8,2:1|2:1,0:0:0:0:
232,301,13826,1,8,0:0:0:0:
212,311,14133,2,0,P|167:314|127:294,1,87.5,8|0,2:1|0:0,0:0:0:0:
105,171,14441,2,0,L|97:217,1,43.75,8|0,0:0|0:0,0:0:0:0:
78,88,14595,6,0,P|123:85|163:105,1,87.5,10|0,2:1|0:0,0:0:0:0:
312,336,14903,2,0,L|327:249,2,87.5,8|8|8,2:1|0:0|2:1,0:0:0:0:
433,290,15364,22,0,L|445:222,1,70,10|0,2:1|0:0,0:0:0:0:
280,7,15518,2,0,L|268:75,1,70,8|0,2:1|0:0,0:0:0:0:
420,209,15672,6,0,L|432:141,1,70,8|0,0:0|0:0,0:0:0:0:
211,213,15826,2,0,L|199:283,1,70,8|0,2:1|0:0,0:0:0:0:
138,88,15980,54,0,P|105:192|212:212,1,244.999992523194,10|8,2:1|0:0,0:0:0:0:
63,158,16441,6,0,P|79:210|115:245,2,104.999996795654,10|8|8,2:1|2:1|2:1,0:0:0:0:
312,316,16903,6,0,P|317:233|239:199,1,175,8|0,0:0|0:0,0:0:0:0:
357,251,17364,6,0,P|345:218|321:190,1,70,10|8,2:1|0:0,0:0:0:0:
211,213,17672,1,0,0:0:0:0:
203,234,17749,1,0,0:0:0:0:
201,256,17826,21,10,2:1:0:0:
269,311,17980,1,8,2:1:0:0:
222,194,18133,5,8,0:0:0:0:
115,245,18287,1,8,2:1:0:0:
246,65,18441,53,8,0:0:0:0:
188,342,18595,1,8,2:1:0:0:
183,363,18749,1,8,2:1:0:0:
103,84,18903,5,8,0:0:0:0:
269,311,19056,1,8,2:1:0:0:
282,329,19210,1,8,2:1:0:0:
344,188,19364,5,8,0:0:0:0:
376,115,19441,2,0,L|404:51,2,70,8|8|8,0:0|2:3|2:3,0:0:0:0:
270,217,19672,37,4,2:3:0:0:
192,226,19749,5,4,2:3:0:0:
115,215,19826,5,12,2:1:0:0:
256,192,19903,12,6,22133,0:0:0:0:
288,142,27056,38,0,P|355:156|413:120,1,140,6|0,2:1|0:0,0:0:0:0:
398,36,27518,2,0,P|331:22|273:58,1,140,2|0,0:0|0:0,0:0:0:0:
292,146,27980,1,2,0:0:0:0:
118,207,28287,6,0,P|132:140|96:82,1,140,2|0,2:1|0:0,0:0:0:0:
12,97,28749,2,0,P|-2:164|34:222,1,140,2|0,0:0|0:0,0:0:0:0:
122,211,29210,1,2,0:0:0:0:
104,371,29518,6,0,P|171:385|229:349,1,140,2|0,2:1|0:0,0:0:0:0:
214,265,29980,2,0,P|147:251|89:287,1,140,2|0,0:0|0:0,0:0:0:0:
108,375,30441,1,2,0:0:0:0:
420,362,30749,37,0,0:0:0:0:
384,286,30903,1,2,0:0:0:0:
417,317,31056,5,0,0:0:0:0:
445,237,31210,1,2,0:0:0:0:
416,272,31364,5,0,0:0:0:0:
380,196,31518,2,0,L|365:163,2,35,2|0|0,0:0|0:0|0:0,0:0:0:0:
351,132,31826,2,0,L|336:99,1,35
271,40,31980,38,0,P|221:35|188:49,1,87.5,12|0,2:1|0:0,0:0:0:0:
165,171,32287,1,8,0:0:0:0:
238,196,32441,1,0,0:0:0:0:
242,200,32518,1,0,0:0:0:0:
246,204,32595,2,0,P|251:154|237:121,1,87.5,8|8,2:1|2:1,0:0:0:0:
115,98,32903,1,8,0:0:0:0:
93,223,33056,1,0,0:0:0:0:
97,227,33133,1,0,0:0:0:0:
101,231,33210,6,0,B|183:264|183:264|246:204,1,175,8|8,2:1|0:0,0:0:0:0:
246,204,33826,1,8,2:1:0:0:
165,171,33980,1,8,2:1:0:0:
213,285,34133,1,8,0:0:0:0:
319,229,34287,1,0,0:0:0:0:
323,233,34364,1,0,0:0:0:0:
327,237,34441,6,0,L|357:319,1,87.5,8|0,2:1|0:0,0:0:0:0:
416,176,34749,2,0,L|334:206,1,87.5,8|0,0:0|0:0,0:0:0:0:
477,265,35056,2,0,L|447:183,1,87.5,8|8,2:1|2:1,0:0:0:0:
413,89,35364,1,8,0:0:0:0:
313,167,35518,1,0,0:0:0:0:
309,171,35595,1,0,0:0:0:0:
305,175,35672,6,0,P|260:178|220:158,1,87.5,8|0,2:1|0:0,0:0:0:0:
338,27,35980,2,0,P|363:64|366:110,1,87.5,8|0,0:0|0:0,0:0:0:0:
193,74,36287,2,0,P|213:33|250:9,1,87.5,8|8,2:1|2:1,0:0:0:0:
279,92,36595,1,8,0:0:0:0:
134,143,36749,2,0,P|120:128|109:107,1,43.75,2|0,0:0|0:0,0:0:0:0:
223,160,36903,22,0,P|198:205|83:214,1,175,12|8,2:1|0:0,0:0:0:0:
60,319,37364,2,0,L|29:143,1,175,2|8,0:0|2:1,0:0:0:0:
149,229,37826,2,0,L|134:142,1,87.5,8|0,0:0|0:0,0:0:0:0:
122,71,38056,1,0,0:0:0:0:
119,57,38133,5,8,2:1:0:0:
159,273,38441,2,0,P|204:270|244:290,1,87.5,8|0,0:0|0:0,0:0:0:0:
412,252,38749,2,0,P|415:297|395:337,1,87.5,8|8,2:1|2:1,0:0:0:0:
281,209,39056,2,0,P|314:238|329:281,1,87.5,8|0,0:0|0:0,0:0:0:0:
316,366,39287,1,0,0:0:0:0:
308,378,39364,5,8,2:1:0:0:
361,245,39672,2,0,P|403:253|444:239,1,87.5,8|0,0:0|0:0,0:0:0:0:
281,209,39980,2,0,P|273:251|287:292,1,87.5,8|8,2:1|2:1,0:0:0:0:
393,160,40287,1,8,0:0:0:0:
397,164,40441,2,0,L|422:202,1,43.75,8|0,2:1|0:0,0:0:0:0:
481,293,40595,37,8,0:0:0:0:
373,128,40749,1,8,2:1:0:0:
365,333,40903,5,8,0:0:0:0:
365,86,41056,1,8,2:1:0:0:
365,75,41133,1,8,2:1:0:0:
365,64,41210,5,8,2:1:0:0:
245,309,41364,1,8,2:3:0:0:
93,83,41518,1,4,2:3:0:0:
234,152,41672,1,4,2:3:0:0:
236,171,41826,37,4,1:3:0:0:
223,48,41980,2,0,L|234:153,1,104.999996795654,4|8,1:3|2:1,0:0:0:0:
251,313,42441,2,0,L|245:258,1,52.4999983978272,8|0,0:0|0:0,0:0:0:0:
234,152,42749,5,4,1:3:0:0:
357,139,42903,2,0,L|252:150,1,104.999996795654,4|8,1:3|2:1,0:0:0:0:
92,167,43364,2,0,L|147:161,1,52.4999983978272,8|0,0:0|0:0,0:0:0:0:
376,137,43672,5,8,0:0:0:0:
357,139,43826,1,8,2:3:0:0:
395,135,43980,1,4,2:3:0:0:
213,135,44287,37,4,1:3:0:0:
200,12,44441,2,0,L|211:117,1,104.999996795654,4|8,1:3|2:1,0:0:0:0:
228,277,44903,2,0,L|222:222,1,52.4999983978272,8|0,0:0|0:0,0:0:0:0:
211,116,45210,5,4,1:3:0:0:
334,103,45364,2,0,L|229:114,1,104.999996795654,4|8,1:3|2:1,0:0:0:0:
69,131,45826,2,0,L|124:125,1,52.4999983978272,8|8,2:1|0:0,0:0:0:0:
372,99,46133,5,8,2:1:0:0:
353,101,46287,1,8,2:3:0:0:
391,97,46441,1,4,2:3:0:0:
98,159,46749,38,0,P|43:213|51:288,1,157.499995193482,14|0,2:1|0:0,0:0:0:0:
192,186,47364,2,0,P|149:157|97:159,1,104.999996795654,12|0,2:1|0:0,0:0:0:0:
157,286,47826,1,8,2:3:0:0:
161,290,47903,1,8,2:3:0:0:
165,294,47980,6,0,L|266:264,1,104.999996795654,8|4,2:3|2:3,0:0:0:0:
433,72,48595,6,0,B|358:45|358:45|331:120,1,157.499995193482,12|0,2:1|0:0,0:0:0:0:
182,289,49210,37,10,2:1:0:0:
157,205,49364,1,8,2:1:0:0:
241,180,49518,1,8,2:1:0:0:
266,264,49672,1,8,2:1:0:0:
469,194,49826,5,10,2:1:0:0:
346,149,49980,1,8,2:1:0:0:
301,272,50133,1,8,2:1:0:0:
424,317,50287,1,8,2:1:0:0:
332,118,50441,5,10,2:1:0:0:
270,288,50595,1,8,2:1:0:0:
153,149,50749,1,8,2:1:0:0:
385,233,50903,5,10,2:1:0:0:
228,43,51056,1,8,2:1:0:0:
143,275,51210,1,8,2:1:0:0:
459,130,51364,5,10,2:1:0:0:
206,16,51518,1,8,2:1:0:0:
451,314,51672,5,6,3:1:0:0:
476,281,51749,1,0,3:0:0:0:
490,243,51826,1,0,3:0:0:0:
492,203,51903,1,0,3:0:0:0:
480,164,51980,1,0,3:0:0:0:
476,168,52056,1,0,3:0:0:0:
472,172,52133,5,2,3:1:0:0:
392,181,52210,1,0,3:0:0:0:
332,146,52287,1,0,3:0:0:0:
305,93,52364,1,0,3:0:0:0:
305,44,52441,1,0,3:0:0:0:
319,8,52518,1,0,3:0:0:0:
336,13,52595,5,10,1:0:0:0:
391,72,52672,1,8,1:0:0:0:
351,142,52749,1,8,1:0:0:0:
272,125,52826,1,8,1:0:0:0:
188,60,52903,6,0,B|223:31|223:31|262:45,1,87.5,12|0,0:0|0:0,0:0:0:0:
448,254,53056,6,0,B|413:283|413:283|374:269,1,87.5,12|0,0:0|0:0,0:0:0:0:
336,228,54133,6,0,B|411:255|411:255|472:204,1,157.499995193482,12|0,2:1|0:0,0:0:0:0:
491,188,54441,1,8,0:0:0:0:
257,165,54595,1,0,0:0:0:0:
253,169,54672,1,0,0:0:0:0:
249,173,54749,2,0,P|234:217|244:277,1,104.999996795654,8|8,2:1|2:1,0:0:0:0:
285,366,55056,5,8,0:0:0:0:
336,228,55210,2,0,L|372:129,1,104.999996795654,8|8,2:1|2:1,0:0:0:0:
151,209,55518,2,0,L|250:173,1,104.999996795654,2|8,0:0|0:0,0:0:0:0:
126,311,55826,5,2,0:0:0:0:
50,238,55980,2,0,L|11:200,2,52.4999983978272,8|8|8,2:1|2:1|2:1,0:0:0:0:
202,384,56287,2,0,P|229:340|229:288,1,104.999996795654,8|8,0:0|2:1,0:0:0:0:
151,209,56518,1,8,2:1:0:0:
169,227,56595,6,0,B|221:238|221:238|266:211,1,104.999996795654,8|0,2:1|0:0,0:0:0:0:
324,382,56903,1,8,0:0:0:0:
369,259,57056,1,0,0:0:0:0:
373,247,57133,1,0,0:0:0:0:
378,235,57210,2,0,L|413:137,1,104.999996795654,8|8,2:1|2:1,0:0:0:0:
509,228,57518,1,8,0:0:0:0:
133,182,57672,22,0,B|85:180|65:134|65:134|93:98|144:113,1,175,10|8,2:1|2:1,0:0:0:0:
209,235,57980,6,0,B|193:280|143:285|143:285|116:247|146:203,1,175,2|8,2:1|0:0,0:0:0:0:
281,181,58287,6,0,B|319:210|309:259|309:259|267:271|232:231,1,175,2|8,2:1|2:1,0:0:0:0:
251,93,58595,6,0,B|289:68|335:90|335:90|331:134|285:155,1,175,10|8,2:1|0:0,0:0:0:0:
177,85,58903,6,0,B|170:61|188:45|188:45|209:55|211:78,1,87.5,10|0,2:1|0:0,0:0:0:0:
97,284,59056,6,0,P|112:212|187:208,1,157.499995193482,12|0,2:1|0:0,0:0:0:0:
209,235,59364,1,8,0:0:0:0:
236,335,59518,2,0,L|249:386,2,52.4999983978272,2|0|8,0:0|0:0|2:1,0:0:0:0:
281,181,59826,2,0,P|334:172|384:188,1,104.999996795654,8|8,2:1|0:0,0:0:0:0:
469,319,60133,6,0,B|485:279|473:241|473:241|467:252|458:261,1,104.999996795654,8|8,2:1|2:1,0:0:0:0:
376,368,60441,1,2,0:0:0:0:
326,276,60595,2,0,P|386:199|474:242,1,209.999993591309,8|8,0:0|2:1,0:0:0:0:
475,247,61056,1,8,2:1:0:0:
378,169,61210,2,0,P|357:123|361:70,1,104.999996795654,8|8,0:0|2:1,0:0:0:0:
274,135,61441,1,8,2:1:0:0:
256,148,61518,6,0,P|171:114|221:34,1,210,14|0,2:1|0:0,0:0:0:0:
246,36,61826,1,8,0:0:0:0:
344,203,61980,1,8,2:1:0:0:
347,208,62056,1,8,2:1:0:0:
350,213,62133,5,8,2:1:0:0:
212,283,62287,1,8,2:1:0:0:
246,179,62441,5,8,0:0:0:0:
316,317,62595,1,8,2:1:0:0:
246,36,62749,5,12,0:0:0:0:
322,342,62903,1,8,2:1:0:0:
404,61,63056,5,12,0:0:0:0:
328,367,63210,1,8,2:1:0:0:
101,148,63364,21,2,3:1:0:0:
127,143,63441,1,0,3:0:0:0:
138,167,63518,1,0,3:0:0:0:
121,187,63595,1,0,3:0:0:0:
98,174,63672,21,2,3:1:0:0:
156,112,63749,5,8,2:3:0:0:
237,87,63826,5,4,2:3:0:0:
320,106,63903,5,4,2:3:0:0:
383,163,63980,22,0,P|378:259|287:249,1,210,12|0,2:1|0:0,0:0:0:0:
272,209,64287,1,8,0:0:0:0:
315,83,64441,1,0,0:0:0:0:
326,75,64518,1,0,0:0:0:0:
338,68,64595,2,0,P|391:59|441:75,1,104.999996795654,8|8,2:1|2:1,0:0:0:0:
451,305,64903,5,8,0:0:0:0:
383,163,65056,2,0,L|338:68,1,104.999996795654,8|8,2:1|2:1,0:0:0:0:
175,203,65364,2,0,L|270:158,1,104.999996795654,2|8,0:0|0:0,0:0:0:0:
315,253,65672,5,2,0:0:0:0:
270,158,65826,2,0,L|248:111,2,52.4999983978272,8|8|8,2:1|2:1|2:1,0:0:0:0:
360,348,66133,2,0,L|315:253,1,104.999996795654,8|8,0:0|2:1,0:0:0:0:
175,203,66364,1,8,2:1:0:0:
157,222,66441,38,0,B|121:260|121:260|21:224,1,157.499995193482,14|0,2:1|0:0,0:0:0:0:
24,369,67056,2,0,L|60:270,1,104.999996795654,12|0,2:1|0:0,0:0:0:0:
154,48,67672,5,12,0:0:0:0:
158,52,67749,2,0,L|207:34,1,52.4999983978272,8|0,0:0|3:0,0:0:0:0:
79,64,67980,6,0,L|128:46,2,52.4999983978272,8|8|4,2:3|2:3|2:3,0:0:0:0:
162,56,68287,6,0,B|142:96|142:96|148:139,1,87.5,12|0,0:0|0:0,0:0:0:0:
363,322,68441,6,0,B|383:282|383:282|377:239,1,87.5,12|0,0:0|0:0,0:0:0:0:
402,241,68903,6,0,P|356:262|259:229,1,157.499995193482,12|0,2:1|0:0,0:0:0:0:
244,208,69210,1,8,1:2:0:0:
312,51,69364,1,8,2:1:0:0:
316,55,69441,1,8,2:1:0:0:
320,59,69518,2,0,P|341:105|337:158,1,104.999996795654,8|8,1:2|2:1,0:0:0:0:
121,289,69826,5,10,1:2:0:0:
162,56,69980,1,8,2:1:0:0:
379,255,70133,5,10,1:2:0:0:
69,199,70287,1,8,2:1:0:0:
338,91,70441,6,0,B|379:124|379:124|379:229,1,157.499995193482,10|0,1:2|0:0,0:0:0:0:
298,320,70749,21,10,1:0:0:0:
279,329,70826,5,8,1:0:0:0:
248,337,70903,5,8,1:0:0:0:
206,337,70980,5,8,1:0:0:0:
157,319,71056,21,8,1:0:0:0:
111,275,71133,5,8,1:0:0:0:
88,205,71210,5,8,1:0:0:0:
110,122,71287,5,8,1:0:0:0:
187,64,71364,5,4,0:0:0:0:
74,23,73826,6,0,P|138:22|188:67,1,131.25,12|0,2:1|0:0,0:0:0:0:
99,187,74133,2,0,P|94:137|108:104,1,87.5,8|0,0:0|0:0,0:0:0:0:
199,82,74364,1,0,0:0:0:0:
215,96,74441,2,0,P|256:111|299:105,1,87.5,8|0,2:1|0:0,0:0:0:0:
392,0,74749,2,0,L|387:44,1,43.75,8|0,0:0|0:0,0:0:0:0:
371,183,74903,6,0,B|325:229|250:197|250:197|259:147,1,175,10|8,2:1|2:1,0:0:0:0:
431,119,75364,2,0,P|454:155|457:198,1,87.5,8|0,0:0|0:0,0:0:0:0:
415,276,75595,1,0,0:0:0:0:
397,263,75672,2,0,P|374:227|371:184,1,87.5,8|0,2:1|0:0,0:0:0:0:
258,153,75980,2,0,L|250:200,1,43.75,8|0,0:0|0:0,0:0:0:0:
200,336,76133,6,0,P|121:311|115:229,1,175,10|8,2:1|2:1,0:0:0:0:
298,296,76595,1,8,0:0:0:0:
298,296,76903,2,0,P|339:306|381:296,1,87.5,8|0,2:1|0:0,0:0:0:0:
407,171,77210,2,0,L|415:217,1,43.75,8|0,0:0|0:0,0:0:0:0:
434,88,77364,6,0,P|389:85|349:105,1,87.5,10|0,2:1|0:0,0:0:0:0:
200,336,77672,2,0,L|185:249,2,87.5,8|8|8,2:1|0:0|2:1,0:0:0:0:
50,378,78133,22,0,L|38:310,1,70,10|0,2:1|0:0,0:0:0:0:
203,95,78287,2,0,L|215:163,1,70,8|0,2:1|0:0,0:0:0:0:
92,209,78441,6,0,L|80:141,1,70,8|0,0:0|0:0,0:0:0:0:
301,213,78595,2,0,L|313:283,1,70,8|0,2:1|0:0,0:0:0:0:
352,103,78749,54,0,P|456:70|476:177,1,244.999992523194,10|8,2:1|0:0,0:0:0:0:
422,28,79210,6,0,P|474:44|509:80,2,104.999996795654,10|8|8,2:1|2:1|2:1,0:0:0:0:
203,95,79672,6,0,P|120:100|86:22,1,175,8|0,0:0|0:0,0:0:0:0:
138,140,80133,6,0,P|105:128|77:104,1,70,10|8,2:1|0:0,0:0:0:0:
196,42,80441,1,0,0:0:0:0:
204,63,80518,1,0,0:0:0:0:
206,85,80595,21,10,2:1:0:0:
138,140,80749,1,8,2:1:0:0:
185,23,80903,5,8,0:0:0:0:
292,74,81056,1,8,2:1:0:0:
328,338,81210,53,8,0:0:0:0:
386,61,81364,1,8,2:1:0:0:
391,40,81518,1,8,2:1:0:0:
472,323,81672,5,8,0:0:0:0:
305,92,81826,1,8,2:1:0:0:
292,74,81980,1,8,2:1:0:0:
84,215,82133,54,0,L|93:268,1,52.4999983978272,12|0,0:0|3:0,0:0:0:0:
256,293,82287,5,0,3:0:0:0:
251,267,82364,1,0,3:0:0:0:
247,241,82441,1,0,3:0:0:0:
242,215,82518,1,0,3:0:0:0:
239,189,82595,6,0,L|230:136,1,52.4999983978272,12|0,0:0|3:0,0:0:0:0:
420,315,82749,5,0,3:0:0:0:
416,287,82826,1,0,3:0:0:0:
411,259,82903,1,0,3:0:0:0:
406,231,82980,1,0,3:0:0:0:
401,204,83056,22,0,L|392:151,1,52.4999983978272,12|0,0:0|3:0,0:0:0:0:
182,370,83210,5,0,3:0:0:0:
238,378,83287,1,0,3:0:0:0:
295,374,83364,1,0,3:0:0:0:
350,358,83441,1,0,3:0:0:0:
420,315,83518,54,0,B|477:339|521:299|521:299|490:250|429:256|429:256|488:243|501:185|501:185|446:164|401:204|401:204|440:157|417:104|417:104|360:119|348:178|348:178|335:243|295:276|238:297|199:327|182:370|182:370|157:330|115:308|55:297|9:271|-14:211|-14:211|-49:133|-4:40|87:17|156:51|156:51|218:6|287:27|322:68,1,1653.74994953156,12|2,2:1|3:2,0:0:0:0:
