osu file format v14

[General]
AudioFilename: Kiseki nanka, Iranai..mp3
AudioLeadIn: 0
PreviewTime: 53297
Countdown: 0
SampleSet: Soft
StackLeniency: 0
Mode: 0
LetterboxInBreaks: 0
WidescreenStoryboard: 0

[Editor]
DistanceSpacing: 1
BeatDivisor: 4
GridSize: 32
TimelineZoom: 3

[Metadata]
Title:Kiseki nanka, Iranai.
TitleUnicode:奇跡なんか、いらない。
Artist:Sasaki Sayaka
ArtistUnicode:佐咲紗花
Creator:Hakusui3820
Version:Hard.
Source:創作彼女の恋愛公式
Tags:dahkjdas Japanese JP Jpop J-pop pop ハラユカ。 HaraYuka. 折倉俊則 Orikura Toshinori from STRIKERS Visual Novel Vocals VN Galgame 美少女ゲーム Eroge Video Game Aino+Links Sousaku Kanojo no Ren'ai Koushiki OP Opening Short Version 彩瀬逢桜 Ayase Aisa 月見坂桐葉 Tsukimizaka Kiriha 凪間ゆめみ Nagima Yumemi 雪妃エレナ Yukisaki Erena
BeatmapID:3558312
BeatmapSetID:1740626

[Difficulty]
HPDrainRate:5
CircleSize:3.8
OverallDifficulty:6
ApproachRate:8
SliderMultiplier:1.35
SliderTickRate:1

[Events]
//Background and Video events
0,0,"Yumemi.jpg",0,0
Video,0,"OP.mp4"
//Break Periods
2,22333,26306
//Storyboard Layer 0 (Background)
//Storyboard Layer 1 (Fail)
//Storyboard Layer 2 (Pass)
//Storyboard Layer 3 (Foreground)
//Storyboard Layer 4 (Overlay)
//Storyboard Sound Samples

[TimingPoints]
-20,307.692307692308,4,2,1,60,1,0
1210,-100,4,2,2,30,0,0
5672,-100,4,2,2,35,0,0
5826,-100,4,2,2,35,0,0
6133,-90.9090909090909,4,2,1,40,0,1
6172,-90.9090909090909,4,2,1,40,0,0
6287,-90.9090909090909,4,2,1,42,0,0
6441,-90.9090909090909,4,2,1,44,0,0
6595,-90.9090909090909,4,2,1,46,0,0
6749,-90.9090909090909,4,2,1,48,0,0
6903,-90.9090909090909,4,2,1,50,0,0
7056,-90.9090909090909,4,2,1,52,0,0
7210,-90.9090909090909,4,2,1,54,0,0
7364,-90.9090909090909,4,2,1,56,0,0
7518,-90.9090909090909,4,2,1,58,0,0
7672,-90.9090909090909,4,2,1,60,0,0
7826,-90.9090909090909,4,2,1,62,0,0
7980,-90.9090909090909,4,2,1,64,0,0
8133,-90.9090909090909,4,2,1,66,0,0
8287,-90.9090909090909,4,2,1,68,0,0
8441,-90.9090909090909,4,2,1,70,0,0
8595,-90.9090909090909,4,2,1,72,0,1
8672,-90.9090909090909,4,2,1,73,0,1
8749,-90.9090909090909,4,2,1,74,0,1
8826,-90.9090909090909,4,2,1,75,0,1
8903,-90.9090909090909,4,2,1,76,0,1
8980,-90.9090909090909,4,2,1,77,0,1
9056,-90.9090909090909,4,2,1,78,0,1
9133,-90.9090909090909,4,2,1,79,0,1
9210,-90.9090909090909,4,2,1,80,0,1
9287,-90.9090909090909,4,2,1,81,0,1
9364,-90.9090909090909,4,2,1,82,0,1
9441,-90.9090909090909,4,2,1,83,0,1
9518,-90.9090909090909,4,2,1,84,0,1
9595,-90.9090909090909,4,2,1,85,0,1
9672,-90.9090909090909,4,2,1,86,0,1
9749,-90.9090909090909,4,2,1,87,0,1
9826,-111.111111111111,4,2,95,40,0,0
11056,-100,4,2,1,70,0,1
11095,-100,4,2,1,70,0,0
19826,-100,4,2,1,60,0,0
22133,-125,4,2,1,50,0,0
27056,-111.111111111111,4,2,1,50,0,0
31980,-100,4,2,1,60,0,0
41826,-111.111111111111,4,2,1,70,0,0
49210,-90.9090909090909,4,2,1,40,0,1
49249,-90.9090909090909,4,2,1,40,0,0
49364,-90.9090909090909,4,2,1,42,0,0
49518,-90.9090909090909,4,2,1,44,0,0
49672,-90.9090909090909,4,2,1,46,0,0
49826,-90.9090909090909,4,2,1,48,0,0
49980,-90.9090909090909,4,2,1,50,0,0
50133,-90.9090909090909,4,2,1,52,0,0
50287,-90.9090909090909,4,2,1,54,0,0
50441,-90.9090909090909,4,2,1,56,0,0
50595,-90.9090909090909,4,2,1,58,0,0
50749,-90.9090909090909,4,2,1,60,0,0
50903,-90.9090909090909,4,2,1,62,0,0
51056,-90.9090909090909,4,2,1,64,0,0
51210,-90.9090909090909,4,2,1,66,0,0
51364,-90.9090909090909,4,2,1,68,0,0
51518,-90.9090909090909,4,2,1,70,0,0
51672,-90.9090909090909,4,2,1,72,0,1
51749,-90.9090909090909,4,2,1,73,0,1
51826,-90.9090909090909,4,2,1,74,0,1
51903,-90.9090909090909,4,2,1,75,0,1
51980,-90.9090909090909,4,2,1,76,0,1
52056,-90.9090909090909,4,2,1,77,0,1
52133,-90.9090909090909,4,2,1,78,0,1
52210,-90.9090909090909,4,2,1,79,0,1
52287,-90.9090909090909,4,2,1,80,0,1
52364,-90.9090909090909,4,2,1,81,0,1
52441,-90.9090909090909,4,2,1,82,0,1
52518,-90.9090909090909,4,2,1,83,0,1
52595,-90.9090909090909,4,2,1,84,0,1
52672,-90.9090909090909,4,2,1,85,0,1
52749,-90.9090909090909,4,2,1,86,0,1
52826,-90.9090909090909,4,2,1,87,0,1
52903,-90.9090909090909,4,2,1,88,0,1
52980,-90.9090909090909,4,2,1,44,0,1
53056,-90.9090909090909,4,2,1,90,0,1
53133,-90.9090909090909,4,2,1,45,0,1
53210,-111.111111111111,4,2,1,45,0,0
54133,-90.9090909090909,4,2,1,80,0,1
63903,-90.9090909090909,4,2,1,80,0,0
63980,-90.9090909090909,4,2,1,80,0,1
66441,-111.111111111111,4,2,1,70,0,0
68287,-90.9090909090909,4,2,1,88,0,1
68364,-90.9090909090909,4,2,1,44,0,1
68441,-90.9090909090909,4,2,1,90,0,1
68518,-90.9090909090909,4,2,1,45,0,1
68595,-111.111111111111,4,2,1,45,0,0
68903,-90.9090909090909,4,2,1,80,0,1
71364,-111.111111111111,4,2,95,40,0,0
73826,-100,4,2,1,70,0,1
73864,-100,4,2,1,70,0,0
82133,-90.9090909090909,4,2,1,80,0,1
83518,-181.818181818182,4,2,1,70,0,0
88364,-181.818181818182,4,2,99,20,0,0

[Colours]
Combo1 : 170,170,170
Combo2 : 255,128,192
Combo3 : 255,223,128
Combo4 : 255,169,128
Combo5 : 255,128,128

[HitObjects]
66,157,6133,6,0,P|138:129|210:137,1,148.50000453186,10|8,2:1|2:1,0:0:0:0:
268,65,6595,1,8,2:1:0:0:
266,195,6749,1,8,2:1:0:0:
270,199,6903,2,0,P|242:127|250:55,1,148.50000453186,8|8,2:1|2:1,0:0:0:0:
374,77,7364,6,0,L|374:153,1,74.2500022659302,10|8,2:1|2:1,0:0:0:0:
430,226,7672,2,0,B|428:188|428:188|404:157,1,74.2500022659302,8|8,2:1|2:1,0:0:0:0:
340,266,7980,1,8,2:1:0:0:
376,360,8133,1,8,2:1:0:0:
470,324,8287,1,8,2:1:0:0:
434,230,8441,1,8,2:1:0:0:
326,279,8595,6,0,P|255:287|204:233,1,148.50000453186,6|0,3:1|3:0,0:0:0:0:
145,120,9056,1,0,3:0:0:0:
138,138,9133,1,0,3:0:0:0:
132,156,9210,2,0,L|119:192,3,37.1250011329651,10|8|8|8,1:0|1:0|1:0|1:0,0:0:0:0:
114,209,9518,2,0,L|101:245,3,37.1250011329651,8|8|8|8,1:0|1:0|1:0|1:0,0:0:0:0:
114,279,9826,5,4,0:0:0:0:
114,279,11056,22,0,L|91:216,1,67.5,12|0,2:1|0:0,0:0:0:0:
225,290,11364,2,0,L|202:227,1,67.5,8|0,0:0|0:0,0:0:0:0:
204,141,11672,2,0,L|227:204,1,67.5,8|0,2:1|0:0,0:0:0:0:
319,248,11980,1,8,0:0:0:0:
323,252,12133,6,0,P|388:258|434:210,1,135,10|8,2:1|2:1,0:0:0:0:
353,120,12595,2,0,L|290:143,1,67.5,8|0,0:0|0:0,0:0:0:0:
204,141,12903,2,0,L|267:118,1,67.5,8|0,2:1|0:0,0:0:0:0:
359,79,13210,1,8,0:0:0:0:
363,83,13364,6,0,P|428:77|474:125,1,135,10|8,2:1|2:1,0:0:0:0:
456,224,13826,1,8,0:0:0:0:
456,224,14133,2,0,P|424:237|391:235,1,67.5,8|0,2:1|0:0,0:0:0:0:
314,193,14441,1,8,0:0:0:0:
237,236,14595,2,0,P|228:171|267:118,1,135,10|8,2:1|2:1,0:0:0:0:
355,115,15056,1,8,0:0:0:0:
270,93,15210,1,8,2:1:0:0:
204,27,15364,5,10,2:1:0:0:
208,31,15518,1,8,2:1:0:0:
147,112,15672,5,8,0:0:0:0:
151,116,15826,1,8,2:1:0:0:
24,26,15980,6,0,P|71:72|106:135,1,135,10|8,2:1|0:0,0:0:0:0:
99,54,16441,2,0,P|116:117|115:189,1,135,10|8,2:1|2:1,0:0:0:0:
26,313,16903,6,0,P|72:266|135:231,1,135,8|0,0:0|0:0,0:0:0:0:
54,238,17364,2,0,P|117:220|189:221,1,135,10|0,2:1|0:0,0:0:0:0:
256,269,17826,5,10,2:1:0:0:
326,220,17980,1,8,2:1:0:0:
402,256,18133,1,8,0:0:0:0:
409,340,18287,1,8,2:1:0:0:
430,224,18441,6,0,L|454:88,1,135,8|8,0:0|2:1,0:0:0:0:
345,140,18903,2,0,L|481:164,1,135,8|8,0:0|2:1,0:0:0:0:
499,47,19364,1,8,0:0:0:0:
482,44,19441,2,0,L|449:38,2,33.75,8|8|8,0:0|2:3|2:3,0:0:0:0:
447,7,19672,2,0,B|432:37|432:37|436:72,1,67.5,4|12,2:3|2:1,0:0:0:0:
256,192,19903,12,6,22133,0:0:0:0:
345,140,27056,22,0,P|285:131|233:160,1,121.499996292114,6|0,2:1|0:0,0:0:0:0:
249,245,27518,2,0,P|309:254|361:225,1,121.499996292114,2|0,0:0|0:0,0:0:0:0:
349,136,27980,1,2,0:0:0:0:
129,63,28287,6,0,P|120:123|149:175,1,121.499996292114,2|0,2:1|0:0,0:0:0:0:
234,159,28749,2,0,P|243:99|214:47,1,121.499996292114,2|0,0:0|0:0,0:0:0:0:
125,67,29210,1,2,0:0:0:0:
52,279,29518,6,0,P|112:288|164:259,1,121.499996292114,2|0,2:1|0:0,0:0:0:0:
148,174,29980,2,0,P|88:165|36:194,1,121.499996292114,2|0,0:0|0:0,0:0:0:0:
56,283,30441,1,2,0:0:0:0:
224,354,30903,6,0,B|249:337|249:337|249:244,2,121.499996292114,2|2|2,0:0|0:0|0:0,0:0:0:0:
456,284,31980,22,0,L|433:220,1,67.5,12|0,2:1|0:0,0:0:0:0:
364,172,32287,1,8,0:0:0:0:
364,288,32441,2,0,P|298:290|249:245,1,135,2|8,0:0|2:1,0:0:0:0:
223,165,32903,1,8,0:0:0:0:
167,228,33056,2,0,P|196:133|187:30,1,202.5,2|8,0:0|0:0,0:0:0:0:
187,31,33826,1,8,2:1:0:0:
251,86,33980,1,8,2:1:0:0:
223,165,34133,1,8,0:0:0:0:
280,67,34287,6,0,P|347:57|413:91,1,135,2|0,0:0|0:0,0:0:0:0:
398,186,34749,2,0,L|421:122,1,67.5,8|0,0:0|0:0,0:0:0:0:
501,185,35056,2,0,L|478:249,1,67.5,8|8,2:1|2:1,0:0:0:0:
444,344,35364,1,8,0:0:0:0:
364,281,35518,6,0,P|297:271|231:305,1,135,2|0,0:0|0:0,0:0:0:0:
170,222,35980,2,0,L|147:158,1,67.5,8|0,0:0|0:0,0:0:0:0:
67,221,36287,2,0,L|90:285,1,67.5,8|8,2:1|2:1,0:0:0:0:
120,365,36595,1,8,0:0:0:0:
204,376,36749,1,2,0:0:0:0:
280,275,36903,6,0,P|235:226|169:222,1,135,12|8,2:1|0:0,0:0:0:0:
250,135,37364,2,0,P|264:70|250:3,1,135,2|8,0:0|2:1,0:0:0:0:
150,23,37826,2,0,P|215:37|282:23,1,135,8|8,0:0|2:1,0:0:0:0:
281,23,38441,22,0,P|315:21|348:31,1,67.5,8|0,0:0|0:0,0:0:0:0:
432,24,38749,2,0,P|450:52|458:86,1,67.5,8|8,2:1|2:1,0:0:0:0:
506,155,39056,2,0,P|490:185|402:222,1,135,8|8,0:0|2:1,0:0:0:0:
177,354,39672,6,0,P|211:356|244:346,1,67.5,8|0,0:0|0:0,0:0:0:0:
328,353,39980,2,0,P|346:324|354:290,1,67.5,8|8,2:1|2:1,0:0:0:0:
402,222,40287,2,0,P|386:191|361:167,1,67.5,8|8,0:0|2:1,0:0:0:0:
269,264,40595,5,8,0:0:0:0:
273,268,40749,1,8,2:1:0:0:
161,227,40903,2,0,L|95:203,1,67.5,8|8,0:0|2:1,0:0:0:0:
84,214,41133,1,8,2:1:0:0:
71,225,41210,2,0,P|56:193|56:153,2,67.5,8|8|4,2:1|2:3|2:3,0:0:0:0:
269,264,41826,37,4,1:3:0:0:
273,268,41980,2,0,L|273:145,1,121.499996292114,4|8,1:3|2:1,0:0:0:0:
273,67,42441,1,8,0:0:0:0:
68,63,42749,5,4,1:3:0:0:
72,67,42903,2,0,L|195:67,1,121.499996292114,4|8,1:3|2:1,0:0:0:0:
273,67,43364,1,8,0:0:0:0:
109,172,43672,2,0,L|169:172,2,60.7499981460572,8|8|4,0:0|2:3|2:3,0:0:0:0:
269,264,44287,53,4,1:3:0:0:
273,268,44441,2,0,L|273:145,1,121.499996292114,4|8,1:3|2:1,0:0:0:0:
273,67,44903,1,8,0:0:0:0:
470,63,45210,5,4,1:3:0:0:
474,67,45364,2,0,L|351:67,1,121.499996292114,4|8,1:3|2:1,0:0:0:0:
265,59,45826,1,8,2:1:0:0:
269,63,45980,1,8,0:0:0:0:
273,67,46133,2,0,L|213:67,2,60.7499981460572,8|8|4,2:1|2:3|2:3,0:0:0:0:
81,147,46749,6,0,P|81:245|157:185,1,242.999992584229,14|12,2:1|2:1,0:0:0:0:
4,302,47980,2,0,P|54:335|115:341,1,121.499996292114,8|4,2:3|2:3,0:0:0:0:
114,341,48595,1,12,2:1:0:0:
355,184,49210,38,0,P|386:247|386:325,1,148.50000453186,10|8,2:1|2:1,0:0:0:0:
311,380,49672,1,8,2:1:0:0:
220,361,49826,2,0,P|189:298|189:220,1,148.50000453186,10|8,2:1|2:1,0:0:0:0:
264,165,50287,1,8,2:1:0:0:
169,130,50441,2,0,L|23:78,1,148.50000453186,10|8,2:1|2:1,0:0:0:0:
134,12,50903,2,0,L|82:158,1,148.50000453186,10|8,2:1|2:1,0:0:0:0:
78,263,51364,2,0,L|104:190,1,74.2500022659302,10|8,2:1|2:1,0:0:0:0:
184,134,51672,5,6,3:1:0:0:
256,192,51826,12,12,52903,0:0:0:0:
184,134,54133,54,0,P|219:120|263:122,1,74.2500022659302,12|0,2:1|0:0,0:0:0:0:
338,163,54441,1,8,0:0:0:0:
297,246,54595,2,0,P|249:192|255:120,1,148.50000453186,2|8,0:0|2:1,0:0:0:0:
376,74,55056,1,8,0:0:0:0:
380,78,55210,2,0,P|409:99|428:132,1,74.2500022659302,8|8,2:1|2:1,0:0:0:0:
512,173,55518,2,0,P|508:208|489:241,1,74.2500022659302,2|8,0:0|0:0,0:0:0:0:
495,334,55826,1,2,0:0:0:0:
412,292,55980,2,0,P|398:259|398:221,1,74.2500022659302,8|8,2:1|2:1,0:0:0:0:
302,278,56287,2,0,P|267:274|234:255,1,74.2500022659302,8|8,0:0|2:1,0:0:0:0:
201,167,56595,6,0,P|215:202|213:246,1,74.2500022659302,8|0,2:1|0:0,0:0:0:0:
172,321,56903,1,8,0:0:0:0:
89,280,57056,2,0,P|143:232|215:238,1,148.50000453186,2|8,0:0|2:1,0:0:0:0:
257,363,57518,1,8,0:0:0:0:
302,278,57672,6,0,L|337:212,1,74.2500022659302,8|8,2:1|2:1,0:0:0:0:
401,144,57980,2,0,L|366:210,1,74.2500022659302,2|8,0:0|0:0,0:0:0:0:
264,155,58287,2,0,L|299:89,1,74.2500022659302,2|8,0:0|2:1,0:0:0:0:
363,21,58595,2,0,L|328:87,1,74.2500022659302,8|8,2:1|0:0,0:0:0:0:
226,32,58903,1,8,2:1:0:0:
177,110,59056,6,0,P|212:124|256:122,1,74.2500022659302,12|0,2:1|0:0,0:0:0:0:
129,24,59364,1,8,0:0:0:0:
133,28,59518,2,0,P|105:52|88:85,1,74.2500022659302,2|8,0:0|2:1,0:0:0:0:
6,129,59826,2,0,P|12:165|32:196,1,74.2500022659302,8|8,2:1|0:0,0:0:0:0:
29,289,60133,2,0,P|63:301|103:298,1,74.2500022659302,8|8,2:1|2:1,0:0:0:0:
179,349,60441,1,2,0:0:0:0:
256,296,60595,2,0,P|270:225|228:165,2,148.50000453186,8|8|8,0:0|2:1|0:0,0:0:0:0:
260,300,61364,1,8,2:1:0:0:
371,280,61518,22,0,L|444:267,1,74.2500022659302,14|0,2:1|0:0,0:0:0:0:
351,184,61826,1,8,0:0:0:0:
355,188,61980,2,0,L|381:116,1,74.2500022659302,8|8,2:1|2:1,0:0:0:0:
381,25,62287,2,0,L|355:97,1,74.2500022659302,8|8,2:1|0:0,0:0:0:0:
268,63,62595,1,8,2:1:0:0:
191,115,62749,6,0,P|177:80|179:36,1,74.2500022659302,12|8,0:0|2:1,0:0:0:0:
242,193,63056,2,0,P|207:207|163:205,1,74.2500022659302,12|8,0:0|2:1,0:0:0:0:
88,250,63364,5,2,3:1:0:0:
79,266,63441,1,0,3:0:0:0:
74,284,63518,1,0,3:0:0:0:
72,303,63595,1,0,3:0:0:0:
74,321,63672,2,0,P|92:330|112:335,3,37.1250011329651,2|8|4|4,3:1|2:3|2:3|2:3,0:0:0:0:
153,320,63980,38,0,P|188:334|232:332,1,74.2500022659302,12|0,2:1|0:0,0:0:0:0:
307,291,64287,1,8,0:0:0:0:
266,208,64441,2,0,P|218:262|224:334,1,148.50000453186,2|8,0:0|2:1,0:0:0:0:
345,372,64903,1,8,0:0:0:0:
349,376,65056,2,0,P|378:355|397:322,1,74.2500022659302,8|8,2:1|2:1,0:0:0:0:
481,281,65364,2,0,P|477:246|458:213,1,74.2500022659302,2|8,0:0|0:0,0:0:0:0:
464,120,65672,1,2,0:0:0:0:
381,162,65826,2,0,P|367:195|367:233,1,74.2500022659302,8|8,2:1|2:1,0:0:0:0:
271,176,66133,2,0,P|236:180|203:199,1,74.2500022659302,8|8,0:0|2:1,0:0:0:0:
170,287,66441,6,0,P|184:252|112:142,1,182.249994438172,14|0,2:1|0:0,0:0:0:0:
38,172,67056,2,0,P|37:114|78:69,1,121.499996292114,12|0,2:1|0:0,0:0:0:0:
315,75,67672,6,0,B|271:31|271:31|159:72,1,182.249994438172,12|0,2:1|0:0,0:0:0:0:
113,142,68287,5,12,0:0:0:0:
79,47,68441,1,12,0:0:0:0:
78,69,68903,22,0,L|218:18,2,148.50000453186,12|8|8,2:1|1:2|1:2,0:0:0:0:
233,209,69826,2,0,P|247:174|245:130,1,74.2500022659302,10|8,1:2|2:1,0:0:0:0:
315,75,70133,2,0,P|350:89|394:87,1,74.2500022659302,10|8,1:2|2:1,0:0:0:0:
480,53,70441,2,0,B|480:127,1,74.2500022659302,10|8,1:2|2:1,0:0:0:0:
408,187,70749,5,10,1:0:0:0:
389,186,70826,1,8,1:0:0:0:
370,187,70903,1,8,1:0:0:0:
352,193,70980,1,8,1:0:0:0:
336,202,71056,2,0,L|336:239,3,37.1250011329651,8|8|8|8,1:0|1:0|1:0|1:0,0:0:0:0:
359,272,71364,5,4,0:0:0:0:
398,279,73826,38,0,L|421:216,1,67.5,12|0,2:1|0:0,0:0:0:0:
287,290,74133,2,0,L|310:227,1,67.5,8|0,0:0|0:0,0:0:0:0:
308,141,74441,2,0,L|285:204,1,67.5,8|0,2:1|0:0,0:0:0:0:
193,248,74749,1,8,0:0:0:0:
189,252,74903,6,0,P|124:258|78:210,1,135,10|8,2:1|2:1,0:0:0:0:
159,120,75364,2,0,L|222:143,1,67.5,8|0,0:0|0:0,0:0:0:0:
308,141,75672,2,0,L|245:118,1,67.5,8|0,2:1|0:0,0:0:0:0:
145,79,75980,1,8,0:0:0:0:
149,83,76133,6,0,P|84:77|38:125,1,135,10|8,2:1|2:1,0:0:0:0:
56,224,76595,1,8,0:0:0:0:
56,224,76903,2,0,P|69:192|67:159,1,67.5,8|0,2:1|0:0,0:0:0:0:
35,78,77210,1,8,0:0:0:0:
111,150,77364,2,0,P|176:156|222:108,1,135,10|8,2:1|2:1,0:0:0:0:
240,26,77826,1,8,0:0:0:0:
262,111,77980,1,8,2:1:0:0:
324,173,78133,5,10,2:1:0:0:
328,177,78287,1,8,2:1:0:0:
243,226,78441,5,8,0:0:0:0:
247,230,78595,1,8,2:1:0:0:
306,336,78749,6,0,P|260:289|197:254,1,135,10|8,2:1|0:0,0:0:0:0:
278,261,79210,2,0,P|215:244|143:245,1,135,10|8,2:1|2:1,0:0:0:0:
19,334,79672,6,0,P|66:288|101:225,1,135,8|0,0:0|0:0,0:0:0:0:
94,306,80133,2,0,P|112:243|111:171,1,135,10|0,2:1|0:0,0:0:0:0:
60,86,80595,5,10,2:1:0:0:
130,37,80749,1,8,2:1:0:0:
206,73,80903,1,8,0:0:0:0:
276,24,81056,1,8,2:1:0:0:
297,141,81210,6,0,L|321:277,1,135,8|8,0:0|2:1,0:0:0:0:
212,225,81672,2,0,L|348:201,1,135,8|8,0:0|2:1,0:0:0:0:
366,318,82133,22,0,L|328:325,5,37.1250011329651,12|0|0|0|0|0,0:0|3:0|3:0|3:0|3:0|3:0,0:0:0:0:
286,307,82595,2,0,L|248:314,5,37.1250011329651,12|0|0|0|0|0,0:0|3:0|3:0|3:0|3:0|3:0,0:0:0:0:
216,346,83056,2,0,L|178:339,5,37.1250011329651,12|0|0|0|0|0,0:0|3:0|3:0|3:0|3:0|3:0,0:0:0:0:
146,307,83518,5,12,2:1:0:0:
256,192,83595,12,2,88364,3:2:0:0:
