osu file format v14

[General]
AudioFilename: audio.mp3
AudioLeadIn: 0
PreviewTime: 49025
Countdown: 0
SampleSet: None
StackLeniency: 0.7
Mode: 0
LetterboxInBreaks: 0
WidescreenStoryboard: 1

[Editor]
Bookmarks: 17508,28295,33688,36385,74053,74222,74306,74475,74643,74727,74896
DistanceSpacing: 1
BeatDivisor: 4
GridSize: 16
TimelineZoom: 2.999999

[Metadata]
Title:Innocent Princess
TitleUnicode:イノセント・プリンセス
Artist:Sasaki Sayaka
ArtistUnicode:佐咲紗花
Creator:tomatas95
Version:Normal
Source:若葉色のカルテット
Tags:Wakaba iro no Quartet Kemonomimi Lump of sugar galgame visual novel op opening short version japanese eroge video game pop j-pop jpop
BeatmapID:2763074
BeatmapSetID:1260506

[Difficulty]
HPDrainRate:4
CircleSize:3
OverallDifficulty:4
ApproachRate:5
SliderMultiplier:1
SliderTickRate:1

[Events]
//Background and Video events
Video,-250,"op.avi"
0,0,"AdorableMiyakoSenpai.jpg",0,0
//Break Periods
//Storyboard Layer 0 (Background)
//Storyboard Layer 1 (Fail)
//Storyboard Layer 2 (Pass)
//Storyboard Layer 3 (Foreground)
//Storyboard Layer 4 (Overlay)
//Storyboard Sound Samples

[TimingPoints]
1329,337.078651685393,4,2,1,70,1,0
1329,-100,4,2,1,70,0,0
2003,-100,4,2,2,70,0,0
2508,-100,4,2,1,70,0,0
3014,-100,4,2,2,70,0,0
3351,-100,4,2,1,70,0,0
4025,-100,4,2,2,70,0,0
4194,-100,4,2,1,70,0,0
4699,-100,4,2,2,70,0,0
4868,-100,4,2,1,70,0,0
5373,-100,4,2,2,60,0,0
5711,-100,4,2,1,70,0,0
6048,-100,4,2,1,75,0,0
6385,-100,4,2,1,80,0,0
6553,-100,4,2,1,70,0,0
6722,-100,4,2,2,70,0,0
7059,-100,4,2,1,70,0,0
12115,-100,4,2,2,70,0,0
12284,-100,4,2,1,70,0,0
14812,-100,4,2,2,70,0,0
14980,-100,4,2,1,70,0,0
15991,-100,4,2,2,70,0,0
16160,-100,4,2,1,70,0,0
16834,-100,4,2,2,70,0,0
17003,-100,4,2,1,70,0,0
17508,-100,4,2,3,60,0,0
36216,-100,4,2,1,60,0,0
36385,-100,4,2,2,60,0,0
36553,-100,4,2,1,70,0,0
37059,-100,4,2,1,70,0,0
37564,-100,4,2,1,70,0,0
38070,-100,4,2,1,70,0,0
38407,-100,4,2,1,70,0,0
39081,-100,4,2,3,60,0,0
44306,-100,4,2,1,60,0,0
44475,-100,4,2,3,70,0,0
44812,-100,4,2,3,55,0,0
45486,-100,4,2,1,60,0,0
45823,-100,4,2,3,70,0,0
46160,-100,4,2,3,55,0,0
46834,-100,4,2,1,60,0,0
47171,-100,4,2,3,75,0,0
47340,-100,4,2,1,75,0,0
48688,-100,4,2,1,50,0,0
49194,-100,4,2,2,70,0,0
49531,-100,4,2,1,60,0,0
49868,-90.9090909090909,4,2,2,80,0,1
50036,-90.9090909090909,4,2,1,80,0,1
50542,-90.9090909090909,4,2,1,80,0,1
50711,-90.9090909090909,4,2,1,80,0,1
51216,-90.9090909090909,4,2,2,80,0,1
51385,-90.9090909090909,4,2,1,80,0,1
52564,-90.9090909090909,4,2,1,80,0,1
52733,-90.9090909090909,4,2,1,80,0,1
53913,-90.9090909090909,4,2,2,80,0,1
54081,-90.9090909090909,4,2,1,80,0,1
54418,-90.9090909090909,4,2,1,80,0,1
55261,-90.9090909090909,4,2,2,80,0,1
55430,-90.9090909090909,4,2,1,80,0,1
56609,-90.9090909090909,4,2,2,80,0,1
56778,-90.9090909090909,4,2,1,80,0,1
57958,-90.9090909090909,4,2,1,80,0,1
58295,-90.9090909090909,4,2,1,80,0,1
59306,-90.9090909090909,4,2,2,80,0,1
59475,-90.9090909090909,4,2,1,80,0,1
60654,-90.9090909090909,4,2,2,80,0,1
60823,-90.9090909090909,4,2,1,80,0,1
62003,-90.9090909090909,4,2,1,80,0,1
62171,-90.9090909090909,4,2,1,80,0,1
63351,-90.9090909090909,4,2,1,80,0,1
63520,-90.9090909090909,4,2,1,80,0,1
64699,-90.9090909090909,4,2,2,80,0,1
64868,-90.9090909090909,4,2,1,80,0,1
66048,-90.9090909090909,4,2,2,80,0,1
66217,-90.9090909090909,4,2,1,80,0,1
68744,-90.9090909090909,4,2,2,80,0,1
68913,-90.9090909090909,4,2,1,80,0,1
70093,-90.9090909090909,4,2,2,70,0,0
70767,-100,4,2,1,70,0,0
71441,-90.9090909090909,4,2,2,80,0,1
71609,-90.9090909090909,4,2,1,80,0,1
72789,-90.9090909090909,4,2,2,80,0,1
72957,-90.9090909090909,4,2,1,80,0,1
74137,-90.9090909090909,4,2,1,80,0,1
74305,-90.9090909090909,4,2,1,80,0,1
75486,-90.9090909090909,4,2,2,80,0,1
75823,-90.9090909090909,4,2,1,80,0,1
76834,-90.9090909090909,4,2,2,80,0,1
77003,-90.9090909090909,4,2,1,80,0,1
78182,-90.9090909090909,4,2,2,80,0,1
78351,-90.9090909090909,4,2,1,80,0,1
79194,-90.9090909090909,4,2,3,80,0,1
79531,-90.9090909090909,4,2,2,80,0,1
79699,-90.9090909090909,4,2,1,80,0,1
80879,-90.9090909090909,4,2,2,80,0,1
81048,-90.9090909090909,4,2,1,80,0,1
82227,-90.9090909090909,4,2,2,80,0,1
82396,-90.9090909090909,4,2,1,80,0,1
83576,-90.9090909090909,4,2,1,80,0,1
83745,-90.9090909090909,4,2,1,80,0,1
84924,-90.9090909090909,4,2,2,80,0,1
85093,-90.9090909090909,4,2,1,80,0,1
86272,-90.9090909090909,4,2,1,80,0,1
86441,-90.9090909090909,4,2,1,80,0,1
86609,-90.9090909090909,4,2,1,85,0,1
86946,-90.9090909090909,4,2,1,90,0,1
87284,-90.9090909090909,4,2,1,95,0,1
87621,-90.9090909090909,4,2,2,80,0,1
87790,-90.9090909090909,4,2,1,80,0,1
90317,-100,4,2,2,70,0,0
90486,-100,4,2,1,70,0,0
95710,-100,4,2,2,70,0,0
95879,-100,4,2,1,70,0,0
98407,-100,4,2,2,70,0,0
98575,-100,4,2,1,70,0,0
99586,-100,4,2,2,70,0,0
99755,-100,4,2,1,70,0,0
100429,-100,4,2,2,70,0,0
100598,-100,4,2,1,70,0,0
101104,-100,4,2,2,70,0,0
101778,-100,4,2,2,70,0,0
102789,-100,4,2,2,70,0,0
104137,-100,4,2,2,70,0,0
105823,-100,4,2,2,70,0,0
106497,-100,4,2,2,20,0,0

[Colours]
Combo1 : 249,117,98
Combo2 : 52,165,248
Combo3 : 215,89,247
Combo4 : 232,243,90

[HitObjects]
88,37,1329,5,0,3:2:0:0:
84,86,1497,2,0,L|19:84,2,50,2|10|2,0:2|0:0|0:0,0:0:0:0:
130,105,2003,1,8,3:2:0:0:
222,66,2340,1,8,0:0:0:0:
265,90,2508,2,0,L|314:88,2,50,2|10|2,3:2|0:0|0:0,0:0:0:0:
248,137,3014,1,8,0:0:0:0:
229,235,3351,1,8,0:0:0:0:
276,246,3520,2,0,L|340:240,1,50,2|10,3:2|0:0,0:0:0:0:
375,232,3857,1,2,3:2:0:0:
459,179,4194,6,0,L|453:115,2,50,2|10|2,0:0|0:0|0:0,0:0:0:0:
485,221,4699,1,8,0:0:0:0:
508,318,5036,2,0,L|444:324,1,50,10|8,0:0|3:0,0:0:0:0:
408,319,5373,1,4,3:2:0:0:
320,370,5711,1,2,3:2:0:0:
236,313,6048,1,2,3:2:0:0:
268,218,6385,1,2,3:2:0:0:
368,220,6722,6,0,P|377:177|353:104,1,100,4|10,3:2|0:2,0:0:0:0:
289,57,7396,2,0,P|242:73|206:108,1,100,2|10,3:2|0:0,0:0:0:0:
179,206,8070,1,2,3:2:0:0:
179,206,8239,1,2,0:0:0:0:
178,305,8576,2,0,P|138:315|71:292,1,100,2|2,0:0|0:0,0:0:0:0:
56,257,9081,2,0,L|58:184,1,50,10|2,0:0|0:0,0:0:0:0:
69,111,9587,5,2,0:0:0:0:
69,111,9755,1,10,0:0:0:0:
105,15,10093,1,2,3:2:0:0:
208,22,10430,1,10,0:0:0:0:
234,120,10767,1,2,3:2:0:0:
234,120,10935,1,2,0:0:0:0:
148,174,11272,2,0,P|135:215|164:284,1,100,2|2,0:0|0:0,0:0:0:0:
186,302,11778,1,10,0:0:0:0:
277,343,12115,6,0,L|281:234,1,100,4|10,3:2|0:2,0:0:0:0:
329,155,12789,2,0,L|325:46,1,100,2|10,3:2|0:0,0:0:0:0:
240,13,13463,1,2,3:2:0:0:
240,13,13632,1,2,0:0:0:0:
195,102,13969,2,0,P|146:113|99:98,1,100,2|2,0:0|0:0,0:0:0:0:
58,126,14475,2,0,L|55:194,1,50,10|10,0:0|3:2,0:0:0:0:
57,230,14812,5,6,3:2:0:0:
57,230,14980,1,2,3:2:0:0:
144,277,15317,2,0,L|141:345,2,50,0|8|0,3:0|0:0|3:0,0:0:0:0:
167,232,15823,1,10,0:0:0:0:
177,183,15991,1,6,3:2:0:0:
187,83,16328,2,0,L|125:86,2,50,4|8|4,3:3|3:0|3:0,0:0:0:0:
226,52,16834,1,14,3:2:0:0:
323,30,17171,1,10,0:0:0:0:
413,73,17508,6,0,P|427:121|416:186,2,100,6|10|0,3:2|0:0|3:0,0:0:0:0:
323,30,18520,2,0,L|263:35,1,50,8|2,0:0|0:0,0:0:0:0:
239,70,18857,1,2,3:3:0:0:
232,169,19194,1,10,0:0:0:0:
136,198,19531,2,0,L|127:98,1,100,2|10,3:2|0:0,0:0:0:0:
44,42,20205,6,0,L|27:251,1,200,2|0,3:3|3:0,0:0:0:0:
32,341,21216,2,0,L|84:336,1,50,10|2,0:0|0:0,0:0:0:0:
127,316,21553,1,2,3:3:0:0:
223,342,21890,1,10,0:0:0:0:
293,270,22227,2,0,P|259:232|251:166,1,100,2|10,3:2|0:0,0:0:0:0:
157,142,22902,6,0,P|178:111|331:128,1,200,2|0,3:3|3:0,0:0:0:0:
419,139,23913,6,0,L|423:191,1,50,10|2,0:0|0:0,0:0:0:0:
449,231,24250,1,2,3:3:0:0:
425,328,24587,1,10,0:0:0:0:
327,350,24924,2,0,P|290:329|261:267,1,100,2|10,3:2|0:0,0:0:0:0:
320,198,25598,6,0,P|252:178|175:230,1,150,2|2,3:3|0:0,0:0:0:0:
137,227,26272,2,0,L|132:125,1,100,2|8,3:2|0:0,0:0:0:0:
95,34,26946,1,2,3:3:0:0:
2,68,27284,1,10,0:2:0:0:
34,163,27621,1,2,3:2:0:0:
1,257,27958,2,0,L|4:311,1,50,10|0,0:0|0:0,0:0:0:0:
15,355,28295,6,0,P|62:365|116:340,1,100,2|10,3:3|0:0,0:0:0:0:
143,310,28800,2,0,P|188:291|236:301,1,100,2|2,0:0|0:0,0:0:0:0:
315,363,29475,1,2,3:2:0:0:
331,315,29643,2,0,P|341:266|322:221,1,100,2|8,3:3|0:0,0:0:0:0:
233,184,30317,1,2,3:2:0:0:
202,88,30654,1,10,0:0:0:0:
291,43,30991,6,0,P|340:53|407:27,1,100,4|8,3:2|0:0,0:0:0:0:
435,25,31497,2,0,L|439:138,1,100,2|2,0:0|0:0,0:0:0:0:
450,224,32171,1,2,0:0:0:0:
405,246,32340,2,0,P|352:254|297:223,1,100,4|8,3:2|0:0,0:0:0:0:
229,177,33014,1,2,3:2:0:0:
140,222,33351,1,10,0:0:0:0:
161,319,33688,6,0,L|260:322,1,100,2|8,3:2|0:0,0:0:0:0:
312,325,34194,1,2,0:0:0:0:
358,342,34362,2,0,P|393:334|461:353,1,100,2|8,3:2|0:0,0:0:0:0:
499,257,35036,2,0,P|474:230|457:162,1,100,2|10,3:2|0:0,0:0:0:0:
454,120,35542,1,2,0:0:0:0:
459,70,35711,2,0,L|336:69,1,100,2|10,3:2|0:0,0:0:0:0:
266,31,36385,5,6,3:2:0:0:
244,76,36553,2,0,L|253:139,1,50,2|10,0:2|0:0,0:0:0:0:
241,174,36890,2,0,L|232:237,1,50,2|10,0:0|3:2,0:0:0:0:
192,314,37396,1,8,0:0:0:0:
142,313,37564,2,0,L|133:250,1,50,2|10,3:2|0:0,0:0:0:0:
98,229,37902,2,0,L|107:166,1,50,2|10,0:0|0:0,0:0:0:0:
51,95,38407,1,8,0:0:0:0:
50,44,38576,2,0,L|1:47,2,50,2|10|10,0:0|0:0|3:2,0:0:0:0:
98,31,39081,6,0,P|145:43|212:16,1,100,6|8,3:2|0:0,0:0:0:0:
269,95,39755,1,2,3:2:0:0:
229,187,40093,1,8,0:0:0:0:
262,281,40430,2,0,L|158:288,1,100,2|8,3:0|0:0,0:0:0:0:
62,295,41104,1,2,3:2:0:0:
54,195,41441,1,8,0:0:0:0:
154,187,41778,6,0,P|205:198|253:179,1,100,2|10,3:0|0:0,0:0:0:0:
280,143,42284,2,0,L|282:81,1,50,2|0,0:0|3:0,0:0:0:0:
299,46,42621,1,2,0:0:0:0:
392,10,42958,1,2,0:0:0:0:
440,22,43126,2,0,P|456:65|442:121,1,100,2|8,3:0|0:0,0:0:0:0:
430,164,43632,1,2,0:0:0:0:
403,206,43800,2,0,P|391:253|407:300,1,100,2|8,3:2|0:0,0:0:0:0:
485,372,44475,5,14,0:0:0:0:
485,372,44643,1,10,0:2:0:0:
503,122,45486,1,6,3:2:0:0:
449,44,45823,1,14,0:2:0:0:
449,44,45991,1,10,0:0:0:0:
254,201,46834,1,6,3:2:0:0:
207,118,47171,5,6,3:2:0:0:
207,118,47340,1,10,0:0:0:0:
121,78,47677,1,10,0:0:0:0:
121,78,47846,1,10,0:0:0:0:
29,110,48182,1,10,0:0:0:0:
29,110,48351,1,10,0:0:0:0:
464,358,49868,6,0,B|463:327|463:327|475:298|475:298|476:250,1,110.000003356934,6|8,3:2|0:0,0:0:0:0:
477,195,50373,1,2,0:0:0:0:
454,144,50542,2,0,P|405:129|335:153,1,110.000003356934,2|8,3:2|0:0,0:0:0:0:
286,232,51216,2,0,P|247:193|234:140,1,110.000003356934,6|8,3:2|0:0,0:0:0:0:
244,86,51722,1,2,0:0:0:0:
207,44,51890,2,0,L|76:42,1,110.000003356934,2|10,3:2|0:0,0:0:0:0:
5,103,52564,6,0,L|0:177,1,55.0000016784668,2|2,3:2|0:2,0:0:0:0:
33,202,52902,2,0,L|28:276,1,55.0000016784668,10|2,0:2|0:2,0:0:0:0:
27,311,53239,2,0,P|65:328|146:296,1,110.000003356934,2|10,3:2|0:0,0:0:0:0:
212,241,53913,2,0,B|210:158|210:158|179:132,1,110.000003356934,6|8,3:2|0:0,0:0:0:0:
83,109,54587,2,0,L|26:114,2,55.0000016784668,2|2|10,3:2|0:0|0:0,0:0:0:0:
115,64,55093,1,2,0:0:0:0:
160,33,55261,6,0,P|201:23|279:51,1,110.000003356934,6|8,3:2|0:0,0:0:0:0:
314,138,55935,2,0,P|273:128|195:156,1,110.000003356934,2|8,3:2|0:0,0:0:0:0:
190,197,56441,1,2,0:0:0:0:
186,251,56609,2,0,L|183:362,1,110.000003356934,6|8,3:2|0:0,0:0:0:0:
287,324,57284,1,2,3:2:0:0:
383,376,57621,1,10,0:0:0:0:
461,298,57958,6,0,P|453:271|460:234,1,55.0000016784668,2|0,3:2|0:0,0:0:0:0:
499,210,58295,2,0,P|507:183|500:146,1,55.0000016784668,10|0,0:2|0:0,0:0:0:0:
475,109,58632,2,0,B|434:93|434:93|363:116,1,110.000003356934,2|10,3:2|0:0,0:0:0:0:
309,204,59306,2,0,B|263:204|263:204|233:213|233:213|184:211,1,110.000003356934,6|8,3:2|0:0,0:0:0:0:
93,185,59980,2,0,P|87:144|95:104,2,82.5000025177003,2|2|2,3:2|0:0|0:0,0:0:0:0:
95,240,60654,5,6,3:2:0:0:
110,348,60991,1,8,0:0:0:0:
164,358,61160,2,0,L|283:365,1,110.000003356934,2|2,0:0|0:0,0:0:0:0:
381,358,61834,1,2,0:0:0:0:
393,304,62003,2,0,B|393:274|393:274|379:230|379:230|379:174,1,110.000003356934,2|8,3:2|0:2,0:0:0:0:
309,111,62677,2,0,L|202:114,2,82.5000025177003,2|2|2,3:2|0:0|0:0,0:0:0:0:
346,67,63351,5,2,3:2:0:0:
448,26,63688,1,10,0:0:0:0:
480,70,63857,2,0,L|487:188,1,110.000003356934,2|2,0:0|0:0,0:0:0:0:
487,289,64531,1,2,0:0:0:0:
443,322,64699,2,0,B|404:323|404:323|379:334|379:334|329:332,1,110.000003356934,4|8,3:2|0:0,0:0:0:0:
238,280,65373,1,2,3:2:0:0:
168,365,65711,1,10,0:0:0:0:
63,329,66048,6,0,B|46:300|46:300|48:211,1,110.000003356934,6|8,3:2|0:0,0:0:0:0:
49,168,66553,1,2,0:0:0:0:
99,146,66722,2,0,L|208:152,1,110.000003356934,2|8,3:2|0:0,0:0:0:0:
318,161,67396,2,0,L|313:240,2,55.0000016784668,2|2|10,3:2|0:0|0:0,0:0:0:0:
301,108,67902,1,2,0:0:0:0:
272,61,68070,2,0,P|229:40|154:51,1,110.000003356934,2|10,3:2|0:0,0:0:0:0:
59,59,68744,6,0,B|57:94|57:94|66:117|66:117|65:180,1,110.000003356934,6|8,3:2|0:0,0:0:0:0:
59,222,69250,1,2,0:0:0:0:
60,276,69418,2,0,P|96:262|167:282,1,110.000003356934,2|8,3:2|0:0,0:0:0:0:
233,363,70093,2,0,L|294:368,1,55.0000016784668,6|0,3:2|3:0,0:0:0:0:
342,359,70430,2,0,L|396:354,1,55.0000016784668,8|0,0:0|3:0,0:0:0:0:
446,356,70767,1,10,0:0:0:0:
416,260,71104,2,0,L|417:199,1,50,10|8,0:0|3:0,0:0:0:0:
391,160,71441,6,0,P|349:174|281:149,1,110.000003356934,6|8,3:2|0:0,0:0:0:0:
292,45,72115,2,0,P|344:30|394:49,1,110.000003356934,2|8,3:2|0:0,0:0:0:0:
446,68,72621,1,2,0:0:0:0:
488,102,72789,2,0,L|495:227,1,110.000003356934,6|8,3:2|0:0,0:0:0:0:
498,321,73463,1,2,3:2:0:0:
400,371,73800,1,10,0:0:0:0:
322,292,74137,6,0,L|310:235,1,55.0000016784668,2|0,3:2|0:0,0:0:0:0:
304,181,74475,2,0,L|316:124,1,55.0000016784668,10|0,0:2|0:0,0:0:0:0:
299,74,74812,2,0,P|268:70|198:115,1,110.000003356934,2|10,3:2|0:0,0:0:0:0:
163,210,75486,2,0,B|159:241|159:241|170:268|170:268|165:331,1,110.000003356934,6|10,3:2|0:0,0:0:0:0:
56,319,76160,2,0,L|61:392,2,55.0000016784668,2|2|10,3:2|0:0|0:0,0:0:0:0:
26,272,76666,1,2,0:0:0:0:
14,218,76834,6,0,B|21:179|11:142|11:142|31:100,1,110.000003356934,6|8,3:2|0:0,0:0:0:0:
88,21,77508,2,0,P|121:32|198:11,1,110.000003356934,2|8,3:2|0:0,0:0:0:0:
242,38,78014,1,2,0:0:0:0:
234,92,78182,2,0,P|207:115|186:192,1,110.000003356934,6|8,3:2|0:0,0:0:0:0:
172,294,78857,1,2,3:2:0:0:
256,364,79194,2,0,L|313:357,1,55.0000016784668,6|0,3:2|0:0,0:0:0:0:
346,315,79531,6,0,B|374:315|374:315|410:325|410:325|467:323,1,110.000003356934,6|8,3:2|0:0,0:0:0:0:
499,222,80205,1,0,3:0:0:0:
473,115,80542,1,10,0:0:0:0:
441,69,80711,1,2,0:0:0:0:
396,37,80879,2,0,B|341:23|341:23|278:36,1,110.000003356934,4|8,3:2|0:0,0:0:0:0:
190,89,81553,2,0,L|191:182,2,82.5000025177003,2|2|2,3:2|0:0|0:0,0:0:0:0:
191,33,82227,6,0,B|168:33|168:33|133:48|133:48|79:39,1,110.000003356934,6|8,3:2|0:0,0:0:0:0:
34,62,82733,2,0,L|28:182,1,110.000003356934,2|2,0:0|0:0,0:0:0:0:
25,281,83407,1,2,0:0:0:0:
73,254,83576,2,0,B|114:241|114:241|190:270,1,110.000003356934,2|8,3:2|0:0,0:0:0:0:
272,317,84250,2,0,P|242:354|206:367,2,82.5000025177003,2|2|2,3:2|0:0|0:0,0:0:0:0:
275,261,84924,6,0,L|278:142,1,110.000003356934,4|8,3:2|0:0,0:0:0:0:
324,121,85430,2,0,L|321:2,1,110.000003356934,2|2,0:0|0:0,0:0:0:0:
430,2,86104,1,2,0:0:0:0:
475,32,86272,2,0,B|498:65|498:65|494:141,1,110.000003356934,2|10,3:2|0:0,0:0:0:0:
481,188,86778,1,2,0:2:0:0:
437,222,86946,2,0,L|371:217,1,55.0000016784668,2|2,3:2|0:0,0:0:0:0:
334,189,87284,1,10,0:0:0:0:
242,128,87621,6,0,B|220:144|220:144|221:227,1,110.000003356934,4|8,3:2|0:0,0:0:0:0:
244,276,88126,1,2,0:0:0:0:
241,331,88295,2,0,P|204:346|135:325,1,110.000003356934,2|8,3:2|3:0,0:0:0:0:
50,272,88969,1,10,0:0:0:0:
50,272,89137,1,10,0:0:0:0:
11,111,89643,2,0,L|9:16,2,82.5000025177003,10|10|10,0:0|0:0|0:0,0:0:0:0:
46,146,90317,6,0,P|92:132|156:153,1,100,12|10,3:2|0:2,0:0:0:0:
198,225,90991,2,0,P|231:189|243:140,1,100,2|10,3:2|0:0,0:0:0:0:
186,64,91666,1,2,3:2:0:0:
186,64,91834,1,2,0:0:0:0:
276,21,92171,2,0,L|382:15,1,100,2|2,0:0|0:0,0:0:0:0:
425,14,92677,2,0,L|474:16,1,50,10|2,0:0|0:0,0:0:0:0:
481,121,93182,5,2,0:0:0:0:
481,121,93351,1,10,0:0:0:0:
385,149,93688,1,2,3:2:0:0:
393,248,94025,1,10,0:0:0:0:
491,285,94362,1,2,3:2:0:0:
491,285,94531,1,2,0:0:0:0:
426,361,94868,2,0,P|392:372|329:352,1,100,2|2,0:0|0:0,0:0:0:0:
291,325,95373,1,10,0:0:0:0:
250,233,95711,6,0,L|252:123,1,100,6|10,3:2|0:2,0:0:0:0:
154,109,96385,2,0,L|156:219,1,100,2|10,3:2|0:0,0:0:0:0:
164,312,97059,1,2,3:2:0:0:
164,312,97227,1,2,0:0:0:0:
73,354,97564,2,0,P|44:321|38:249,1,100,2|2,0:0|0:0,0:0:0:0:
26,217,98070,2,0,L|25:162,1,50,10|8,0:0|3:0,0:0:0:0:
36,121,98407,5,6,3:2:0:0:
36,121,98576,1,2,3:2:0:0:
122,71,98913,2,0,L|125:7,2,50,0|8|0,3:0|0:0|3:0,0:0:0:0:
135,118,99418,1,10,0:0:0:0:
142,167,99587,1,6,3:2:0:0:
235,202,99924,2,0,L|232:266,2,50,4|8|4,3:3|3:0|3:0,0:0:0:0:
242,152,100430,5,14,3:2:0:0:
334,189,100767,2,0,L|337:253,1,50,10|10,0:0|3:2,0:0:0:0:
340,288,101104,1,6,3:2:0:0:
256,192,101272,12,0,106497,0:0:0:0:
