osu file format v14

[General]
AudioFilename: audio.mp3
AudioLeadIn: 0
PreviewTime: 49025
Countdown: 0
SampleSet: Soft
StackLeniency: 0.7
Mode: 0
LetterboxInBreaks: 0
WidescreenStoryboard: 1

[Editor]
Bookmarks: 11272,14137,14306,14390,14559,17508,27031,27115,27284,27452,27536,27705,33688,36469,54418,54503,54587,54671,54840,54924,55093,60064,60149,60317,60486,60570,60739,60823,63351,76076,76244,76328,76413,76497,76581,76637,76666,80879,80963,81553,81637,81806,81890,82059,82227,82312,98154,98323,98407
DistanceSpacing: 0.2
BeatDivisor: 4
GridSize: 32
TimelineZoom: 2.999999

[Metadata]
Title:Innocent Princess
TitleUnicode:イノセント・プリンセス
Artist:Sasaki Sayaka
ArtistUnicode:佐咲紗花
Creator:tomatas95
Version:Nekomimi Lovestory
Source:若葉色のカルテット
Tags:Wakaba iro no Quartet Kemonomimi Lump of sugar galgame visual novel op opening short version japanese eroge video game pop j-pop jpop
BeatmapID:2763073
BeatmapSetID:1260506

[Difficulty]
HPDrainRate:7
CircleSize:4.2
OverallDifficulty:8.7
ApproachRate:9.3
SliderMultiplier:1.6
SliderTickRate:1

[Events]
//Background and Video events
Video,-250,"op.avi"
0,0,"OhimesamaKiss.jpg",0,0
//Break Periods
//Storyboard Layer 0 (Background)
//Storyboard Layer 1 (Fail)
//Storyboard Layer 2 (Pass)
//Storyboard Layer 3 (Foreground)
//Storyboard Layer 4 (Overlay)
//Storyboard Sound Samples

[TimingPoints]
1329,337.078651685393,4,2,1,70,1,0
1329,-100,4,2,1,70,0,0
2003,-100,4,2,2,70,0,0
2508,-100,4,2,1,70,0,0
3014,-100,4,2,2,70,0,0
3351,-100,4,2,1,70,0,0
4025,-100,4,2,2,70,0,0
4194,-100,4,2,1,70,0,0
4699,-100,4,2,2,70,0,0
4868,-100,4,2,1,70,0,0
5373,-80,4,2,2,60,0,0
5626,-80,4,2,2,5,0,0
5711,-68.9655172413793,4,2,1,70,0,0
5963,-80,4,2,1,5,0,0
6048,-60.6060606060606,4,2,1,75,0,0
6300,-80,4,2,1,5,0,0
6385,-47.6190476190476,4,2,1,80,0,0
6553,-51.2820512820513,4,2,1,70,0,0
6722,-90.9090909090909,4,2,2,70,0,0
7059,-90.9090909090909,4,2,1,70,0,0
11272,-80,4,2,1,70,0,0
11778,-74.0740740740741,4,2,1,70,0,0
12031,-90.9090909090909,4,2,1,5,0,0
12115,-90.9090909090909,4,2,2,70,0,0
12284,-90.9090909090909,4,2,2,70,0,0
12452,-90.9090909090909,4,2,1,70,0,0
14812,-90.9090909090909,4,2,2,70,0,0
14980,-90.9090909090909,4,2,1,70,0,0
15486,-125,4,2,1,70,0,0
15991,-90.9090909090909,4,2,2,70,0,0
16160,-90.9090909090909,4,2,1,70,0,0
16834,-64.5161290322581,4,2,2,70,0,0
17087,-100,4,2,2,5,0,0
17171,-64.5161290322581,4,2,1,70,0,0
17424,-76.9230769230769,4,2,1,70,0,0
17508,-125,4,2,3,60,0,0
28211,-125,4,2,3,60,0,0
28295,-125,4,2,3,60,0,0
30991,-111.111111111111,4,2,3,60,0,0
36216,-125,4,2,1,60,0,0
36385,-125,4,2,2,60,0,0
36553,-125,4,2,1,70,0,0
37059,-100,4,2,1,70,0,0
37564,-125,4,2,1,70,0,0
38070,-100,4,2,1,70,0,0
38407,-125,4,2,1,70,0,0
39081,-111.111111111111,4,2,3,60,0,0
44306,-100,4,2,1,60,0,0
44475,-100,4,2,3,70,0,0
44812,-100,4,2,3,55,0,0
45486,-100,4,2,1,60,0,0
45823,-100,4,2,3,70,0,0
46160,-100,4,2,3,55,0,0
46834,-100,4,2,1,60,0,0
47171,-100,4,2,3,75,0,0
47340,-100,4,2,1,75,0,0
48688,-100,4,2,1,50,0,0
49194,-100,4,2,2,70,0,0
49531,-100,4,2,1,60,0,0
49868,-83.3333333333333,4,2,2,80,0,1
50036,-83.3333333333333,4,2,1,80,0,1
50542,-83.3333333333333,4,2,1,80,0,1
50711,-83.3333333333333,4,2,1,80,0,1
51216,-71.4285714285714,4,2,2,80,0,1
51385,-83.3333333333333,4,2,1,80,0,1
51553,-83.3333333333333,4,2,1,80,0,1
52564,-125,4,2,1,80,0,1
52733,-100,4,2,1,80,0,1
52902,-100,4,2,1,80,0,1
53239,-83.3333333333333,4,2,1,80,0,1
53576,-71.4285714285714,4,2,1,80,0,1
53913,-62.5,4,2,2,80,0,1
54081,-66.6666666666667,4,2,1,80,0,1
54418,-66.6666666666667,4,2,1,80,0,1
55261,-83.3333333333333,4,2,2,80,0,1
55430,-83.3333333333333,4,2,1,80,0,1
56609,-66.6666666666667,4,2,2,80,0,1
56778,-83.3333333333333,4,2,1,80,0,1
57958,-125,4,2,1,80,0,1
58295,-100,4,2,1,80,0,1
58632,-83.3333333333333,4,2,1,80,0,1
58969,-71.4285714285714,4,2,1,80,0,1
59138,-62.5,4,2,1,80,0,1
59306,-62.5,4,2,2,80,0,1
59475,-66.6666666666667,4,2,1,80,0,1
59980,-83.3333333333333,4,2,1,80,0,1
60654,-83.3333333333333,4,2,2,80,0,1
60823,-83.3333333333333,4,2,1,80,0,1
62003,-83.3333333333333,4,2,1,80,0,1
62171,-83.3333333333333,4,2,1,80,0,1
63351,-83.3333333333333,4,2,1,80,0,1
63520,-83.3333333333333,4,2,1,80,0,1
64699,-62.5,4,2,2,80,0,1
64868,-83.3333333333333,4,2,1,80,0,1
66048,-71.4285714285714,4,2,2,80,0,1
66217,-83.3333333333333,4,2,1,80,0,1
68744,-62.5,4,2,2,80,0,1
68913,-83.3333333333333,4,2,1,80,0,1
70093,-90.9090909090909,4,2,2,70,0,0
70261,-90.9090909090909,4,2,2,70,0,0
70767,-90.9090909090909,4,2,1,70,0,0
71441,-83.3333333333333,4,2,2,80,0,1
71609,-83.3333333333333,4,2,1,80,0,1
72789,-71.4285714285714,4,2,2,80,0,1
72957,-83.3333333333333,4,2,1,80,0,1
74137,-125,4,2,1,80,0,1
74475,-100,4,2,1,80,0,1
74812,-83.3333333333333,4,2,1,80,0,1
75149,-71.4285714285714,4,2,1,80,0,1
75486,-62.5,4,2,2,80,0,1
75823,-62.5,4,2,1,80,0,1
76834,-83.3333333333333,4,2,2,80,0,1
77003,-83.3333333333333,4,2,1,80,0,1
78182,-66.6666666666667,4,2,2,80,0,1
78351,-83.3333333333333,4,2,1,80,0,1
79194,-50,4,2,3,80,0,1
79446,-60.6060606060606,4,2,3,5,0,1
79531,-71.4285714285714,4,2,2,80,0,1
79699,-83.3333333333333,4,2,1,80,0,1
80879,-62.5,4,2,2,80,0,1
81048,-83.3333333333333,4,2,1,80,0,1
82227,-71.4285714285714,4,2,2,80,0,1
82396,-83.3333333333333,4,2,1,80,0,1
83576,-71.4285714285714,4,2,1,80,0,1
83745,-83.3333333333333,4,2,1,80,0,1
84924,-83.3333333333333,4,2,2,80,0,1
85093,-83.3333333333333,4,2,1,80,0,1
86272,-83.3333333333333,4,2,1,80,0,1
86441,-83.3333333333333,4,2,1,80,0,1
86609,-83.3333333333333,4,2,1,85,0,1
86946,-83.3333333333333,4,2,1,90,0,1
87284,-100,4,2,1,95,0,1
87536,-83.3333333333333,4,2,1,5,0,1
87621,-71.4285714285714,4,2,2,80,0,1
87790,-83.3333333333333,4,2,1,80,0,1
89643,-62.5,4,2,1,80,0,1
89812,-76.9230769230769,4,2,1,5,0,1
89896,-62.5,4,2,1,80,0,1
90064,-76.9230769230769,4,2,1,5,0,1
90148,-76.9230769230769,4,2,1,80,0,1
90317,-90.9090909090909,4,2,2,70,0,0
90486,-90.9090909090909,4,2,2,70,0,0
90654,-90.9090909090909,4,2,1,70,0,0
94868,-80,4,2,1,70,0,0
95373,-74.0740740740741,4,2,1,70,0,0
95626,-90.9090909090909,4,2,1,5,0,0
95627,-90.9090909090909,4,2,1,5,0,0
95710,-90.9090909090909,4,2,2,70,0,0
95711,-90.9090909090909,4,2,2,70,0,0
95879,-90.9090909090909,4,2,2,70,0,0
96048,-90.9090909090909,4,2,1,70,0,0
98407,-90.9090909090909,4,2,2,70,0,0
98575,-90.9090909090909,4,2,1,70,0,0
99081,-125,4,2,1,70,0,0
99586,-90.9090909090909,4,2,2,70,0,0
99755,-90.9090909090909,4,2,1,70,0,0
100429,-64.5161290322581,4,2,2,70,0,0
100598,-90.9090909090909,4,2,1,70,0,0
100682,-64.5161290322581,4,2,2,5,0,0
100767,-64.5161290322581,4,2,1,70,0,0
101020,-76.9230769230769,4,2,1,70,0,0
101104,-222.222222222222,4,2,2,70,0,0
101441,-100,4,2,2,70,0,0
102452,-100,4,2,2,70,0,0
103800,-100,4,2,2,70,0,0
105486,-100,4,2,2,70,0,0
106497,-222.222222222222,4,2,2,20,0,0

[Colours]
Combo1 : 128,255,128
Combo2 : 233,237,80
Combo3 : 70,244,227
Combo4 : 120,155,237

[HitObjects]
68,85,1329,5,0,3:2:0:0:
240,140,1497,1,2,0:2:0:0:
175,232,1666,1,10,0:0:0:0:
68,197,1834,1,2,0:0:0:0:
175,48,2003,6,0,B|225:42|225:42|256:58|256:58|339:50,1,160,8|8,3:2|0:0,0:0:0:0:
447,189,2508,1,2,3:2:0:0:
507,94,2676,1,10,0:0:0:0:
434,10,2845,1,2,0:0:0:0:
337,163,3014,6,0,B|287:169|287:169|256:153|256:153|173:161,1,160,8|8,0:0|0:0,0:0:0:0:
22,221,3520,1,2,3:2:0:0:
181,160,3688,1,10,0:0:0:0:
150,322,3857,1,2,3:2:0:0:
119,232,4025,5,12,0:0:0:0:
139,50,4193,1,2,0:0:0:0:
27,73,4362,1,10,0:0:0:0:
14,184,4530,1,2,0:0:0:0:
191,149,4699,2,0,L|278:139,1,80,8|0,0:0|3:0,0:0:0:0:
430,39,5036,2,0,L|440:126,1,80,10|8,0:0|3:0,0:0:0:0:
443,222,5289,1,8,3:0:0:0:
443,222,5373,6,0,B|465:270|420:287|420:287|382:266|404:220,1,150,4|0,3:2|0:0,0:0:0:0:
332,183,5711,6,0,B|329:128|269:137|269:137|238:184|277:209,1,174.000005310059,2|0,3:2|0:0,0:0:0:0:
257,310,6048,6,0,B|259:361|194:365|194:365|144:316|191:277,1,198.000001888275,2|0,3:2|0:0,0:0:0:0:
154,144,6385,6,0,B|158:98|96:96|96:96|57:139|91:169,1,167.999994873047,2|8,3:2|3:0,0:0:0:0:
84,295,6637,1,8,3:0:0:0:
84,295,6722,6,0,P|43:307|-5:296,1,88.000002685547,4|0,3:2|0:0,0:0:0:0:
212,367,7059,2,0,P|253:379|301:368,1,88.000002685547,10|0,0:2|0:0,0:0:0:0:
391,241,7396,2,0,L|404:344,1,88.000002685547,2|0,3:2|0:0,0:0:0:0:
277,120,7733,2,0,L|264:223,1,88.000002685547,10|0,0:0|0:0,0:0:0:0:
380,45,8070,5,2,3:2:0:0:
495,207,8239,2,0,L|482:104,1,88.000002685547,2|8,0:0|0:0,0:0:0:0:
408,361,8576,2,0,L|385:178,1,176.000005371094,2|2,0:0|0:0,0:0:0:0:
290,4,9081,1,10,0:0:0:0:
228,79,9250,6,0,P|183:88|131:76,1,88.000002685547,2|0,0:0|3:0,0:0:0:0:
40,13,9587,1,2,0:0:0:0:
55,231,9755,1,10,0:0:0:0:
55,213,10093,1,2,3:2:0:0:
55,195,10430,1,10,0:0:0:0:
55,177,10767,5,2,3:2:0:0:
89,354,10935,2,0,P|132:368|182:353,1,88.000002685547,2|8,0:0|0:0,0:0:0:0:
363,294,11272,2,0,B|311:301|311:301|277:234|325:154,1,200,2|2,0:0|0:0,0:0:0:0:
401,365,11778,2,0,B|443:371|443:371|473:316|433:259,1,162.000000617981,10|0,0:0|0:0,0:0:0:0:
414,166,12115,6,0,B|455:154|455:154|507:172,1,88.000002685547,4|0,3:2|0:0,0:0:0:0:
358,45,12452,2,0,B|317:33|317:33|265:51,1,88.000002685547,10|0,0:2|0:0,0:0:0:0:
144,114,12789,2,0,P|148:56|140:16,1,88.000002685547,2|0,3:2|0:0,0:0:0:0:
45,203,13126,2,0,P|31:154|39:114,1,88.000002685547,10|0,0:0|0:0,0:0:0:0:
120,296,13463,5,2,3:2:0:0:
259,135,13632,2,0,L|271:236,1,88.000002685547,2|8,0:0|0:0,0:0:0:0:
344,39,13969,2,0,L|366:227,1,176.000005371094,2|2,0:0|0:0,0:0:0:0:
457,10,14475,1,10,0:0:0:0:
466,212,14643,1,10,3:2:0:0:
466,212,14727,1,8,3:0:0:0:
466,212,14812,5,6,3:2:0:0:
244,0,14980,1,2,3:2:0:0:
245,17,15317,1,0,3:0:0:0:
199,93,15486,2,0,L|193:158,1,64,8|0,0:0|3:0,0:0:0:0:
74,31,15823,5,10,0:0:0:0:
35,320,15991,1,6,3:2:0:0:
36,302,16328,1,4,3:3:0:0:
117,373,16497,1,8,3:0:0:0:
117,373,16581,1,8,3:0:0:0:
117,373,16666,1,4,3:0:0:0:
200,220,16834,6,0,B|220:190|255:183|255:183|307:247|247:312,1,186.000001419067,14|0,3:2|0:0,0:0:0:0:
281,370,17171,2,0,B|247:366|226:341|226:341|253:272|331:290,1,186.000001419067,10|8,0:0|3:0,0:0:0:0:
392,366,17508,6,0,P|428:357|469:277,2,128,6|10|0,3:2|0:0|3:0,0:0:0:0:
323,288,18351,1,0,0:0:0:0:
401,235,18520,2,0,L|393:163,1,64,8|2,0:0|0:0,0:0:0:0:
391,68,18857,6,0,P|425:73|465:58,1,64,2|0,3:3|0:0,0:0:0:0:
284,118,19194,2,0,P|305:91|312:48,1,64,10|0,0:0|0:0,0:0:0:0:
273,235,19531,2,0,P|260:203|227:175,1,64,2|0,3:2|0:0,0:0:0:0:
368,303,19868,2,0,P|334:298|294:313,1,64,10|0,0:0|0:0,0:0:0:0:
455,228,20205,6,0,L|466:355,2,128,2|10|0,3:3|0:0|3:0,0:0:0:0:
455,136,21048,1,0,0:0:0:0:
395,61,21216,2,0,P|360:66|325:59,1,64,10|2,0:0|0:0,0:0:0:0:
227,0,21553,6,0,P|223:36|219:81,1,64,2|0,3:3|0:0,0:0:0:0:
67,28,21890,2,0,P|98:31|130:34,1,64,10|0,0:0|0:0,0:0:0:0:
95,188,22227,2,0,P|98:151|103:107,1,64,2|0,3:2|0:0,0:0:0:0:
255,160,22564,2,0,P|218:156|174:152,1,64,10|0,0:0|0:0,0:0:0:0:
32,230,22902,6,0,P|91:212|157:246,2,128,2|8|0,3:3|0:0|3:0,0:0:0:0:
1,313,23744,1,0,0:0:0:0:
74,368,23913,2,0,L|143:362,1,64,10|2,0:0|0:0,0:0:0:0:
228,294,24250,6,0,P|223:328|237:364,1,64,2|0,3:3|0:0,0:0:0:0:
306,243,24587,2,0,P|311:277|297:313,1,64,10|0,0:0|0:0,0:0:0:0:
231,142,24924,2,0,P|226:176|240:212,1,64,2|0,3:2|0:0,0:0:0:0:
313,32,25261,2,0,P|318:66|304:102,1,64,10|0,0:0|0:0,0:0:0:0:
400,194,25598,6,0,P|385:141|416:71,1,128,2|8,3:3|0:0,0:0:0:0:
486,16,26104,1,2,0:0:0:0:
512,98,26272,2,0,P|527:151|496:221,1,128,2|8,3:2|0:0,0:0:0:0:
434,274,26778,1,2,0:0:0:0:
503,361,26946,6,0,L|507:293,1,64,2|0,3:3|0:0,0:0:0:0:
349,355,27284,2,0,L|353:287,1,64,10|0,0:2|0:0,0:0:0:0:
272,352,27621,2,0,L|276:284,1,64,2|0,3:2|0:0,0:0:0:0:
426,358,27958,2,0,L|432:238,1,96,10|0,0:0|0:0,0:0:0:0:
433,184,28295,6,0,B|374:196|374:196|307:171,1,128,2|10,3:3|0:0,0:0:0:0:
225,146,28800,2,0,L|154:155,1,64,2|0,0:0|3:0,0:0:0:0:
114,244,29137,2,0,L|185:253,1,64,2|8,0:0|0:0,0:0:0:0:
33,349,29475,1,2,3:2:0:0:
33,349,29559,1,0,3:0:0:0:
33,349,29643,6,0,L|16:217,1,128,2|8,3:3|0:0,0:0:0:0:
5,126,30149,1,0,0:0:0:0:
69,25,30317,2,0,P|101:19|146:28,1,64,2|0,3:2|0:0,0:0:0:0:
205,129,30654,2,0,P|199:97|208:52,1,64,10|0,0:0|0:0,0:0:0:0:
268,12,30907,1,0,3:0:0:0:
268,12,30991,6,0,B|329:-3|329:-3|411:24,1,143.999995605469,4|8,3:2|0:0,0:0:0:0:
482,118,31497,2,0,P|479:160|497:204,1,71.9999978027344,2|0,0:0|3:0,0:0:0:0:
491,312,31834,2,0,P|456:288|409:281,1,71.9999978027344,2|8,0:0|0:0,0:0:0:0:
326,340,32171,1,2,0:0:0:0:
246,208,32340,6,0,P|290:221|385:165,1,143.999995605469,4|8,3:2|0:0,0:0:0:0:
400,86,32845,1,0,0:0:0:0:
302,18,33014,2,0,L|210:10,1,71.9999978027344,2|0,3:2|0:0,0:0:0:0:
91,26,33351,2,0,L|83:118,1,71.9999978027344,10|0,0:0|0:0,0:0:0:0:
25,208,33688,6,0,P|86:187|162:226,1,143.999995605469,2|8,3:2|0:0,0:0:0:0:
223,278,34194,1,2,0:0:0:0:
19,323,34362,2,0,P|82:353|149:333,1,143.999995605469,2|8,3:2|0:0,0:0:0:0:
223,278,34868,1,2,0:0:0:0:
317,365,35036,6,0,L|389:368,1,71.9999978027344,2|0,3:2|0:0,0:0:0:0:
494,261,35373,1,10,0:0:0:0:
494,367,35542,1,2,0:0:0:0:
388,261,35711,2,0,P|381:220|393:174,1,71.9999978027344,2|0,3:2|0:0,0:0:0:0:
511,119,36048,2,0,P|470:126|424:114,1,71.9999978027344,10|8,0:0|3:3,0:0:0:0:
366,106,36300,1,8,3:3:0:0:
366,106,36385,5,6,3:2:0:0:
171,158,36553,1,2,0:2:0:0:
178,33,36722,1,10,0:0:0:0:
299,3,36890,1,2,0:0:0:0:
289,207,37059,6,0,B|241:209|241:209|203:232|203:232|126:230,1,160,10|8,3:2|0:0,0:0:0:0:
111,38,37564,1,2,3:2:0:0:
4,89,37733,1,10,0:0:0:0:
18,206,37902,1,2,0:0:0:0:
191,125,38070,6,0,B|239:123|239:123|277:100|277:100|354:102,1,160,10|8,0:0|0:0,0:0:0:0:
486,22,38576,1,2,0:0:0:0:
466,229,38744,1,10,0:0:0:0:
272,114,38913,1,10,3:2:0:0:
272,114,38997,1,8,3:0:0:0:
272,114,39081,6,0,B|280:150|257:179|257:179|235:209|261:264,1,143.999995605469,6|8,3:2|0:0,0:0:0:0:
259,353,39587,1,0,0:0:0:0:
336,301,39755,2,0,B|372:293|401:316|401:316|431:338|486:312,1,143.999995605469,2|8,3:2|0:0,0:0:0:0:
173,300,40430,6,0,B|137:292|108:315|108:315|78:337|23:311,1,143.999995605469,2|8,3:0|0:0,0:0:0:0:
3,229,40935,1,0,0:0:0:0:
85,184,41104,2,0,B|77:148|100:119|100:119|122:89|96:34,1,143.999995605469,2|8,3:2|0:0,0:0:0:0:
493,25,41778,6,0,L|506:181,1,143.999995605469,2|10,3:0|0:0,0:0:0:0:
417,184,42284,2,0,L|404:28,1,143.999995605469,2|2,0:0|0:0,0:0:0:0:
311,4,42789,1,8,0:0:0:0:
282,90,42958,1,2,0:0:0:0:
176,42,43126,6,0,P|105:14|42:47,1,143.999995605469,2|8,3:0|0:0,0:0:0:0:
19,125,43632,1,2,0:0:0:0:
168,209,43800,2,0,P|103:236|39:207,1,143.999995605469,2|8,3:2|0:0,0:0:0:0:
228,132,44306,1,8,3:0:0:0:
228,132,44390,1,8,3:0:0:0:
228,132,44475,5,14,0:0:0:0:
107,384,44643,1,10,0:2:0:0:
109,368,45486,5,6,3:2:0:0:
139,211,45654,1,0,3:0:0:0:
240,349,45823,5,14,0:2:0:0:
318,44,45991,1,10,0:0:0:0:
319,59,46834,1,6,3:2:0:0:
492,13,47003,1,8,3:0:0:0:
492,13,47087,1,8,3:0:0:0:
492,13,47171,5,6,3:2:0:0:
419,309,47340,1,10,0:0:0:0:
425,323,47677,5,10,0:0:0:0:
214,103,47846,1,10,0:0:0:0:
214,87,48182,5,10,0:0:0:0:
287,383,48351,1,10,0:0:0:0:
289,184,48688,1,8,3:0:0:0:
289,184,48772,1,8,3:0:0:0:
289,184,48857,1,4,3:2:0:0:
210,293,49025,1,4,3:0:0:0:
44,89,49194,5,4,3:2:0:0:
94,305,49362,1,4,3:0:0:0:
173,53,49531,1,8,3:0:0:0:
211,24,49615,1,8,3:0:0:0:
257,10,49699,1,8,3:0:0:0:
304,14,49783,1,8,3:0:0:0:
348,34,49868,6,0,B|341:82|341:82|364:128|364:128|349:227,1,191.999994140625,6|8,3:2|0:0,0:0:0:0:
321,365,50373,1,2,0:0:0:0:
252,149,50542,2,0,B|201:141|201:141|165:207|211:274,1,191.999994140625,2|8,3:2|0:0,0:0:0:0:
89,384,51048,1,0,0:0:0:0:
0,72,51216,6,0,B|57:51|57:51|114:119|63:206,1,223.999993164063,6|8,3:2|0:0,0:0:0:0:
20,340,51722,1,2,0:0:0:0:
119,269,51890,2,0,P|162:257|212:274,1,95.9999970703126,2|0,3:2|0:0,0:0:0:0:
340,362,52227,2,0,P|308:330|297:278,1,95.9999970703126,10|0,0:0|0:0,0:0:0:0:
417,151,52564,6,0,B|451:159|451:159|504:149,1,64,2|0,3:2|0:0,0:0:0:0:
303,59,52902,2,0,B|340:49|340:49|395:62,1,80,10|0,0:2|0:0,0:0:0:0:
172,160,53239,2,0,B|212:173|212:173|266:165,1,95.9999970703126,2|0,3:2|0:0,0:0:0:0:
14,57,53576,2,0,B|65:40|65:40|130:61,1,111.999996582031,10|0,0:0|0:0,0:0:0:0:
132,342,53913,6,0,B|70:392|22:338|22:338|-1:287|38:208,1,256,6|8,3:2|0:0,0:0:0:0:
70,123,54418,1,2,0:0:0:0:
193,264,54587,1,2,3:2:0:0:
244,170,54755,1,2,0:0:0:0:
364,104,54924,1,10,0:0:0:0:
507,195,55093,1,2,0:0:0:0:
278,2,55261,6,0,B|236:29|236:29|245:185,1,191.999994140625,6|8,3:2|0:0,0:0:0:0:
343,268,55767,1,2,0:0:0:0:
182,249,55935,2,0,B|158:257|129:256|129:256|98:253|73:229|73:229|45:221|-12:238,1,191.999994140625,2|8,3:2|0:0,0:0:0:0:
156,371,56441,1,2,0:0:0:0:
379,127,56609,6,0,B|409:371,1,240.000009155274,6|8,3:2|0:0,0:0:0:0:
512,210,57115,1,2,0:0:0:0:
424,44,57284,2,0,L|323:38,1,95.9999970703126,2|0,3:2|0:0,0:0:0:0:
335,214,57621,2,0,L|436:208,1,95.9999970703126,10|0,0:0|0:0,0:0:0:0:
224,384,57958,6,0,P|217:355|228:313,1,64,2|0,3:2|0:0,0:0:0:0:
58,289,58295,2,0,P|86:263|128:251,1,80,10|0,0:2|0:0,0:0:0:0:
51,95,58632,2,0,P|100:104|131:134,1,95.9999970703126,2|0,3:2|0:0,0:0:0:0:
238,9,58969,2,0,P|245:38|231:125,1,111.999996582031,10|0,0:0|0:0,0:0:0:0:
512,66,59306,6,0,B|513:34|450:12|450:12|388:88|436:174,1,256,6|8,3:2|0:0,0:0:0:0:
500,313,59812,1,0,0:0:0:0:
387,369,59980,2,0,P|339:381|287:369,1,95.9999970703126,2|0,3:2|0:0,0:0:0:0:
262,344,60233,1,2,0:0:0:0:
262,344,60317,1,8,0:0:0:0:
234,187,60486,1,2,0:0:0:0:
60,375,60654,6,0,B|50:338|50:338|48:303|64:275|64:275|84:243|63:186,1,191.999994140625,6|8,3:2|0:0,0:0:0:0:
164,34,61160,2,0,L|273:21,1,95.9999970703126,2|0,0:0|3:2,0:0:0:0:
72,96,61497,2,0,L|59:-13,1,95.9999970703126,2|8,0:0|0:0,0:0:0:0:
154,249,61834,1,2,0:0:0:0:
154,249,61918,1,2,0:0:0:0:
154,249,62003,6,0,B|198:221|234:265|234:265|279:219|337:246,1,191.999994140625,2|8,3:2|0:2,0:0:0:0:
422,144,62508,1,0,0:0:0:0:
489,350,62677,2,0,L|497:251,1,95.9999970703126,2|0,3:2|0:0,0:0:0:0:
505,215,62930,1,2,0:0:0:0:
505,215,63014,1,8,0:0:0:0:
407,283,63182,1,2,0:0:0:0:
353,25,63351,6,0,B|390:-5|429:18|429:18|459:72|427:127,1,191.999994140625,2|10,3:2|0:0,0:0:0:0:
300,154,63857,2,0,L|194:142,1,95.9999970703126,2|0,0:0|3:0,0:0:0:0:
61,69,64194,2,0,L|167:57,1,95.9999970703126,2|8,0:0|0:0,0:0:0:0:
256,50,64531,1,2,0:0:0:0:
38,357,64699,6,0,B|-11:252|65:184|65:184|121:231,1,256,4|8,3:2|0:0,0:0:0:0:
210,356,65205,1,2,0:0:0:0:
282,223,65373,2,0,P|334:219|396:231,1,95.9999970703126,2|0,3:2|0:0,0:0:0:0:
486,351,65711,2,0,P|434:347|372:359,1,95.9999970703126,10|0,0:0|0:0,0:0:0:0:
512,85,66048,6,0,B|458:57|458:57|394:122|301:68,1,223.999993164063,6|8,3:2|0:0,0:0:0:0:
198,19,66553,1,2,0:0:0:0:
159,172,66722,2,0,P|84:174|50:71,1,191.999994140625,2|8,3:2|0:0,0:0:0:0:
198,19,67227,1,2,0:0:0:0:
164,258,67396,5,2,3:2:0:0:
308,72,67564,1,2,0:0:0:0:
158,281,67733,1,10,0:0:0:0:
198,19,67902,1,2,0:0:0:0:
153,306,68070,2,0,L|49:317,1,95.9999970703126,2|0,3:2|0:0,0:0:0:0:
183,126,68407,1,10,0:0:0:0:
266,290,68576,1,2,0:0:0:0:
392,40,68744,6,0,B|438:24|488:59|488:59|526:131|447:209,1,256,6|8,3:2|0:0,0:0:0:0:
284,184,69250,1,2,0:0:0:0:
380,384,69418,2,0,L|391:280,1,95.9999970703126,2|0,3:2|0:0,0:0:0:0:
427,111,69755,1,8,0:0:0:0:
299,283,69924,1,8,3:0:0:0:
299,283,70008,1,8,3:0:0:0:
299,283,70093,5,6,3:2:0:0:
204,1,70261,1,0,3:0:0:0:
195,281,70430,5,8,0:0:0:0:
308,3,70598,1,0,3:0:0:0:
71,211,70767,2,0,P|60:166|72:119,1,88.000002685547,10|0,0:0|3:0,0:0:0:0:
248,169,71104,1,10,0:0:0:0:
51,356,71272,1,8,3:0:0:0:
51,356,71357,1,8,3:0:0:0:
51,356,71441,6,0,B|115:327|162:362|162:362|191:342|184:307|147:283,1,191.999994140625,6|8,3:2|0:0,0:0:0:0:
248,143,71946,1,2,0:0:0:0:
395,347,72115,2,0,B|331:318|284:353|284:353|255:333|262:298|299:274,1,191.999994140625,2|8,3:2|0:0,0:0:0:0:
471,33,72621,1,2,0:0:0:0:
471,33,72705,1,2,0:0:0:0:
471,33,72789,6,0,L|496:271,1,223.999993164063,6|8,3:2|0:0,0:0:0:0:
479,372,73295,1,2,0:0:0:0:
348,281,73463,2,0,P|333:224|344:168,1,95.9999970703126,2|0,3:2|0:0,0:0:0:0:
296,360,73800,2,0,P|239:344|196:306,1,95.9999970703126,10|0,0:0|0:0,0:0:0:0:
40,222,74137,6,0,L|130:209,1,64,2|0,3:2|0:0,0:0:0:0:
155,23,74475,2,0,L|166:137,1,80,10|0,0:2|0:0,0:0:0:0:
370,142,74812,2,0,L|270:153,1,95.9999970703126,2|0,3:2|0:0,0:0:0:0:
232,376,75149,2,0,L|220:257,1,111.999996582031,10|0,0:0|0:0,0:0:0:0:
473,70,75486,6,0,B|502:45|505:11|505:11|533:98|508:207,1,256,6|10,3:2|0:0,0:0:0:0:
500,297,75991,1,2,0:0:0:0:
392,169,76160,1,2,3:2:0:0:
295,124,76328,1,2,0:0:0:0:
157,166,76497,1,10,0:0:0:0:
84,339,76666,1,2,0:0:0:0:
40,104,76834,6,0,B|80:86|80:86|142:140|98:232,1,191.999994140625,6|8,3:2|0:0,0:0:0:0:
6,346,77340,1,2,0:0:0:0:
273,360,77508,2,0,B|291:320|291:320|237:258|145:302,1,191.999994140625,2|8,3:2|0:0,0:0:0:0:
0,367,78014,1,2,0:0:0:0:
121,137,78182,6,0,B|151:126|191:124|191:124|229:131|261:162|261:162|297:173|370:151,1,240.000009155274,6|8,3:2|0:0,0:0:0:0:
504,36,78688,1,2,0:0:0:0:
452,216,78857,2,0,L|439:105,1,95.9999970703126,2|0,3:2|0:0,0:0:0:0:
352,279,79194,6,0,B|318:348|402:377|402:377|473:336|443:278,1,240,6|0,3:2|0:0,0:0:0:0:
361,209,79531,6,0,B|341:155|412:127|412:127|487:164|451:219,1,223.999993164063,6|8,3:2|0:0,0:0:0:0:
401,375,80036,1,0,0:0:0:0:
253,323,80205,2,0,L|139:335,1,95.9999970703126,0|0,3:0|0:0,0:0:0:0:
34,354,80542,1,10,0:0:0:0:
131,60,80711,1,2,0:0:0:0:
131,60,80795,1,2,0:0:0:0:
131,60,80879,6,0,B|69:10|21:64|21:64|-2:115|37:194,1,256,4|8,3:2|0:0,0:0:0:0:
135,316,81385,1,0,0:0:0:0:
209,207,81553,2,0,L|221:93,1,95.9999970703126,2|0,3:2|0:0,0:0:0:0:
227,75,81806,1,2,0:0:0:0:
227,75,81890,1,8,0:0:0:0:
310,200,82059,1,2,0:0:0:0:
432,17,82227,6,0,P|511:62|513:184,1,223.999993164063,6|8,3:2|0:0,0:0:0:0:
512,313,82733,2,0,P|465:299|412:316,1,95.9999970703126,2|0,0:0|3:0,0:0:0:0:
329,371,83070,2,0,P|282:382|237:368,1,95.9999970703126,2|8,0:0|0:0,0:0:0:0:
98,143,83407,1,2,0:0:0:0:
98,143,83491,1,2,0:0:0:0:
98,143,83576,6,0,B|97:183|88:204|88:204|109:233|113:267|113:267|96:307|91:373,1,223.999993164063,2|8,3:2|0:0,0:0:0:0:
22,261,84081,1,0,0:0:0:0:
177,179,84250,2,0,L|285:189,1,95.9999970703126,2|0,3:2|0:0,0:0:0:0:
312,197,84503,1,2,0:0:0:0:
312,197,84587,1,8,0:0:0:0:
182,320,84755,1,2,0:0:0:0:
7,74,84924,6,0,P|70:113|102:229,1,191.999994140625,4|8,3:2|0:0,0:0:0:0:
1,310,85430,2,0,P|58:293|104:314,1,95.9999970703126,2|0,0:0|3:0,0:0:0:0:
196,359,85767,2,0,P|179:301|200:255,1,95.9999970703126,2|8,0:0|0:0,0:0:0:0:
324,93,86104,1,2,0:0:0:0:
324,93,86188,1,2,0:0:0:0:
324,93,86272,5,2,3:2:0:0:
330,247,86441,1,2,0:0:0:0:
402,58,86609,5,10,0:0:0:0:
406,293,86778,1,2,0:2:0:0:
486,30,86946,5,2,3:2:0:0:
482,339,87115,1,2,0:0:0:0:
249,170,87284,6,0,L|103:164,1,120,10|0,0:0|0:0,0:0:0:0:
77,173,87621,6,0,L|310:183,1,223.999993164063,4|8,3:2|0:0,0:0:0:0:
416,248,88126,1,2,0:0:0:0:
484,139,88295,2,0,P|492:92|466:40,1,95.9999970703126,2|0,3:2|0:0,0:0:0:0:
300,182,88632,1,8,3:0:0:0:
271,144,88716,1,8,3:0:0:0:
264,97,88800,1,8,3:0:0:0:
279,52,88884,1,8,3:0:0:0:
315,20,88969,5,10,0:0:0:0:
160,307,89137,1,10,0:0:0:0:
156,329,89643,6,0,B|123:308|103:333|103:333|78:303|94:241,1,128,10|0,0:0|0:0,0:0:0:0:
86,172,89896,2,0,B|53:192|33:167|33:167|8:197|24:260,1,128,10|0,0:0|0:0,0:0:0:0:
16,308,90149,2,0,L|10:363,1,51.999997619629,10|0,0:0|0:0,0:0:0:0:
173,214,90317,6,0,L|277:205,1,88.000002685547,12|0,3:2|0:0,0:0:0:0:
354,89,90654,2,0,L|250:80,1,88.000002685547,10|2,0:2|0:0,0:0:0:0:
484,29,90991,2,0,P|493:72|488:124,1,88.000002685547,2|0,3:2|0:0,0:0:0:0:
399,256,91328,2,0,P|390:213|395:161,1,88.000002685547,10|0,0:0|0:0,0:0:0:0:
490,349,91666,5,2,3:2:0:0:
393,169,91834,2,0,B|350:157|350:157|304:169,1,88.000002685547,2|8,0:0|0:0,0:0:0:0:
165,319,92171,2,0,B|247:295|247:295|336:328,1,176.000005371094,2|2,0:0|0:0,0:0:0:0:
155,143,92677,1,10,0:0:0:0:
80,248,92845,6,0,L|68:358,1,88.000002685547,2|0,0:0|3:0,0:0:0:0:
41,125,93182,1,2,0:0:0:0:
165,355,93351,1,10,0:0:0:0:
165,337,93688,1,2,3:2:0:0:
165,319,94025,1,10,0:0:0:0:
165,301,94362,5,2,3:2:0:0:
249,126,94531,2,0,L|336:115,1,88.000002685547,2|8,0:0|0:0,0:0:0:0:
493,276,94868,2,0,B|447:248|419:282|419:282|384:241|407:154,1,200,2|2,0:0|0:0,0:0:0:0:
479,9,95373,2,0,B|443:30|422:3|422:3|395:35|413:103,1,162.000000617981,10|0,0:0|0:0,0:0:0:0:
403,170,95711,6,0,B|360:182|360:182|318:167,1,88.000002685547,6|0,3:2|0:0,0:0:0:0:
503,307,96048,2,0,B|491:264|491:264|506:222,1,88.000002685547,10|0,0:2|0:0,0:0:0:0:
397,363,96385,2,0,P|353:356|306:370,1,88.000002685547,2|0,3:2|0:0,0:0:0:0:
177,258,96722,2,0,P|221:265|268:251,1,88.000002685547,10|0,0:0|0:0,0:0:0:0:
101,114,97059,5,2,3:2:0:0:
63,344,97227,2,0,L|52:243,1,88.000002685547,2|8,0:0|0:0,0:0:0:0:
235,365,97564,2,0,L|216:189,1,176.000005371094,2|2,0:0|0:0,0:0:0:0:
222,27,98070,1,10,0:0:0:0:
328,263,98239,1,8,3:0:0:0:
328,263,98323,1,8,3:0:0:0:
328,263,98407,5,6,3:2:0:0:
45,99,98576,1,2,3:2:0:0:
45,116,98913,1,0,3:0:0:0:
32,207,99081,2,0,P|56:201|111:215,1,64,8|0,0:0|3:0,0:0:0:0:
177,353,99418,5,10,0:0:0:0:
266,64,99587,1,6,3:2:0:0:
266,81,99924,1,4,3:3:0:0:
357,17,100093,1,8,3:0:0:0:
357,17,100177,1,8,3:0:0:0:
357,17,100261,1,4,3:0:0:0:
413,203,100430,6,0,B|385:249|450:279|450:279|510:253|494:215,1,186.000001419067,14|0,3:2|0:0,0:0:0:0:
425,129,100767,2,0,B|415:86|482:70|482:70|543:113|506:156,1,186.000001419067,10|8,0:0|3:0,0:0:0:0:
451,276,101104,6,0,B|390:329|315:328|249:254|278:191|283:181|280:189|314:147|314:72|204:3|98:56|94:181|94:181|107:204|98:285|37:326|-60:309|-65:228|-54:162|32:113|125:122|135:205|109:336|228:210|304:186|256:110|160:82|153:157|165:197,1,1151.99996484375,6|0,3:2|0:0,0:0:0:0:
