osu file format v14

[General]
AudioFilename: audio.mp3
AudioLeadIn: 0
PreviewTime: 49025
Countdown: 0
SampleSet: Soft
StackLeniency: 0.7
Mode: 0
LetterboxInBreaks: 0
WidescreenStoryboard: 1

[Editor]
Bookmarks: 14137,14306,14390,14559,17508,28295,33688,36385,60739,63351,75402,75486,75570,75654,75739,75823,77003,77171,77255,77424,77593,79531,80879,93267,93435,93520,93688,93857,94025,94109,98154,98323,98407
DistanceSpacing: 1
BeatDivisor: 4
GridSize: 16
TimelineZoom: 2.999999

[Metadata]
Title:Innocent Princess
TitleUnicode:イノセント・プリンセス
Artist:Sasaki Sayaka
ArtistUnicode:佐咲紗花
Creator:tomatas95
Version:Insane
Source:若葉色のカルテット
Tags:Wakaba iro no Quartet Kemonomimi Lump of sugar galgame visual novel op opening short version japanese eroge video game pop j-pop jpop
BeatmapID:2763064
BeatmapSetID:1260506

[Difficulty]
HPDrainRate:6
CircleSize:4
OverallDifficulty:7.5
ApproachRate:9
SliderMultiplier:1.6
SliderTickRate:1

[Events]
//Background and Video events
Video,-250,"op.avi"
0,0,"Hiyoriwaifuuu.jpg",0,0
//Break Periods
//Storyboard Layer 0 (Background)
//Storyboard Layer 1 (Fail)
//Storyboard Layer 2 (Pass)
//Storyboard Layer 3 (Foreground)
//Storyboard Layer 4 (Overlay)
//Storyboard Sound Samples

[TimingPoints]
1329,337.078651685393,4,2,1,70,1,0
1329,-100,4,2,1,70,0,0
2003,-100,4,2,2,70,0,0
2508,-100,4,2,1,70,0,0
3014,-100,4,2,2,70,0,0
3351,-100,4,2,1,70,0,0
4025,-100,4,2,2,70,0,0
4194,-100,4,2,1,70,0,0
4699,-100,4,2,2,70,0,0
4868,-100,4,2,1,70,0,0
5373,-90.9090909090909,4,2,2,60,0,0
5626,-90.9090909090909,4,2,2,5,0,0
5711,-83.3333333333333,4,2,1,70,0,0
5963,-100,4,2,1,5,0,0
6048,-76.9230769230769,4,2,1,75,0,0
6300,-100,4,2,1,5,0,0
6385,-62.5,4,2,1,80,0,0
6553,-62.5,4,2,1,70,0,0
6722,-90.9090909090909,4,2,2,70,0,0
7059,-90.9090909090909,4,2,1,70,0,0
12031,-90.9090909090909,4,2,1,5,0,0
12115,-90.9090909090909,4,2,2,70,0,0
12284,-90.9090909090909,4,2,2,70,0,0
12452,-90.9090909090909,4,2,1,70,0,0
14812,-90.9090909090909,4,2,2,70,0,0
14980,-90.9090909090909,4,2,1,70,0,0
15991,-90.9090909090909,4,2,2,70,0,0
16160,-90.9090909090909,4,2,1,70,0,0
16834,-90.9090909090909,4,2,2,70,0,0
17003,-90.9090909090909,4,2,1,70,0,0
17508,-125,4,2,3,60,0,0
28211,-125,4,2,3,60,0,0
28295,-125,4,2,3,60,0,0
30907,-125,4,2,3,60,0,0
30991,-125,4,2,3,60,0,0
31244,-125,4,2,3,5,0,0
31328,-125,4,2,3,60,0,0
33604,-125,4,2,3,5,0,0
33688,-125,4,2,3,60,0,0
35289,-125,4,2,3,5,0,0
35373,-125,4,2,3,60,0,0
36216,-125,4,2,1,60,0,0
36385,-125,4,2,2,60,0,0
36553,-125,4,2,1,70,0,0
37059,-125,4,2,1,70,0,0
37564,-125,4,2,1,70,0,0
38070,-125,4,2,1,70,0,0
38407,-125,4,2,1,70,0,0
39081,-100,4,2,3,60,0,0
44306,-100,4,2,1,60,0,0
44475,-100,4,2,3,70,0,0
44812,-100,4,2,3,55,0,0
45486,-100,4,2,1,60,0,0
45823,-100,4,2,3,70,0,0
46160,-100,4,2,3,55,0,0
46834,-100,4,2,1,60,0,0
47171,-100,4,2,3,75,0,0
47340,-100,4,2,1,75,0,0
48688,-125,4,2,1,50,0,0
49194,-100,4,2,2,70,0,0
49531,-100,4,2,1,60,0,0
49868,-83.3333333333333,4,2,2,80,0,1
50036,-83.3333333333333,4,2,1,80,0,1
50542,-83.3333333333333,4,2,1,80,0,1
50711,-83.3333333333333,4,2,1,80,0,1
51216,-83.3333333333333,4,2,2,80,0,1
51385,-83.3333333333333,4,2,1,80,0,1
52564,-83.3333333333333,4,2,1,80,0,1
52733,-83.3333333333333,4,2,1,80,0,1
52902,-83.3333333333333,4,2,1,80,0,1
53913,-71.4285714285714,4,2,2,80,0,1
54081,-83.3333333333333,4,2,1,80,0,1
54418,-83.3333333333333,4,2,1,80,0,1
55261,-83.3333333333333,4,2,2,80,0,1
55430,-83.3333333333333,4,2,1,80,0,1
56609,-83.3333333333333,4,2,2,80,0,1
56778,-83.3333333333333,4,2,1,80,0,1
57958,-83.3333333333333,4,2,1,80,0,1
58295,-83.3333333333333,4,2,1,80,0,1
59306,-71.4285714285714,4,2,2,80,0,1
59475,-83.3333333333333,4,2,1,80,0,1
60654,-83.3333333333333,4,2,2,80,0,1
60823,-83.3333333333333,4,2,1,80,0,1
60906,-83.3333333333333,4,2,2,5,0,1
60991,-83.3333333333333,4,2,1,80,0,1
62003,-83.3333333333333,4,2,1,80,0,1
62171,-83.3333333333333,4,2,1,80,0,1
63351,-83.3333333333333,4,2,1,80,0,1
63520,-83.3333333333333,4,2,1,80,0,1
63604,-83.3333333333333,4,2,1,5,0,1
63689,-83.3333333333333,4,2,1,80,0,1
64699,-83.3333333333333,4,2,2,80,0,1
64868,-83.3333333333333,4,2,1,80,0,1
66048,-83.3333333333333,4,2,2,80,0,1
66217,-83.3333333333333,4,2,1,80,0,1
68323,-83.3333333333333,4,2,1,5,0,1
68408,-83.3333333333333,4,2,1,80,0,1
68744,-83.3333333333333,4,2,2,80,0,1
68913,-83.3333333333333,4,2,1,80,0,1
70093,-90.9090909090909,4,2,2,70,0,0
70767,-90.9090909090909,4,2,1,70,0,0
71441,-83.3333333333333,4,2,2,80,0,1
71609,-83.3333333333333,4,2,1,80,0,1
72789,-83.3333333333333,4,2,2,80,0,1
72957,-83.3333333333333,4,2,1,80,0,1
74137,-83.3333333333333,4,2,1,80,0,1
74305,-83.3333333333333,4,2,1,80,0,1
74475,-83.3333333333333,4,2,1,80,0,1
75486,-71.4285714285714,4,2,2,80,0,1
75823,-83.3333333333333,4,2,1,80,0,1
76834,-83.3333333333333,4,2,2,80,0,1
77003,-83.3333333333333,4,2,1,80,0,1
78182,-83.3333333333333,4,2,2,80,0,1
78351,-83.3333333333333,4,2,1,80,0,1
79194,-71.4285714285714,4,2,3,80,0,1
79446,-83.3333333333333,4,2,3,5,0,1
79531,-83.3333333333333,4,2,2,80,0,1
79699,-83.3333333333333,4,2,1,80,0,1
80879,-83.3333333333333,4,2,2,80,0,1
81048,-83.3333333333333,4,2,1,80,0,1
82227,-83.3333333333333,4,2,2,80,0,1
82396,-83.3333333333333,4,2,1,80,0,1
82479,-83.3333333333333,4,2,2,5,0,1
82564,-83.3333333333333,4,2,1,80,0,1
83576,-83.3333333333333,4,2,1,80,0,1
83745,-83.3333333333333,4,2,1,80,0,1
84924,-83.3333333333333,4,2,2,80,0,1
85093,-83.3333333333333,4,2,1,80,0,1
85176,-83.3333333333333,4,2,2,5,0,1
85261,-83.3333333333333,4,2,1,80,0,1
86272,-83.3333333333333,4,2,1,80,0,1
86441,-83.3333333333333,4,2,1,80,0,1
86609,-83.3333333333333,4,2,1,85,0,1
86946,-83.3333333333333,4,2,1,90,0,1
87284,-83.3333333333333,4,2,1,95,0,1
87536,-83.3333333333333,4,2,1,5,0,1
87621,-83.3333333333333,4,2,2,80,0,1
87790,-83.3333333333333,4,2,1,80,0,1
89643,-76.9230769230769,4,2,1,80,0,1
89812,-76.9230769230769,4,2,1,80,0,1
89896,-76.9230769230769,4,2,1,80,0,1
90064,-76.9230769230769,4,2,1,80,0,1
90148,-76.9230769230769,4,2,1,80,0,1
90317,-100,4,2,2,70,0,0
90486,-100,4,2,2,70,0,0
90654,-100,4,2,1,70,0,0
95626,-100,4,2,1,5,0,0
95710,-100,4,2,2,70,0,0
95879,-100,4,2,2,70,0,0
96048,-100,4,2,1,70,0,0
98407,-100,4,2,2,70,0,0
98575,-100,4,2,1,70,0,0
99586,-100,4,2,2,70,0,0
99755,-100,4,2,1,70,0,0
100429,-100,4,2,2,70,0,0
100598,-100,4,2,1,70,0,0
101104,-250,4,2,2,70,0,0
101441,-100,4,2,2,70,0,0
102452,-100,4,2,2,70,0,0
103800,-100,4,2,2,70,0,0
105486,-100,4,2,2,70,0,0
106497,-250,4,2,2,20,0,0

[Colours]
Combo1 : 241,158,84
Combo2 : 106,177,249
Combo3 : 250,150,175
Combo4 : 220,236,104

[HitObjects]
69,57,1329,5,0,3:2:0:0:
105,190,1497,1,2,0:2:0:0:
56,41,1666,1,10,0:0:0:0:
118,206,1834,1,2,0:0:0:0:
203,73,2003,2,0,P|266:45|360:78,1,160,8|8,3:2|0:0,0:0:0:0:
392,212,2508,5,2,3:2:0:0:
350,69,2676,1,10,0:0:0:0:
403,228,2845,1,2,0:0:0:0:
497,73,3014,2,0,P|433:45|339:78,1,160,8|8,0:0|0:0,0:0:0:0:
275,195,3520,1,2,3:2:0:0:
172,91,3688,1,10,0:0:0:0:
94,224,3857,2,0,L|15:219,1,80,2|12,3:2|0:0,0:0:0:0:
182,187,4194,5,2,0:0:0:0:
223,328,4362,1,10,0:0:0:0:
201,167,4531,1,2,0:0:0:0:
241,350,4699,2,0,L|330:357,1,80,8|0,0:0|3:0,0:0:0:0:
429,259,5036,2,0,L|340:266,1,80,10|8,0:0|3:0,0:0:0:0:
308,270,5289,1,8,3:0:0:0:
308,270,5373,6,0,P|277:213|298:152,1,132.00000402832,4|0,3:2|0:0,0:0:0:0:
295,100,5711,6,0,P|236:73|165:104,1,143.999995605469,2|0,3:2|0:0,0:0:0:0:
132,193,6048,6,0,P|161:256|125:331,1,155.999992858887,2|0,3:2|0:0,0:0:0:0:
29,236,6385,6,0,L|23:108,1,128,2|8,3:2|3:0,0:0:0:0:
58,38,6637,1,8,3:0:0:0:
58,38,6722,6,0,P|107:28|146:44,1,88.000002685547,4|0,3:2|0:0,0:0:0:0:
275,119,7059,2,0,P|226:109|187:125,1,88.000002685547,10|0,0:2|0:0,0:0:0:0:
370,179,7396,2,0,L|373:69,1,88.000002685547,2|0,3:2|0:0,0:0:0:0:
497,0,7733,2,0,L|499:87,1,88.000002685547,10|0,0:0|0:0,0:0:0:0:
468,245,8070,5,2,3:2:0:0:
372,91,8239,2,0,P|328:81|281:95,1,88.000002685547,2|8,0:0|0:0,0:0:0:0:
197,215,8576,2,0,P|270:189|362:242,1,176.000005371094,2|2,0:0|0:0,0:0:0:0:
458,384,9081,1,10,0:0:0:0:
369,358,9250,2,0,L|280:361,1,88.000002685547,2|0,0:0|3:0,0:0:0:0:
143,384,9587,5,2,0:0:0:0:
197,215,9755,1,10,0:0:0:0:
11,327,10093,5,2,3:2:0:0:
197,181,10430,1,10,0:0:0:0:
0,206,10767,5,2,3:2:0:0:
88,46,10935,2,0,L|81:139,1,88.000002685547,2|8,0:0|0:0,0:0:0:0:
210,5,11272,2,0,L|196:188,1,176.000005371094,2|2,0:0|0:0,0:0:0:0:
322,0,11778,2,0,L|311:144,1,132.00000402832,10|0,0:0|0:0,0:0:0:0:
305,214,12115,6,0,P|351:206|395:224,1,88.000002685547,4|0,3:2|0:0,0:0:0:0:
263,304,12452,2,0,P|217:296|173:314,1,88.000002685547,10|0,0:2|0:0,0:0:0:0:
31,326,12789,2,0,L|36:238,1,88.000002685547,2|0,3:2|0:0,0:0:0:0:
168,138,13126,2,0,L|162:225,1,88.000002685547,10|0,0:0|0:0,0:0:0:0:
51,92,13463,5,2,3:2:0:0:
204,27,13632,2,0,L|291:21,1,88.000002685547,2|8,0:0|0:0,0:0:0:0:
168,138,13969,2,0,L|350:125,1,176.000005371094,2|2,0:0|0:0,0:0:0:0:
497,60,14475,1,10,0:0:0:0:
446,225,14643,1,10,3:2:0:0:
446,225,14727,1,8,3:0:0:0:
446,225,14812,5,6,3:2:0:0:
364,30,14980,1,2,3:2:0:0:
342,23,15317,1,0,3:0:0:0:
343,125,15486,2,0,L|249:116,1,88.000002685547,8|0,0:0|3:0,0:0:0:0:
112,2,15823,5,10,0:0:0:0:
156,194,15991,1,6,3:2:0:0:
155,216,16328,1,4,3:3:0:0:
67,159,16497,2,0,L|64:110,2,44.0000013427735,8|8|4,3:0|3:0|3:0,0:0:0:0:
43,288,16834,6,0,P|86:277|136:294,1,88.000002685547,14|0,3:2|3:0,0:0:0:0:
283,184,17171,2,0,P|240:173|190:190,1,88.000002685547,10|8,0:0|3:0,0:0:0:0:
156,194,17424,1,8,3:0:0:0:
156,194,17508,6,0,L|149:345,2,128,6|10|0,3:2|0:0|3:0,0:0:0:0:
138,105,18351,1,0,0:0:0:0:
196,36,18520,2,0,P|240:30|274:44,1,64,8|2,0:0|0:0,0:0:0:0:
348,103,18857,6,0,L|352:18,1,64,2|0,3:3|0:0,0:0:0:0:
390,229,19194,2,0,L|443:263,1,64,10|0,0:0|0:0,0:0:0:0:
406,154,19531,2,0,L|462:124,1,64,2|0,3:2|0:0,0:0:0:0:
317,252,19868,2,0,L|313:336,1,64,10|0,0:0|0:0,0:0:0:0:
276,124,20205,6,0,P|221:88|166:53,2,128,2|10|0,3:3|0:0|3:0,0:0:0:0:
351,173,21048,1,0,0:0:0:0:
303,248,21216,2,0,P|296:286|311:327,1,64,10|2,0:0|0:0,0:0:0:0:
191,369,21553,6,0,P|198:331|183:290,1,64,2|0,3:3|0:0,0:0:0:0:
137,150,21890,2,0,P|130:180|136:212,1,64,10|0,0:0|0:0,0:0:0:0:
55,286,22227,2,0,P|85:293|117:287,1,64,2|0,3:2|0:0,0:0:0:0:
274,233,22564,2,0,P|236:226|195:241,1,64,10|0,0:0|0:0,0:0:0:0:
164,260,22817,1,2,0:0:0:0:
164,260,22902,6,0,L|156:128,2,128,2|8|0,3:3|0:0|3:0,0:0:0:0:
183,347,23744,1,0,0:0:0:0:
270,367,23913,2,0,L|350:364,1,64,10|2,0:0|0:0,0:0:0:0:
435,305,24250,6,0,L|438:385,1,64,2|0,3:3|0:0,0:0:0:0:
367,254,24587,2,0,L|364:174,1,64,10|0,0:0|0:0,0:0:0:0:
498,185,24924,2,0,L|501:249,1,64,2|0,3:2|0:0,0:0:0:0:
428,123,25261,2,0,L|425:59,1,64,10|0,0:0|0:0,0:0:0:0:
430,19,25514,1,2,0:0:0:0:
430,19,25598,6,0,P|373:2|307:21,1,128,2|8,3:3|0:0,0:0:0:0:
289,119,26104,1,2,0:0:0:0:
187,19,26272,2,0,P|244:2|310:21,1,128,2|8,3:2|0:0,0:0:0:0:
289,119,26778,1,2,0:0:0:0:
182,191,26946,6,0,L|114:189,1,64,2|0,3:3|0:0,0:0:0:0:
255,276,27284,2,0,L|257:208,1,64,10|0,0:2|0:0,0:0:0:0:
170,349,27621,2,0,L|238:351,1,64,2|0,3:2|0:0,0:0:0:0:
57,361,27958,2,0,P|40:325|58:261,1,96,10|0,0:0|0:0,0:0:0:0:
75,234,28295,6,0,P|89:199|65:109,1,128,2|10,3:3|0:0,0:0:0:0:
175,29,28800,2,0,P|161:64|185:154,1,128,2|2,0:0|0:0,0:0:0:0:
250,214,29306,1,8,0:0:0:0:
331,135,29475,6,0,L|340:-4,1,128,2|0,3:2|0:0,0:0:0:0:
449,14,29980,2,0,L|444:77,1,64,8|0,0:0|0:0,0:0:0:0:
421,192,30317,2,0,P|452:198|483:190,1,64,2|0,3:2|0:0,0:0:0:0:
331,135,30654,2,0,P|286:117|233:134,1,96,10|0,0:0|3:0,0:0:0:0:
191,181,30991,6,0,L|183:298,1,96,4|0,3:2|0:0,0:0:0:0:
181,318,31328,1,8,0:0:0:0:
292,360,31497,2,0,L|285:296,1,64,2|0,0:0|3:0,0:0:0:0:
390,196,31834,2,0,L|383:259,1,64,2|8,0:0|0:0,0:0:0:0:
307,122,32171,1,2,0:0:0:0:
459,77,32340,6,0,B|490:98|490:98|494:203,1,128,4|8,3:2|0:0,0:0:0:0:
497,309,32845,1,0,0:0:0:0:
383,259,33014,2,0,P|351:253|321:258,1,64,2|0,3:2|0:0,0:0:0:0:
208,173,33351,2,0,P|248:187|307:163,1,96,10|0,0:0|0:0,0:0:0:0:
314,136,33688,6,0,P|317:98|255:28,1,128,2|8,3:2|0:0,0:0:0:0:
164,0,34194,1,2,0:0:0:0:
48,73,34362,2,0,L|42:214,1,128,2|8,3:2|0:0,0:0:0:0:
34,290,34868,1,2,0:0:0:0:
167,366,35036,6,0,P|184:322|161:260,1,96,2|0,3:2|0:0,0:0:0:0:
149,239,35373,1,10,0:0:0:0:
128,136,35542,1,2,0:0:0:0:
219,60,35711,2,0,L|290:57,1,64,2|0,3:2|0:0,0:0:0:0:
416,39,36048,2,0,L|419:110,1,64,10|8,0:0|3:3,0:0:0:0:
424,152,36300,1,8,3:3:0:0:
424,152,36385,5,6,3:2:0:0:
428,296,36553,1,2,0:2:0:0:
429,134,36722,1,10,0:0:0:0:
423,314,36890,1,2,0:0:0:0:
315,143,37059,2,0,P|279:150|233:234,1,128,10|8,3:2|0:0,0:0:0:0:
148,371,37564,5,2,3:2:0:0:
83,241,37732,1,10,0:0:0:0:
161,384,37901,1,2,0:0:0:0:
232,222,38070,2,0,P|246:188|204:102,1,128,10|8,0:0|0:0,0:0:0:0:
157,7,38576,1,2,0:0:0:0:
20,63,38744,2,0,L|13:149,1,64,10|10,0:0|3:2,0:0:0:0:
27,176,38997,1,8,3:0:0:0:
27,176,39081,6,0,P|99:147|180:184,1,160,6|8,3:2|0:0,0:0:0:0:
244,253,39587,1,0,0:0:0:0:
176,331,39755,2,0,P|104:360|23:323,1,160,2|8,3:2|0:0,0:0:0:0:
471,363,40430,6,0,L|475:203,1,160,2|8,3:0|0:0,0:0:0:0:
446,105,40935,1,0,0:0:0:0:
385,191,41104,2,0,L|380:350,1,160,2|8,3:2|0:0,0:0:0:0:
446,105,41778,6,0,P|393:85|297:119,1,160,2|10,3:0|0:0,0:0:0:0:
195,187,42284,2,0,P|122:215|49:186,1,160,2|2,0:0|0:0,0:0:0:0:
15,72,42789,1,8,0:0:0:0:
106,5,42958,1,2,0:0:0:0:
230,107,43126,6,0,L|225:279,1,160,2|8,3:0|0:0,0:0:0:0:
173,361,43632,1,2,0:0:0:0:
78,287,43800,2,0,L|83:115,1,160,2|8,3:2|0:0,0:0:0:0:
178,0,44306,1,8,3:0:0:0:
178,0,44390,1,8,3:0:0:0:
178,0,44475,5,14,0:0:0:0:
253,194,44643,1,10,0:2:0:0:
253,194,45486,5,6,3:2:0:0:
381,87,45654,1,0,3:0:0:0:
378,227,45823,5,14,0:2:0:0:
270,36,45991,1,10,0:0:0:0:
270,36,46834,1,6,3:2:0:0:
291,216,47003,1,8,3:0:0:0:
291,216,47087,1,8,3:0:0:0:
291,216,47171,5,6,3:2:0:0:
398,27,47340,1,10,0:0:0:0:
398,27,47677,5,10,0:0:0:0:
512,218,47846,1,10,0:0:0:0:
512,218,48182,5,10,0:0:0:0:
317,109,48351,1,10,0:0:0:0:
317,109,48688,2,0,L|310:55,2,32,8|8|4,3:0|3:0|3:2,0:0:0:0:
322,215,49025,1,4,3:0:0:0:
210,79,49194,5,4,3:2:0:0:
181,262,49362,1,4,3:0:0:0:
118,54,49531,1,8,3:0:0:0:
87,63,49615,1,8,3:0:0:0:
61,81,49699,1,8,3:0:0:0:
42,105,49783,1,8,3:0:0:0:
27,130,49868,6,0,B|25:177|25:177|41:208|41:208|23:237|23:237|22:332,1,191.999994140625,6|8,3:2|0:0,0:0:0:0:
122,194,50373,1,2,0:0:0:0:
183,341,50542,2,0,P|267:377|358:312,1,191.999994140625,2|8,3:2|0:0,0:0:0:0:
415,240,51048,1,0,0:0:0:0:
263,96,51216,6,0,B|261:142|261:142|276:192|276:192|261:298,1,191.999994140625,6|8,3:2|0:0,0:0:0:0:
142,190,51722,1,2,0:0:0:0:
263,96,51890,2,0,P|312:86|361:104,1,95.9999970703126,2|0,3:2|0:0,0:0:0:0:
507,237,52227,2,0,P|458:227|409:245,1,95.9999970703126,10|0,0:0|0:0,0:0:0:0:
496,42,52564,6,0,B|508:85|508:85|498:139,1,95.9999970703126,2|0,3:2|0:0,0:0:0:0:
415,240,52902,2,0,B|427:197|427:197|417:143,1,95.9999970703126,10|0,0:2|0:0,0:0:0:0:
279,50,53239,2,0,B|291:93|291:93|281:147,1,95.9999970703126,2|0,3:2|0:0,0:0:0:0:
128,255,53576,2,0,B|140:212|140:212|130:158,1,95.9999970703126,10|0,0:0|0:0,0:0:0:0:
354,337,53913,6,0,B|281:302|281:302|227:375|142:327,1,223.999993164063,6|8,3:2|0:0,0:0:0:0:
32,278,54418,1,2,0:0:0:0:
29,377,54587,1,2,3:2:0:0:
128,255,54755,1,2,0:0:0:0:
2,185,54924,1,10,0:0:0:0:
79,47,55093,1,2,0:0:0:0:
222,163,55261,6,0,P|292:168|350:67,1,191.999994140625,6|8,3:2|0:0,0:0:0:0:
458,3,55767,1,2,0:0:0:0:
508,157,55935,2,0,L|505:369,1,191.999994140625,2|8,3:2|0:0,0:0:0:0:
421,236,56441,1,2,0:0:0:0:
315,359,56609,6,0,B|267:340|267:340|228:345|191:370|191:370|122:354,1,191.999994140625,6|8,3:2|0:0,0:0:0:0:
21,307,57115,1,2,0:0:0:0:
161,230,57284,2,0,P|208:220|265:236,1,95.9999970703126,2|0,3:2|0:0,0:0:0:0:
110,151,57621,2,0,P|63:141|6:157,1,95.9999970703126,10|0,0:0|0:0,0:0:0:0:
202,137,57958,6,0,B|217:100|217:100|211:44,1,95.9999970703126,2|0,3:2|0:0,0:0:0:0:
110,151,58295,2,0,B|73:135|73:135|37:91,1,95.9999970703126,10|0,0:2|0:0,0:0:0:0:
291,163,58632,2,0,B|327:147|327:147|363:103,1,95.9999970703126,2|0,3:2|0:0,0:0:0:0:
116,241,58969,2,0,B|79:256|79:256|23:250,1,95.9999970703126,10|0,0:0|0:0,0:0:0:0:
198,355,59306,6,0,B|256:312|256:312|340:305|388:369,1,223.999993164063,6|8,3:2|0:0,0:0:0:0:
512,362,59812,1,0,0:0:0:0:
444,233,59980,2,0,P|419:172|460:98,2,143.999995605469,2|2|2,3:2|0:0|0:0,0:0:0:0:
342,20,60654,6,0,B|302:7|302:7|266:54|300:122,1,143.999995605469,6|0,3:2|0:0,0:0:0:0:
310,141,60991,1,8,0:0:0:0:
284,250,61160,2,0,L|188:236,1,95.9999970703126,2|0,0:0|3:2,0:0:0:0:
358,315,61497,2,0,L|373:209,1,95.9999970703126,2|8,0:0|0:0,0:0:0:0:
250,356,61834,1,2,0:0:0:0:
250,356,61918,1,2,0:0:0:0:
250,356,62003,6,0,B|226:364|193:365|193:365|163:363|136:334|136:334|102:328|56:345,1,191.999994140625,2|8,3:2|0:2,0:0:0:0:
0,246,62508,1,0,0:0:0:0:
116,149,62677,2,0,P|132:81|92:11,2,143.999995605469,2|2|2,3:2|0:0|0:0,0:0:0:0:
255,15,63351,6,0,B|290:-7|308:20|308:20|289:66|305:113,1,143.999995605469,2|0,3:2|0:0,0:0:0:0:
314,144,63688,1,10,0:0:0:0:
391,244,63857,2,0,L|403:138,1,95.9999970703126,2|0,0:0|3:0,0:0:0:0:
240,250,64194,2,0,L|228:144,1,95.9999970703126,2|8,0:0|0:0,0:0:0:0:
317,294,64531,1,2,0:0:0:0:
481,203,64699,6,0,P|494:123|411:55,1,191.999994140625,4|8,3:2|0:0,0:0:0:0:
297,9,65205,1,2,0:0:0:0:
151,85,65373,2,0,P|142:134|163:186,1,95.9999970703126,2|0,3:2|0:0,0:0:0:0:
278,248,65711,2,0,P|287:199|266:147,1,95.9999970703126,10|0,0:0|0:0,0:0:0:0:
253,372,66048,6,0,B|204:388|204:388|159:329|195:254,1,191.999994140625,6|8,3:2|0:0,0:0:0:0:
272,156,66553,1,2,0:0:0:0:
178,37,66722,2,0,P|131:26|82:46,1,95.9999970703126,2|0,3:2|0:0,0:0:0:0:
14,146,67059,2,0,L|10:266,1,95.9999970703126,8|2,0:0|0:0,0:0:0:0:
10,375,67396,5,2,3:2:0:0:
115,235,67564,1,2,0:0:0:0:
119,384,67733,1,10,0:0:0:0:
114,208,67901,1,2,0:0:0:0:
236,383,68070,2,0,P|252:338|223:232,1,143.999995605469,2|0,3:2|0:0,0:0:0:0:
217,204,68407,1,10,0:0:0:0:
142,98,68576,1,2,0:0:0:0:
296,9,68744,6,0,B|310:56|285:103|285:103|319:139|372:114,1,191.999994140625,6|8,3:2|0:0,0:0:0:0:
454,4,69250,1,2,0:0:0:0:
510,163,69418,2,0,P|521:209|418:292,1,191.999994140625,2|8,3:2|0:0,0:0:0:0:
274,190,69924,1,8,3:0:0:0:
274,190,70008,1,8,3:0:0:0:
274,190,70093,6,0,B|221:189|221:189|200:168|173:161|173:161|142:168|98:167,1,176.000005371094,6|8,3:2|0:0,0:0:0:0:
0,105,70598,1,0,3:0:0:0:
28,266,70767,2,0,L|25:353,1,88.000002685547,10|0,0:0|3:0,0:0:0:0:
127,245,71104,1,10,0:0:0:0:
268,368,71272,1,8,3:0:0:0:
268,368,71357,1,8,3:0:0:0:
268,368,71441,6,0,B|313:388|339:354|339:354|297:295|325:238,1,191.999994140625,6|8,3:2|0:0,0:0:0:0:
320,117,71946,1,2,0:0:0:0:
424,283,72115,2,0,L|435:69,1,191.999994140625,2|8,3:2|0:0,0:0:0:0:
327,9,72621,1,2,0:0:0:0:
327,9,72705,1,2,0:0:0:0:
327,9,72789,6,0,L|314:223,1,191.999994140625,6|8,3:2|0:0,0:0:0:0:
300,341,73295,1,2,0:0:0:0:
203,230,73463,2,0,L|102:221,1,95.9999970703126,2|0,3:2|0:0,0:0:0:0:
44,348,73800,2,0,L|145:339,1,95.9999970703126,10|0,0:0|0:0,0:0:0:0:
10,235,74137,6,0,P|0:190|15:134,1,95.9999970703126,2|0,3:2|0:0,0:0:0:0:
122,27,74475,2,0,P|78:40|37:81,1,95.9999970703126,10|0,0:2|0:0,0:0:0:0:
24,262,74812,2,0,P|2:221|2:163,1,95.9999970703126,2|0,3:2|0:0,0:0:0:0:
156,26,75149,2,0,P|109:27|59:56,1,95.9999970703126,10|0,0:0|0:0,0:0:0:0:
39,291,75486,6,0,B|80:291|109:311|109:311|150:288|150:288|196:328|266:287,1,223.999993164063,6|10,3:2|0:0,0:0:0:0:
382,214,75991,1,2,0:0:0:0:
395,313,76160,1,2,3:2:0:0:
283,223,76328,1,2,0:0:0:0:
467,163,76497,1,10,0:0:0:0:
398,335,76666,1,2,0:0:0:0:
357,117,76834,6,0,B|317:99|268:140|268:140|223:100|166:115,1,191.999994140625,6|8,3:2|0:0,0:0:0:0:
64,134,77340,1,2,0:0:0:0:
182,17,77508,2,0,B|235:30|268:-4|268:-4|306:32|359:18,1,191.999994140625,2|8,3:2|0:0,0:0:0:0:
459,86,78014,1,2,0:0:0:0:
326,256,78182,6,0,B|277:272|277:272|232:213|275:123,1,191.999994140625,6|8,3:2|0:0,0:0:0:0:
267,2,78688,1,2,0:0:0:0:
118,72,78857,2,0,L|111:173,1,95.9999970703126,2|0,3:2|0:0,0:0:0:0:
38,314,79194,2,0,B|9:301|3:269|3:269|62:226|112:249,1,167.999994873047,6|0,3:2|0:0,0:0:0:0:
136,317,79531,6,0,B|139:347|188:375|188:375|228:317|206:269,1,191.999994140625,6|8,3:2|0:0,0:0:0:0:
195,143,80036,1,0,0:0:0:0:
292,245,80205,2,0,L|396:250,1,95.9999970703126,0|0,3:0|0:0,0:0:0:0:
512,221,80542,1,10,0:0:0:0:
449,340,80711,1,2,0:0:0:0:
400,164,80879,6,0,B|375:111|411:77|411:77|457:113|512:86,1,191.999994140625,4|8,3:2|0:0,0:0:0:0:
512,221,81385,1,0,0:0:0:0:
400,164,81553,2,0,P|341:142|268:180,2,143.999995605469,2|2|2,3:2|0:0|0:0,0:0:0:0:
412,322,82227,6,0,B|358:367|295:319|295:319|328:291,1,143.999995605469,6|0,3:2|0:0,0:0:0:0:
306,268,82564,1,8,0:0:0:0:
183,239,82733,2,0,L|180:355,1,95.9999970703126,2|0,0:0|3:0,0:0:0:0:
70,274,83070,2,0,L|73:158,1,95.9999970703126,2|8,0:0|0:0,0:0:0:0:
30,19,83407,1,2,0:0:0:0:
30,19,83491,1,2,0:0:0:0:
30,19,83576,6,0,B|80:13|80:13|115:19|140:44|140:44|224:37,1,191.999994140625,2|8,3:2|0:0,0:0:0:0:
319,33,84081,1,0,0:0:0:0:
287,149,84250,2,0,B|222:170|222:170|145:152,2,143.999995605469,2|2|2,3:2|0:0|0:0,0:0:0:0:
442,122,84924,6,0,B|454:120|471:96|471:96|470:231,1,143.999995605469,4|0,3:2|0:0,0:0:0:0:
464,253,85261,1,8,0:0:0:0:
381,350,85430,2,0,P|333:365|279:348,1,95.9999970703126,2|0,0:0|3:0,0:0:0:0:
227,194,85767,2,0,P|242:242|225:296,1,95.9999970703126,2|8,0:0|0:0,0:0:0:0:
148,326,86104,1,2,0:0:0:0:
36,172,86272,6,0,L|26:267,1,95.9999970703126,2|2,3:2|0:0,0:0:0:0:
74,384,86609,1,10,0:0:0:0:
147,235,86778,1,2,0:2:0:0:
231,377,86946,1,2,3:2:0:0:
329,202,87115,1,2,0:0:0:0:
481,373,87284,2,0,P|500:320|464:234,1,143.999995605469,10|0,0:0|0:0,0:0:0:0:
462,202,87621,6,0,B|476:155|441:116|441:116|410:71|445:3,1,191.999994140625,4|8,3:2|0:0,0:0:0:0:
325,0,88126,1,2,0:0:0:0:
368,170,88295,2,0,P|318:183|268:169,1,95.9999970703126,2|0,3:2|0:0,0:0:0:0:
168,29,88632,1,8,3:0:0:0:
165,65,88716,1,8,3:0:0:0:
164,105,88800,1,8,3:0:0:0:
163,143,88884,1,8,3:0:0:0:
162,182,88969,5,10,0:0:0:0:
0,72,89137,1,10,0:0:0:0:
0,72,89643,6,0,B|-10:27|37:11|37:11|81:20|75:80,2,155.999992858887,10|10|10,0:0|0:0|0:0,0:0:0:0:
163,64,90317,6,0,P|203:56|262:77,1,80,12|0,3:2|0:0,0:0:0:0:
242,205,90654,2,0,P|202:213|143:192,1,80,10|2,0:2|0:0,0:0:0:0:
333,99,90991,2,0,L|338:-9,1,80,2|0,3:2|0:0,0:0:0:0:
420,190,91328,2,0,L|425:298,1,80,10|0,0:0|0:0,0:0:0:0:
497,112,91666,5,2,3:2:0:0:
423,269,91834,2,0,P|385:279|326:259,1,80,2|8,0:0|0:0,0:0:0:0:
199,292,92171,2,0,P|222:217|178:144,1,160,2|2,0:0|0:0,0:0:0:0:
39,38,92677,1,10,0:0:0:0:
38,133,92845,2,0,L|34:245,1,80,2|0,0:0|3:0,0:0:0:0:
20,360,93182,5,2,0:0:0:0:
132,228,93351,1,10,0:0:0:0:
274,384,93688,5,2,3:2:0:0:
132,202,94025,1,10,0:0:0:0:
308,249,94362,5,2,3:2:0:0:
229,87,94531,2,0,L|320:85,1,80,2|8,0:0|0:0,0:0:0:0:
512,163,94868,2,0,P|443:144|354:169,1,160,2|2,0:0|0:0,0:0:0:0:
493,241,95373,2,0,P|442:224|377:251,1,120,10|0,0:0|0:0,0:0:0:0:
345,318,95711,6,0,L|256:313,1,80,6|0,3:2|0:0,0:0:0:0:
193,223,96048,2,0,L|282:218,1,80,10|0,0:2|0:0,0:0:0:0:
112,314,96385,2,0,P|103:275|111:236,1,80,2|0,3:2|0:0,0:0:0:0:
17,124,96722,2,0,P|25:162|17:201,1,80,10|0,0:0|0:0,0:0:0:0:
115,36,97059,5,2,3:2:0:0:
199,200,97227,2,0,L|205:99,1,80,2|8,0:0|0:0,0:0:0:0:
292,295,97564,2,0,L|301:129,1,160,2|2,0:0|0:0,0:0:0:0:
311,7,98070,1,10,0:0:0:0:
406,191,98239,1,8,3:0:0:0:
406,191,98323,1,8,3:0:0:0:
406,191,98407,5,6,3:2:0:0:
512,0,98576,1,2,3:2:0:0:
498,18,98913,1,0,3:0:0:0:
510,107,99081,2,0,L|505:196,1,80,8|0,0:0|3:0,0:0:0:0:
446,293,99418,5,10,0:0:0:0:
375,71,99587,1,6,3:2:0:0:
361,53,99924,1,4,3:3:0:0:
302,140,100093,2,0,L|305:183,2,40,8|8|4,3:0|3:0|3:0,0:0:0:0:
217,16,100430,2,0,L|119:10,1,80,14|2,3:2|3:2,0:0:0:0:
5,80,100767,2,0,L|10:176,1,80,10|10,0:0|3:2,0:0:0:0:
17,198,101019,1,8,3:0:0:0:
17,198,101104,6,0,B|76:200|140:158|144:85|144:85|161:172|181:219|257:220|258:244|258:244|305:304|301:389|228:408|144:394|113:304|184:247|261:215|261:215|312:196|327:171|335:150|335:150|352:142|371:133|371:133|384:115|396:89|443:85,1,1024,6|0,3:2|0:0,0:0:0:0:
