osu file format v14

[General]
AudioFilename: audio.mp3
AudioLeadIn: 0
PreviewTime: 201520
Countdown: 0
SampleSet: Soft
StackLeniency: 0.3
Mode: 0
LetterboxInBreaks: 0
WidescreenStoryboard: 1

[Editor]
Bookmarks: 1380,17559,28346,39132,49919,71492,95762,117335,128121,149694,168571,180705,191492,202278,213065,226548,238514
DistanceSpacing: 1.4
BeatDivisor: 4
GridSize: 4
TimelineZoom: 1.3

[Metadata]
Title:Innocent Princess
TitleUnicode:イノセント・プリンセス
Artist:Sasaki Sayaka
ArtistUnicode:佐咲紗花
Creator:Andrea
Version:Ex & Kuroame's Hard
Source:若葉色のカルテット
Tags:-_Ex_- Kuroame Sekai Sekaii Sekai-nyan osuplayer111 Wakaba-iro Wakaba iro no Quartet Kemonomimi Lump of sugar galgame visual novel op opening japanese eroge video game videogame pop j-pop jpop collab collaboration
BeatmapID:2791820
BeatmapSetID:1348210

[Difficulty]
HPDrainRate:5
CircleSize:4
OverallDifficulty:6
ApproachRate:8
SliderMultiplier:1.4
SliderTickRate:1

[Events]
//Background and Video events
0,0,"BG.jpg",0,0
//Break Periods
//Storyboard Layer 0 (Background)
//Storyboard Layer 1 (Fail)
//Storyboard Layer 2 (Pass)
//Storyboard Layer 3 (Foreground)
//Storyboard Layer 4 (Overlay)
//Storyboard Sound Samples

[TimingPoints]
1380,337.078651685393,4,2,1,70,1,0
1380,-111.111111111111,4,2,1,70,0,0
5003,-111.111111111111,4,2,1,5,0,0
5087,-111.111111111111,4,2,1,70,0,0
6773,-100,4,2,1,70,0,0
8542,-100,4,2,1,5,0,0
8627,-100,4,2,1,70,0,0
11576,-100,4,2,1,5,0,0
11660,-100,4,2,1,70,0,0
12082,-100,4,2,1,5,0,0
12166,-100,4,2,1,70,0,0
13430,-100,4,2,1,5,0,0
13514,-100,4,2,1,70,0,0
14273,-100,4,2,1,5,0,0
14357,-100,4,2,1,70,0,0
15031,-100,4,2,1,60,0,0
16885,-100,4,2,1,70,0,0
17138,-100,4,2,1,5,0,0
17222,-100,4,2,1,70,0,0
17559,-125,4,2,1,60,0,0
28262,-125,4,2,1,5,0,0
28346,-125,4,2,1,60,0,0
35340,-125,4,2,1,5,0,0
35424,-125,4,2,1,60,0,0
39132,-133.333333333333,4,2,1,60,0,0
49245,-100,4,2,1,70,0,0
49919,-90.9090909090909,4,2,1,80,0,1
52531,-90.9090909090909,4,2,1,5,0,1
52615,-90.9090909090909,4,2,1,80,0,1
52868,-90.9090909090909,4,2,1,5,0,1
52953,-90.9090909090909,4,2,1,80,0,1
53542,-90.9090909090909,4,2,1,5,0,1
53627,-90.9090909090909,4,2,1,80,0,1
58262,-90.9090909090909,4,2,1,5,0,1
58346,-90.9090909090909,4,2,1,80,0,1
58936,-90.9090909090909,4,2,1,5,0,1
59020,-90.9090909090909,4,2,1,80,0,1
66014,-90.9090909090909,4,2,1,5,0,1
66099,-90.9090909090909,4,2,1,80,0,1
71408,-100,4,2,1,80,0,0
71492,-90.9090909090909,4,2,1,80,0,1
74104,-90.9090909090909,4,2,1,5,0,1
74188,-90.9090909090909,4,2,1,80,0,1
74441,-90.9090909090909,4,2,1,5,0,1
74526,-90.9090909090909,4,2,1,80,0,1
75115,-90.9090909090909,4,2,1,5,0,1
75200,-90.9090909090909,4,2,1,80,0,1
90368,-100,4,2,1,70,0,0
95340,-100,4,2,1,5,0,0
95424,-100,4,2,1,70,0,0
95762,-125,4,2,1,60,0,0
97026,-125,4,2,1,5,0,0
97110,-125,4,2,1,60,0,0
106464,-125,4,2,1,5,0,0
106548,-125,4,2,1,60,0,0
113542,-125,4,2,1,5,0,0
113627,-125,4,2,1,60,0,0
117335,-133.333333333333,4,2,1,60,0,0
119947,-133.333333333333,4,2,1,5,0,0
120031,-133.333333333333,4,2,1,60,0,0
125846,-133.333333333333,4,2,1,5,0,0
125930,-133.333333333333,4,2,1,60,0,0
126351,-133.333333333333,4,2,1,5,0,0
126436,-133.333333333333,4,2,1,60,0,0
127447,-100,4,2,1,70,0,0
128121,-90.9090909090909,4,2,1,80,0,1
131071,-90.9090909090909,4,2,1,5,0,1
131155,-90.9090909090909,4,2,1,80,0,1
131745,-90.9090909090909,4,2,1,5,0,1
131829,-90.9090909090909,4,2,1,80,0,1
136464,-90.9090909090909,4,2,1,5,0,1
136548,-90.9090909090909,4,2,1,80,0,1
137138,-90.9090909090909,4,2,1,5,0,1
137222,-90.9090909090909,4,2,1,80,0,1
144217,-90.9090909090909,4,2,1,5,0,1
144301,-90.9090909090909,4,2,1,80,0,1
149610,-100,4,2,1,80,0,0
149694,-90.9090909090909,4,2,1,80,0,1
152644,-90.9090909090909,4,2,1,5,0,1
152728,-90.9090909090909,4,2,1,80,0,1
153318,-90.9090909090909,4,2,1,5,0,1
153402,-90.9090909090909,4,2,1,80,0,1
162419,-90.9090909090909,4,2,1,5,0,1
162503,-90.9090909090909,4,2,1,80,0,1
168571,-100,4,2,1,70,0,0
171183,-100,4,2,1,5,0,0
171267,-100,4,2,1,70,0,0
178009,-125,4,2,1,70,0,0
180621,-125,4,2,1,5,0,0
180705,-125,4,2,1,70,0,0
186099,-125,4,2,1,60,0,0
188458,-125,4,2,1,70,0,0
191492,-90.9090909090909,4,2,1,80,0,1
196801,-90.9090909090909,4,2,1,5,0,1
196885,-90.9090909090909,4,2,1,80,0,1
202278,-90.9090909090909,4,2,1,80,0,1
204891,-90.9090909090909,4,2,1,5,0,1
204975,-90.9090909090909,4,2,1,80,0,1
205228,-90.9090909090909,4,2,1,5,0,1
205312,-90.9090909090909,4,2,1,80,0,1
205902,-90.9090909090909,4,2,1,5,0,1
205986,-90.9090909090909,4,2,1,80,0,1
210284,-90.9090909090909,4,2,1,5,0,1
210368,-90.9090909090909,4,2,1,80,0,1
221155,-100,4,2,1,70,0,0
229245,-100,4,2,1,70,0,0
230677,-100,4,2,1,5,0,0
230762,-100,4,2,1,70,0,0
231520,-100,4,2,1,5,0,0
231604,-100,4,2,1,70,0,0
231941,-100,4,2,1,70,0,0
232026,-100,4,2,1,60,0,0
233290,-100,4,2,1,50,0,0
234638,-100,4,2,1,40,0,0
235986,-100,4,2,1,30,0,0
237335,-100,4,2,1,20,0,0
238009,-100,4,2,1,10,0,0
238514,-100,4,2,1,5,0,0

[Colours]
Combo1 : 148,148,148
Combo2 : 255,128,191
SliderBorder : 200,200,200
SliderTrackOverride : 255,128,191

[HitObjects]
52,78,1380,5,12,0:0:0:0:
52,78,1548,1,2,0:0:0:0:
110,144,1717,2,0,P|98:184|90:209,1,62.9999980773926,10|0,0:0|0:0,0:0:0:0:
43,275,2054,2,0,P|96:240|168:274,1,125.999996154785,10|8,0:0|0:0,0:0:0:0:
202,328,2559,1,2,0:0:0:0:
263,267,2728,5,10,0:0:0:0:
263,267,2896,1,0,0:0:0:0:
222,191,3065,2,0,P|232:145|248:50,1,125.999996154785,10|8,0:0|0:0,0:0:0:0:
308,8,3571,2,0,P|348:33|370:47,1,62.9999980773926,2|10,0:0|0:0,0:0:0:0:
444,11,3908,6,0,B|408:51|408:51|429:144,1,125.999996154785,2|2,0:0|0:0,0:0:0:0:
492,183,4413,1,10,0:0:0:0:
492,183,4582,1,2,0:0:0:0:
417,229,4750,2,0,P|370:214|305:194,1,94.499997116089,10|0,0:0|0:0,0:0:0:0:
299,168,5087,1,10,0:0:0:0:
228,212,5256,5,8,0:0:0:0:
228,212,5340,1,8,0:0:0:0:
228,212,5424,2,0,P|241:275|244:293,1,62.9999980773926,12|0,0:0|0:0,0:0:0:0:
172,331,5762,2,0,P|127:313|101:305,1,62.9999980773926,10|0,0:0|0:0,0:0:0:0:
245,377,6099,2,0,P|289:359|315:351,1,62.9999980773926,12|0,0:0|0:0,0:0:0:0:
391,306,6436,1,10,0:0:0:0:
339,225,6604,5,8,0:0:0:0:
339,225,6688,1,8,0:0:0:0:
339,225,6773,2,0,P|352:182|358:157,1,70,12|0,0:0|0:0,0:0:0:0:
303,78,7110,2,0,P|257:100|226:118,1,70,10|0,0:0|0:0,0:0:0:0:
207,197,7447,2,0,P|158:175|122:157,1,70,2|0,1:0|0:0,0:0:0:0:
46,162,7784,2,0,P|55:115|61:84,1,70,10|0,0:0|0:0,0:0:0:0:
96,2,8121,5,2,1:0:0:0:
161,75,8290,1,2,0:0:0:0:
161,75,8627,2,0,P|217:56|293:31,1,140,2|2,0:0|0:0,0:0:0:0:
338,117,9132,1,10,0:0:0:0:
400,22,9301,6,0,P|447:41|468:49,1,70,2|0,0:0|1:0,0:0:0:0:
504,137,9638,1,2,0:0:0:0:
412,171,9806,2,0,P|373:158|339:147,1,70,10|0,0:0|0:0,0:0:0:0:
253,185,10144,2,0,P|264:228|272:258,1,70,2|0,1:0|0:0,0:0:0:0:
364,276,10481,2,0,P|353:322|345:352,1,70,10|0,0:0|0:0,0:0:0:0:
254,377,10818,5,2,1:0:0:0:
209,291,10986,1,2,0:0:0:0:
209,291,11323,2,0,P|154:263|87:293,1,140,2|2,0:0|0:0,0:0:0:0:
9,353,11829,2,0,L|2:267,1,70,10|0,0:0|0:0,0:0:0:0:
6,188,12166,6,0,P|44:196|83:208,1,70,4|0,1:2|0:0,0:0:0:0:
149,145,12503,2,0,P|191:132|223:123,1,70,10|0,0:0|0:0,0:0:0:0:
303,163,12840,2,0,P|292:198|281:234,1,70,2|0,1:0|0:0,0:0:0:0:
209,288,13177,2,0,P|220:326|227:355,1,70,10|0,0:0|0:0,0:0:0:0:
321,368,13514,5,2,1:0:0:0:
404,316,13683,1,2,0:0:0:0:
404,316,14020,2,0,P|431:273|396:195,1,140,2|2,0:0|0:0,0:0:0:0:
323,136,14526,2,0,B|312:191|308:209,1,70,10|8,0:0|0:0,0:0:0:0:
449,126,14863,5,4,1:2:0:0:
388,39,15031,1,10,0:0:0:0:
388,39,15368,5,2,0:0:0:0:
291,22,15537,2,0,P|258:37|228:52,1,70,8|0,1:2|0:0,0:0:0:0:
161,120,15874,5,10,1:2:0:0:
83,27,16042,1,2,1:0:0:0:
83,27,16379,5,0,1:0:0:0:
31,110,16548,2,0,L|-5:93,2,35,0|0|0,1:0|1:0|1:0,0:0:0:0:
108,170,16885,6,0,P|94:224|82:273,1,105,4|0,1:2|0:0,0:0:0:0:
120,301,17222,2,0,P|172:290|202:284,1,70,10|8,0:0|0:0,0:0:0:0:
231,204,17559,6,0,P|251:173|331:168,1,112,4|8,1:2|0:0,0:0:0:0:
401,192,18065,1,0,0:0:0:0:
342,260,18233,2,0,P|352:291|362:321,1,56,2|0,1:0|0:0,0:0:0:0:
288,367,18571,1,8,0:0:0:0:
288,367,18739,1,0,0:0:0:0:
233,298,18908,6,0,P|202:292|172:297,1,56,2|0,1:0|0:0,0:0:0:0:
114,359,19245,2,0,P|103:329|93:302,1,56,8|0,0:0|0:0,0:0:0:0:
20,255,19582,2,0,P|31:225|41:198,1,56,2|0,1:0|0:0,0:0:0:0:
125,180,19919,2,0,P|114:150|104:123,1,56,8|0,0:0|0:0,0:0:0:0:
43,62,20256,6,0,P|97:72|170:79,1,112,2|8,1:0|0:0,0:0:0:0:
220,18,20762,1,0,0:0:0:0:
262,94,20930,2,0,P|257:121|251:149,1,56,2|0,1:0|0:0,0:0:0:0:
201,219,21267,1,8,0:0:0:0:
201,219,21436,1,0,0:0:0:0:
113,201,21604,6,0,P|117:228|123:256,1,56,2|0,1:0|0:0,0:0:0:0:
193,312,21941,2,0,P|221:297|248:297,1,56,8|0,0:0|0:0,0:0:0:0:
331,299,22278,2,0,P|334:326|337:354,1,56,2|0,1:0|0:0,0:0:0:0:
426,354,22615,2,0,P|429:326|432:298,1,56,8|0,0:0|0:0,0:0:0:0:
507,249,22953,6,0,P|454:253|407:207,1,112,2|8,1:0|0:0,0:0:0:0:
335,173,23458,1,0,0:0:0:0:
403,114,23627,2,0,P|406:76|408:52,1,56,2|0,1:0|0:0,0:0:0:0:
333,17,23964,1,8,0:0:0:0:
333,17,24132,1,0,0:0:0:0:
271,81,24301,6,0,P|241:68|220:59,1,56,2|0,1:0|0:0,0:0:0:0:
151,4,24638,2,0,P|125:14|99:25,1,56,8|0,0:0|0:0,0:0:0:0:
36,89,24975,2,0,P|28:119|33:148,1,56,2|0,1:0|0:0,0:0:0:0:
112,183,25312,2,0,P|149:169|176:163,1,56,8|0,0:0|0:0,0:0:0:0:
227,100,25649,6,0,P|266:73|326:86,1,112,2|8,1:0|0:0,0:0:0:0:
357,168,26155,1,0,0:0:0:0:
431,119,26323,2,0,P|409:179|393:226,1,112,2|8,1:0|0:0,0:0:0:0:
425,305,26829,1,0,0:0:0:0:
347,350,26997,6,0,P|316:342|279:334,1,56,2|0,1:0|0:0,0:0:0:0:
210,359,27335,1,10,0:0:0:0:
210,359,27503,1,0,0:0:0:0:
170,278,27672,2,0,P|179:240|190:212,1,56,2|0,1:0|0:0,0:0:0:0:
255,175,28009,2,0,P|248:119|243:76,1,84,10|0,0:0|0:0,0:0:0:0:
207,68,28346,6,0,P|165:78|138:86,1,56,2|0,1:2|0:0,0:0:0:0:
107,159,28683,1,8,0:0:0:0:
46,93,28851,2,0,P|57:48|64:18,1,56,2|0,0:0|1:0,0:0:0:0:
1,162,29188,2,0,P|7:189|14:216,1,56,2|8,0:0|0:0,0:0:0:0:
43,299,29526,6,0,P|97:283|160:272,1,112,2|0,0:0|0:0,0:0:0:0:
191,193,30031,2,0,P|227:207|256:218,1,56,10|0,0:0|0:0,0:0:0:0:
304,276,30368,2,0,P|256:285|227:296,1,56,2|0,1:0|0:0,0:0:0:0:
194,351,30705,2,0,P|230:365|259:376,1,56,10|0,0:0|0:0,0:0:0:0:
331,353,31042,6,0,P|373:317|442:329,1,112,2|8,1:0|0:0,0:0:0:0:
504,379,31548,1,0,0:0:0:0:
504,379,31717,2,0,P|488:314|477:265,1,112,2|8,1:0|0:0,0:0:0:0:
503,187,32222,1,0,0:0:0:0:
423,145,32391,6,0,P|371:164|307:187,1,112,2|8,1:0|0:0,0:0:0:0:
275,260,32896,1,0,0:0:0:0:
275,260,33065,2,0,P|226:241|162:218,1,112,2|8,1:0|0:0,0:0:0:0:
98,272,33571,1,0,0:0:0:0:
39,204,33739,6,0,B|26:162|26:162|53:92,1,112,2|8,1:0|0:0,0:0:0:0:
109,35,34245,1,0,0:0:0:0:
109,35,34413,2,0,P|148:47|176:56,1,56,2|0,1:0|0:0,0:0:0:0:
209,128,34750,2,0,P|245:116|273:107,1,56,8|0,0:0|0:0,0:0:0:0:
295,28,35087,6,0,P|334:10|383:18,1,84,2|0,1:0|0:0,0:0:0:0:
410,40,35424,2,0,P|399:83|389:115,1,56,8|0,0:0|0:0,0:0:0:0:
438,173,35762,2,0,P|477:164|507:157,1,56,2|0,1:0|0:0,0:0:0:0:
375,251,36099,1,8,0:0:0:0:
319,184,36267,6,0,L|328:148,2,28,8|8|4,0:0|0:0|1:2,0:0:0:0:
244,227,36604,1,2,0:0:0:0:
306,290,36773,2,0,P|297:327|291:353,1,56,10|2,0:0|0:0,0:0:0:0:
212,378,37110,2,0,P|159:360|103:343,1,112,2|8,1:0|0:0,0:0:0:0:
16,339,37615,1,2,0:0:0:0:
19,249,37784,6,0,P|34:208|42:187,1,56,2|2,1:0|0:0,0:0:0:0:
124,174,38121,2,0,P|112:121|98:54,1,112,10|0,0:0|1:0,0:0:0:0:
201,0,38627,2,0,P|192:38|184:76,1,56,2|8,0:0|0:0,0:0:0:0:
240,139,38964,5,8,0:0:0:0:
240,139,39048,1,8,0:0:0:0:
240,139,39132,2,0,P|277:105|343:110,1,105.000004005432,4|8,1:2|0:0,0:0:0:0:
384,164,39638,1,0,0:0:0:0:
459,127,39806,2,0,P|436:184|421:235,1,105.000004005432,2|8,1:0|0:0,0:0:0:0:
435,306,40312,1,0,0:0:0:0:
364,352,40481,6,0,P|327:325|257:336,1,105.000004005432,2|8,1:0|0:0,0:0:0:0:
200,369,40986,1,0,0:0:0:0:
148,302,41155,2,0,B|133:263|133:263|151:192,1,105.000004005432,2|8,1:0|0:0,0:0:0:0:
210,147,41660,1,0,0:0:0:0:
165,75,41829,6,0,P|120:86|90:91,1,52.5000020027161,2|0,1:0|0:0,0:0:0:0:
29,83,42166,1,8,0:0:0:0:
75,152,42335,2,0,P|66:192|61:219,1,52.5000020027161,2|0,0:0|1:0,0:0:0:0:
11,266,42672,2,0,P|20:309|25:336,1,52.5000020027161,0|8,0:0|0:0,0:0:0:0:
91,364,43009,1,0,0:0:0:0:
141,297,43177,6,0,P|181:268|245:279,1,105.000004005432,2|8,1:0|0:0,0:0:0:0:
272,345,43683,1,0,0:0:0:0:
329,286,43851,2,0,P|324:260|319:234,1,52.5000020027161,2|0,1:0|0:0,0:0:0:0:
261,177,44188,1,8,0:0:0:0:
317,114,44357,1,8,0:0:0:0:
317,114,44441,1,8,0:0:0:0:
317,114,44526,5,2,1:0:0:0:
239,65,44694,1,8,0:0:0:0:
239,65,45031,2,0,P|290:53|348:33,1,105.000004005432,2|0,0:0|0:0,0:0:0:0:
413,72,45537,2,0,P|409:107|405:139,1,52.5000020027161,12|0,0:0|0:0,0:0:0:0:
338,173,45874,5,12,0:0:0:0:
398,255,46042,1,8,0:0:0:0:
398,255,46379,2,0,P|350:233|293:252,1,105.000004005432,2|0,0:0|0:0,0:0:0:0:
248,310,46885,1,12,0:0:0:0:
217,232,47054,1,0,0:0:0:0:
217,232,47138,1,8,0:0:0:0:
217,232,47222,5,12,0:0:0:0:
166,324,47391,1,8,0:0:0:0:
166,324,47728,5,8,0:0:0:0:
115,232,47897,1,10,0:0:0:0:
115,232,48233,5,8,0:0:0:0:
64,324,48402,2,0,P|50:290|41:265,1,52.5000020027161,8|0,0:0|0:0,0:0:0:0:
22,193,48739,2,0,L|-15:178,2,26.2500010013581,8|8|12,0:0|0:0|0:0,0:0:0:0:
93,151,49076,1,8,0:0:0:0:
164,235,49245,6,0,P|199:222|232:212,1,70,2|0,1:0|0:0,0:0:0:0:
306,150,49582,2,0,P|272:139|223:124,1,70,8|8,0:0|0:0,0:0:0:0:
145,77,49919,6,0,P|179:32|288:43,1,154.000004699707,4|8,1:2|0:0,0:0:0:0:
355,89,50424,1,0,0:0:0:0:
308,186,50593,2,0,P|324:234|336:271,1,77.0000023498536,2|0,1:0|0:0,0:0:0:0:
405,334,50930,2,0,P|416:297|428:260,1,77.0000023498536,8|0,0:0|0:0,0:0:0:0:
317,340,51267,6,0,P|249:322|165:302,1,154.000004699707,2|8,1:0|0:0,0:0:0:0:
76,357,51773,1,0,0:0:0:0:
13,269,51941,2,0,P|28:209|37:174,1,77.0000023498536,2|0,1:0|0:0,0:0:0:0:
92,108,52278,2,0,P|107:168|116:203,1,77.0000023498536,8|0,0:0|0:0,0:0:0:0:
168,270,52615,6,0,P|221:247|289:222,1,115.50000352478,2|0,1:0|0:0,0:0:0:0:
307,188,52953,2,0,P|365:205|406:221,1,77.0000023498536,8|0,0:0|0:0,0:0:0:0:
484,188,53290,2,0,P|505:124|487:70,1,115.50000352478,2|0,1:0|0:0,0:0:0:0:
457,37,53627,2,0,P|405:57|373:68,1,77.0000023498536,8|0,0:0|0:0,0:0:0:0:
281,96,53964,6,0,B|190:91|226:47|111:53,1,154.000004699707,2|8,1:0|0:0,0:0:0:0:
34,27,54469,1,0,0:0:0:0:
6,131,54638,2,0,P|52:113|88:100,1,77.0000023498536,2|0,1:0|0:0,0:0:0:0:
155,178,54975,2,0,P|142:230|134:263,1,77.0000023498536,8|0,0:0|0:0,0:0:0:0:
46,309,55312,6,0,P|121:293|172:359,1,154.000004699707,2|8,1:0|0:0,0:0:0:0:
252,278,55818,1,0,0:0:0:0:
316,363,55986,2,0,P|368:340|402:325,1,77.0000023498536,2|0,1:0|0:0,0:0:0:0:
482,281,56323,2,0,P|430:258|396:243,1,77.0000023498536,8|0,0:0|0:0,0:0:0:0:
307,221,56660,6,0,B|279:168|279:168|312:78,1,154.000004699707,2|8,1:0|0:0,0:0:0:0:
385,4,57166,1,0,0:0:0:0:
473,65,57335,2,0,P|459:113|451:148,1,77.0000023498536,2|0,1:0|0:0,0:0:0:0:
390,224,57672,2,0,P|404:272|412:307,1,77.0000023498536,8|0,0:0|0:0,0:0:0:0:
320,358,58009,6,0,P|255:335|203:323,1,115.50000352478,2|0,1:2|0:0,0:0:0:0:
164,299,58346,2,0,P|122:317|82:337,1,77.0000023498536,8|0,0:0|0:0,0:0:0:0:
8,264,58683,2,0,P|23:204|38:143,1,115.50000352478,2|0,1:0|0:0,0:0:0:0:
49,102,59020,2,0,P|97:122|132:138,1,77.0000023498536,8|0,0:0|0:0,0:0:0:0:
177,40,59357,6,0,P|221:12|311:52,1,154.000004699707,2|8,1:0|0:0,0:0:0:0:
361,138,59863,1,0,0:0:0:0:
286,212,60031,2,0,P|233:193|165:177,2,115.50000352478,2|2|0,1:0|0:0|0:0,0:0:0:0:
360,290,60705,6,0,P|427:264|508:240,1,154.000004699707,4|8,1:2|0:0,0:0:0:0:
482,138,61211,2,0,P|445:151|396:167,1,77.0000023498536,2|0,0:0|1:0,0:0:0:0:
308,123,61548,2,0,P|271:110|225:94,1,77.0000023498536,0|8,0:0|0:0,0:0:0:0:
147,39,61885,6,0,P|69:26|31:95,1,154.000004699707,2|0,0:0|0:0,0:0:0:0:
25,188,62391,2,0,P|92:167|115:160,1,77.0000023498536,8|0,0:0|0:0,0:0:0:0:
168,244,62728,2,0,P|148:354|145:377,2,115.50000352478,2|2|0,1:0|0:0|0:0,0:0:0:0:
249,179,63402,6,0,P|319:183|353:274,1,154.000004699707,2|8,1:0|0:0,0:0:0:0:
347,354,63908,2,0,P|299:341|263:332,1,77.0000023498536,2|0,0:0|1:0,0:0:0:0:
167,325,64245,2,0,P|129:334|92:344,1,77.0000023498536,0|8,0:0|0:0,0:0:0:0:
26,259,64582,6,0,B|-1:207|-1:207|28:115,1,154.000004699707,2|0,0:0|0:0,0:0:0:0:
86,32,65087,2,0,P|133:53|168:66,1,77.0000023498536,8|0,0:0|0:0,0:0:0:0:
166,169,65424,2,0,P|213:148|245:135,1,77.0000023498536,2|0,1:0|0:0,0:0:0:0:
299,52,65762,2,0,P|357:14|425:36,1,115.50000352478,8|0,0:0|0:0,0:0:0:0:
451,36,66099,6,0,P|439:106|428:200,1,154.000004699707,4|8,1:2|0:0,0:0:0:0:
481,284,66604,1,0,0:0:0:0:
481,284,66773,2,0,P|429:239|350:260,1,154.000004699707,2|8,1:0|0:0,0:0:0:0:
280,338,67278,1,0,0:0:0:0:
208,259,67447,6,0,P|220:208|228:175,1,77.0000023498536,2|0,1:0|0:0,0:0:0:0:
317,135,67784,2,0,P|305:84|297:48,1,77.0000023498536,8|0,0:0|0:0,0:0:0:0:
203,16,68121,2,0,P|153:38|111:52,1,77.0000023498536,2|0,1:0|0:0,0:0:0:0:
35,9,68458,1,8,0:0:0:0:
35,9,68627,1,0,0:0:0:0:
6,112,68795,6,0,P|20:192|34:269,1,154.000004699707,2|8,1:2|0:0,0:0:0:0:
7,365,69301,1,0,0:0:0:0:
113,349,69469,2,0,B|207:342|167:303|273:297,1,154.000004699707,2|8,1:0|0:0,0:0:0:0:
318,214,69975,5,8,0:0:0:0:
318,214,70059,1,8,0:0:0:0:
318,214,70144,2,0,P|365:229|404:243,1,77.0000023498536,4|0,1:2|1:0,0:0:0:0:
490,194,70481,2,0,P|474:142|467:115,1,77.0000023498536,8|0,0:0|1:0,0:0:0:0:
402,42,70818,1,10,1:2:0:0:
402,42,70986,1,0,1:0:0:0:
338,125,71155,2,0,P|268:103|238:98,1,77.0000023498536,10|8,0:0|0:0,0:0:0:0:
225,86,71408,5,8,0:0:0:0:
225,86,71492,2,0,P|162:98|75:119,1,154.000004699707,4|8,1:2|0:0,0:0:0:0:
33,215,71997,1,0,0:0:0:0:
111,289,72166,2,0,P|155:268|186:255,1,77.0000023498536,2|0,1:0|0:0,0:0:0:0:
234,166,72503,2,0,P|275:187|306:197,1,77.0000023498536,8|2,0:0|0:0,0:0:0:0:
390,255,72840,6,0,P|316:248|282:323,1,154.000004699707,2|8,1:0|0:0,0:0:0:0:
193,370,73346,1,0,0:0:0:0:
139,279,73514,2,0,P|148:241|157:199,1,77.0000023498536,2|0,1:0|0:0,0:0:0:0:
55,166,73851,2,0,P|46:128|37:86,1,77.0000023498536,8|0,0:0|0:0,0:0:0:0:
119,22,74188,6,0,P|157:52|230:50,1,115.50000352478,2|0,1:0|0:0,0:0:0:0:
259,16,74526,2,0,P|304:5|347:0,1,77.0000023498536,8|0,0:0|0:0,0:0:0:0:
438,28,74863,2,0,P|421:88|408:149,1,115.50000352478,2|0,1:0|0:0,0:0:0:0:
363,168,75200,2,0,P|373:208|378:249,1,77.0000023498536,8|0,0:0|0:0,0:0:0:0:
474,287,75537,6,0,P|407:274|357:347,1,154.000004699707,2|8,1:0|0:0,0:0:0:0:
258,375,76042,1,0,0:0:0:0:
233,270,76211,2,0,P|193:259|152:251,1,77.0000023498536,2|0,1:0|0:0,0:0:0:0:
70,314,76548,2,0,P|59:274|51:233,1,77.0000023498536,8|0,0:0|0:0,0:0:0:0:
6,143,76885,6,0,P|71:153|166:163,1,154.000004699707,2|8,1:0|0:0,0:0:0:0:
227,79,77391,1,0,0:0:0:0:
258,180,77559,2,0,P|243:230|235:265,1,77.0000023498536,2|0,1:0|0:0,0:0:0:0:
296,340,77896,2,0,P|333:318|375:315,1,77.0000023498536,8|0,0:0|0:0,0:0:0:0:
457,372,78233,6,0,B|489:335|489:335|471:222,1,154.000004699707,2|8,1:0|0:0,0:0:0:0:
414,143,78739,1,0,0:0:0:0:
339,216,78908,2,0,P|294:198|250:189,1,77.0000023498536,2|0,1:0|0:0,0:0:0:0:
194,115,79245,2,0,P|239:97|280:85,1,77.0000023498536,12|0,0:0|0:0,0:0:0:0:
355,33,79582,6,0,P|286:16|205:0,1,154.000004699707,4|8,1:2|0:0,0:0:0:0:
122,63,80087,1,0,0:0:0:0:
24,16,80256,2,0,P|33:60|42:99,1,77.0000023498536,2|0,1:0|0:0,0:0:0:0:
126,164,80593,1,8,0:0:0:0:
126,164,80762,1,0,0:0:0:0:
35,218,80930,6,0,P|90:209|153:274,1,154.000004699707,4|8,1:2|0:0,0:0:0:0:
222,357,81436,1,0,0:0:0:0:
115,343,81604,2,0,P|60:333|-3:324,2,115.50000352478,2|2|0,1:0|0:0|0:0,0:0:0:0:
222,357,82278,6,0,B|298:374|280:312|378:333,1,154.000004699707,4|8,1:2|0:0,0:0:0:0:
474,315,82784,2,0,P|484:267|491:237,1,77.0000023498536,2|0,0:0|1:0,0:0:0:0:
388,202,83121,2,0,P|378:157|371:127,1,77.0000023498536,0|8,0:0|0:0,0:0:0:0:
463,72,83458,6,0,P|390:85|330:29,1,154.000004699707,2|0,0:0|0:0,0:0:0:0:
231,7,83964,2,0,P|190:20|142:31,1,77.0000023498536,8|0,0:0|0:0,0:0:0:0:
87,111,84301,2,0,P|74:58|54:-13,2,115.50000352478,2|2|0,1:0|0:0|0:0,0:0:0:0:
168,181,84975,6,0,P|219:138|299:153,1,154.000004699707,2|8,1:0|0:0,0:0:0:0:
377,79,85481,2,0,P|422:89|462:99,1,77.0000023498536,2|0,0:0|1:0,0:0:0:0:
499,191,85818,2,0,P|486:237|477:265,1,77.0000023498536,2|8,0:0|0:0,0:0:0:0:
506,368,86155,1,2,0:0:0:0:
398,366,86323,6,0,P|325:350|246:335,1,154.000004699707,2|8,1:0|0:0,0:0:0:0:
159,277,86829,1,0,0:0:0:0:
105,369,86997,2,0,P|61:355|32:346,1,77.0000023498536,2|0,1:0|0:0,0:0:0:0:
13,238,87335,2,0,P|57:224|86:215,1,77.0000023498536,8|0,0:0|0:0,0:0:0:0:
189,247,87672,6,0,P|213:200|167:115,1,154.000004699707,2|8,1:0|0:0,0:0:0:0:
66,97,88177,1,0,0:0:0:0:
146,25,88346,2,0,P|192:33|239:42,1,77.0000023498536,2|0,1:0|0:0,0:0:0:0:
304,120,88683,1,8,0:0:0:0:
304,120,88767,1,8,0:0:0:0:
304,120,88851,1,8,0:0:0:0:
395,63,89020,5,10,0:0:0:0:
400,185,89188,1,8,0:0:0:0:
400,185,89694,2,0,P|418:229|433:296,2,115.50000352478,4|12|0,1:2|0:0|1:0,0:0:0:0:
333,112,90368,6,0,P|299:93|262:95,1,70,4|0,1:2|0:0,0:0:0:0:
173,86,90705,2,0,P|189:128|200:170,1,70,8|0,0:0|0:0,0:0:0:0:
275,202,91042,2,0,P|259:244|248:286,1,70,2|0,1:0|0:0,0:0:0:0:
275,363,91379,2,0,P|309:345|349:345,1,70,8|0,0:0|0:0,0:0:0:0:
435,367,91717,5,2,1:0:0:0:
431,262,91885,1,2,0:0:0:0:
431,262,92222,2,0,P|411:206|377:109,1,140,2|2,0:0|0:0,0:0:0:0:
430,45,92728,2,0,P|386:40|330:31,1,70,10|0,0:0|1:0,0:0:0:0:
295,109,93065,5,2,1:0:0:0:
229,30,93233,1,2,1:0:0:0:
229,30,93571,5,0,1:0:0:0:
144,96,93739,2,0,P|162:141|172:167,1,70,2|0,1:0|0:0,0:0:0:0:
216,244,94076,5,2,1:0:0:0:
291,149,94245,1,2,1:0:0:0:
291,149,94582,5,0,1:0:0:0:
355,219,94750,2,0,L|390:205,2,35,0|0|0,1:0|1:0|1:0,0:0:0:0:
303,302,95087,6,0,P|261:282|204:307,1,105,2|0,1:0|0:0,0:0:0:0:
179,338,95424,2,0,P|142:326|104:315,1,70,2|0,1:0|1:0,0:0:0:0:
39,248,95762,5,2,1:0:0:0:
39,248,96604,1,0,1:0:0:0:
39,248,96688,1,0,1:0:0:0:
39,248,96773,2,0,P|28:196|19:149,1,84,12|0,0:0|0:0,0:0:0:0:
48,131,97110,6,0,P|93:148|126:159,1,56,4|0,1:2|0:0,0:0:0:0:
165,209,97447,2,0,P|210:192|243:184,1,56,8|0,0:0|0:0,0:0:0:0:
295,153,97784,2,0,P|282:109|274:86,1,56,2|0,1:0|0:0,0:0:0:0:
363,4,98121,2,0,P|354:30|346:57,1,56,8|0,0:0|0:0,0:0:0:0:
407,122,98458,6,0,P|434:176|411:223,1,112,2|8,1:0|0:0,0:0:0:0:
335,258,98964,1,0,0:0:0:0:
399,320,99132,2,0,P|438:304|464:294,1,56,2|0,1:0|0:0,0:0:0:0:
344,374,99469,1,8,0:0:0:0:
344,374,99638,1,0,0:0:0:0:
271,321,99806,6,0,P|229:336|203:344,1,56,2|0,1:0|0:0,0:0:0:0:
130,335,100144,2,0,P|143:283|148:264,1,56,8|0,0:0|0:0,0:0:0:0:
76,220,100481,2,0,P|39:230|13:237,1,56,2|0,1:0|0:0,0:0:0:0:
116,142,100818,2,0,P|153:152|179:159,1,56,8|0,0:0|0:0,0:0:0:0:
251,126,101155,6,0,P|264:76|221:26,1,112,2|8,1:0|0:0,0:0:0:0:
147,3,101660,1,0,0:0:0:0:
95,76,101829,2,0,P|52:67|30:63,1,56,2|0,1:0|0:0,0:0:0:0:
19,152,102166,1,8,0:0:0:0:
19,152,102335,1,0,0:0:0:0:
96,193,102503,6,0,P|141:179|166:172,1,56,2|0,1:0|0:0,0:0:0:0:
203,244,102840,2,0,P|245:227|270:220,1,56,8|0,0:0|0:0,0:0:0:0:
325,174,103177,2,0,P|370:191|395:195,1,56,2|0,1:0|0:0,0:0:0:0:
462,164,103514,2,0,P|471:214|474:241,1,56,8|0,0:0|0:0,0:0:0:0:
445,302,103851,6,0,P|387:285|329:269,1,112,2|8,1:0|0:0,0:0:0:0:
304,355,104357,1,0,0:0:0:0:
230,307,104526,2,0,P|187:275|123:289,1,112,2|8,1:0|0:0,0:0:0:0:
68,345,105031,1,0,0:0:0:0:
11,275,105200,6,0,P|22:227|29:196,1,56,2|0,1:0|0:0,0:0:0:0:
90,163,105537,2,0,P|79:115|72:84,1,56,10|0,0:0|0:0,0:0:0:0:
112,25,105874,2,0,P|157:45|185:57,1,56,2|0,1:0|0:0,0:0:0:0:
236,99,106211,2,0,P|278:79|336:58,1,84,10|0,0:0|0:0,0:0:0:0:
339,31,106548,6,0,P|386:47|414:54,1,56,2|0,1:0|0:0,0:0:0:0:
475,15,106885,1,8,0:0:0:0:
508,98,107054,2,0,P|497:142|489:176,1,56,2|0,0:0|1:0,0:0:0:0:
424,205,107391,2,0,P|435:249|443:283,1,56,0|8,0:0|0:0,0:0:0:0:
496,326,107728,6,0,P|454:301|393:323,1,112,2|0,0:0|0:0,0:0:0:0:
309,301,108233,2,0,P|322:251|326:234,1,56,10|0,0:0|0:0,0:0:0:0:
388,187,108571,2,0,P|375:137|371:120,1,56,2|0,1:0|0:0,0:0:0:0:
311,68,108908,2,0,P|273:84|245:95,1,56,10|0,0:0|0:0,0:0:0:0:
179,53,109245,6,0,P|108:23|65:45,1,112,2|8,1:0|0:0,0:0:0:0:
15,96,109750,1,0,0:0:0:0:
15,96,109919,2,0,P|28:148|43:210,1,112,2|8,1:0|0:0,0:0:0:0:
10,285,110424,1,0,0:0:0:0:
95,312,110593,6,0,P|134:294|208:271,1,112,2|8,1:0|0:0,0:0:0:0:
276,323,111099,1,0,0:0:0:0:
276,323,111267,2,0,P|249:271|274:210,1,112,2|8,1:0|0:0,0:0:0:0:
319,155,111773,1,0,0:0:0:0:
236,128,111941,6,0,B|219:63|219:63|252:22,1,112,2|8,1:0|0:0,0:0:0:0:
333,9,112447,1,0,0:0:0:0:
333,9,112615,2,0,P|379:24|400:29,1,56,2|0,1:0|0:0,0:0:0:0:
444,95,112953,2,0,P|417:102|390:111,1,56,8|0,0:0|0:0,0:0:0:0:
340,186,113290,6,0,P|325:233|351:277,1,84,2|0,1:0|0:0,0:0:0:0:
369,290,113627,2,0,P|411:277|446:269,1,56,8|0,0:0|0:0,0:0:0:0:
320,360,113964,2,0,P|278:347|244:339,1,56,2|0,1:0|0:0,0:0:0:0:
219,269,114301,1,8,0:0:0:0:
164,339,114469,6,0,L|177:382,2,28,8|8|4,0:0|0:0|1:2,0:0:0:0:
85,295,114806,1,2,0:0:0:0:
135,220,114975,2,0,P|184:233|214:241,1,56,10|2,0:0|0:0,0:0:0:0:
245,169,115312,2,0,P|294:141|359:167,1,112,2|8,1:0|0:0,0:0:0:0:
397,224,115818,1,2,0:0:0:0:
473,181,115986,6,0,P|461:140|456:112,1,56,2|2,1:0|0:0,0:0:0:0:
487,42,116323,2,0,P|430:56|365:74,1,112,10|0,0:0|1:0,0:0:0:0:
291,92,116829,2,0,P|246:73|225:64,1,56,2|8,0:0|0:0,0:0:0:0:
173,29,117166,5,8,0:0:0:0:
173,29,117250,1,8,0:0:0:0:
173,29,117335,2,0,P|114:23|82:65,1,105.000004005432,4|8,1:2|0:0,0:0:0:0:
119,129,117840,1,0,0:0:0:0:
63,191,118009,2,0,P|112:178|181:163,1,105.000004005432,2|8,1:0|0:0,0:0:0:0:
224,107,118514,1,0,0:0:0:0:
281,165,118683,6,0,B|303:198|303:198|285:264,1,105.000004005432,2|8,1:0|0:0,0:0:0:0:
316,336,119188,1,0,0:0:0:0:
239,364,119357,2,0,P|202:336|139:347,1,105.000004005432,2|8,1:0|0:0,0:0:0:0:
63,360,119863,1,0,0:0:0:0:
80,278,120031,6,0,P|69:237|58:208,1,52.5000020027161,2|0,1:0|0:0,0:0:0:0:
95,151,120368,1,8,0:0:0:0:
37,89,120537,2,0,P|48:48|59:19,1,52.5000020027161,2|0,0:0|1:0,0:0:0:0:
135,38,120874,2,0,P|143:62|149:88,1,52.5000020027161,0|8,0:0|0:0,0:0:0:0:
183,165,121211,1,0,0:0:0:0:
234,98,121379,6,0,P|264:74|334:76,1,105.000004005432,2|8,1:0|0:0,0:0:0:0:
402,36,121885,1,0,0:0:0:0:
449,105,122054,2,0,P|436:144|430:172,1,52.5000020027161,2|0,1:0|0:0,0:0:0:0:
359,193,122391,1,8,0:0:0:0:
432,250,122559,1,8,0:0:0:0:
432,250,122644,1,8,0:0:0:0:
432,250,122728,5,2,1:0:0:0:
364,315,122896,1,8,0:0:0:0:
364,315,123233,2,0,P|323:292|264:301,1,105.000004005432,2|0,0:0|0:0,0:0:0:0:
208,356,123739,2,0,P|175:352|146:344,1,52.5000020027161,12|0,0:0|0:0,0:0:0:0:
73,330,124076,5,12,1:2:0:0:
125,238,124245,1,8,0:0:0:0:
125,238,124582,2,0,P|132:201|141:135,1,105.000004005432,2|0,0:0|0:0,0:0:0:0:
176,61,125087,1,12,0:0:0:0:
230,141,125256,1,8,0:0:0:0:
230,141,125340,1,8,0:0:0:0:
230,141,125424,5,12,1:2:0:0:
314,85,125593,1,8,0:0:0:0:
314,85,125930,5,8,0:0:0:0:
311,190,126099,1,10,1:2:0:0:
311,190,126436,5,8,0:0:0:0:
407,147,126604,2,0,P|414:173|423:211,1,52.5000020027161,10|0,0:0|0:0,0:0:0:0:
450,273,126941,2,0,L|483:280,2,26.2500010013581,8|8|12,0:0|0:0|0:0,0:0:0:0:
375,311,127278,1,0,0:0:0:0:
323,244,127447,6,0,P|288:236|252:230,1,70,2|0,1:0|0:0,0:0:0:0:
193,305,127784,2,0,P|171:277|151:248,1,70,8|8,0:0|0:0,0:0:0:0:
57,196,128121,6,0,P|72:144|105:42,1,154.000004699707,4|8,1:2|0:0,0:0:0:0:
200,7,128627,1,0,0:0:0:0:
270,84,128795,2,0,P|252:142|245:167,1,77.0000023498536,2|0,1:0|0:0,0:0:0:0:
318,236,129132,2,0,P|366:218|396:209,1,77.0000023498536,8|0,0:0|0:0,0:0:0:0:
296,342,129469,6,0,P|241:300|164:323,1,154.000004699707,2|8,1:0|0:0,0:0:0:0:
69,368,129975,1,0,0:0:0:0:
20,271,130144,2,0,P|32:222|43:186,1,77.0000023498536,2|0,1:0|0:0,0:0:0:0:
138,158,130481,2,0,P|126:109|115:70,1,77.0000023498536,8|0,0:0|0:0,0:0:0:0:
200,12,130818,6,0,P|254:24|328:39,1,115.50000352478,2|0,1:0|0:0,0:0:0:0:
355,65,131155,2,0,P|403:46|432:37,1,77.0000023498536,8|0,0:0|0:0,0:0:0:0:
505,113,131492,2,0,P|472:160|483:232,1,115.50000352478,2|0,1:0|0:0,0:0:0:0:
503,258,131829,2,0,P|491:308|485:339,1,77.0000023498536,8|0,0:0|0:0,0:0:0:0:
382,364,132166,6,0,P|302:332|307:246,1,154.000004699707,2|8,1:0|0:0,0:0:0:0:
359,189,132672,1,0,0:0:0:0:
256,156,132840,2,0,P|213:172|183:181,1,77.0000023498536,2|0,1:0|0:0,0:0:0:0:
112,100,133177,2,0,P|120:53|128:17,1,77.0000023498536,8|0,0:0|0:0,0:0:0:0:
14,99,133514,6,0,P|26:158|49:258,1,154.000004699707,2|8,1:0|0:0,0:0:0:0:
10,348,134020,1,0,0:0:0:0:
116,358,134188,2,0,P|165:334|194:323,1,77.0000023498536,2|0,1:0|0:0,0:0:0:0:
274,267,134526,2,0,P|323:291|352:302,1,77.0000023498536,8|0,0:0|0:0,0:0:0:0:
450,316,134863,6,0,P|479:260|443:175,1,154.000004699707,2|8,1:0|0:0,0:0:0:0:
353,134,135368,1,0,0:0:0:0:
430,58,135537,2,0,P|478:70|514:79,1,77.0000023498536,2|0,1:0|0:0,0:0:0:0:
359,6,135874,2,0,P|311:18|275:27,1,77.0000023498536,8|0,0:0|0:0,0:0:0:0:
179,22,136211,6,0,P|207:98|221:145,1,115.50000352478,2|0,1:2|0:0,0:0:0:0:
180,171,136548,2,0,P|137:160|102:152,1,77.0000023498536,8|0,0:0|0:0,0:0:0:0:
5,192,136885,2,0,P|22:252|36:309,1,115.50000352478,2|0,1:0|0:0,0:0:0:0:
74,340,137222,2,0,P|129:323|163:312,1,77.0000023498536,8|0,0:0|0:0,0:0:0:0:
244,279,137559,6,0,P|232:212|214:118,1,154.000004699707,2|8,1:0|0:0,0:0:0:0:
223,22,138065,1,0,0:0:0:0:
309,81,138233,2,0,L|467:58,1,154.000004699707,2|8,1:0|0:0,0:0:0:0:
505,157,138739,1,0,0:0:0:0:
448,245,138908,6,0,P|392:210|310:240,1,154.000004699707,4|8,1:2|0:0,0:0:0:0:
251,324,139413,2,0,P|208:312|175:303,1,77.0000023498536,2|0,0:0|1:0,0:0:0:0:
165,197,139750,2,0,P|194:134|202:110,1,77.0000023498536,0|8,0:0|0:0,0:0:0:0:
228,26,140087,6,0,P|140:35|64:46,1,154.000004699707,2|0,0:0|0:0,0:0:0:0:
19,137,140593,2,0,P|31:180|41:222,1,77.0000023498536,8|0,0:0|0:0,0:0:0:0:
128,267,140930,2,0,P|110:324|95:383,2,115.50000352478,2|2|0,1:0|0:0|0:0,0:0:0:0:
231,231,141604,6,0,P|300:253|380:282,1,154.000004699707,2|8,1:0|0:0,0:0:0:0:
466,223,142110,2,0,P|479:175|489:139,1,77.0000023498536,2|0,0:0|1:0,0:0:0:0:
476,43,142447,2,0,P|422:55|389:62,1,77.0000023498536,0|8,0:0|0:0,0:0:0:0:
300,99,142784,6,0,B|212:95|243:53|143:54,1,154.000004699707,2|0,0:0|0:0,0:0:0:0:
52,31,143290,2,0,P|67:109|70:129,1,77.0000023498536,8|0,0:0|0:0,0:0:0:0:
47,209,143627,2,0,P|125:194|145:192,1,77.0000023498536,2|0,1:0|0:0,0:0:0:0:
225,163,143964,2,0,P|300:180|353:191,1,115.50000352478,8|0,0:0|0:0,0:0:0:0:
388,191,144301,6,0,P|423:247|393:339,1,154.000004699707,4|8,1:2|0:0,0:0:0:0:
303,367,144806,1,0,0:0:0:0:
303,367,144975,2,0,P|233:349|145:335,1,154.000004699707,2|8,1:0|0:0,0:0:0:0:
50,309,145481,1,0,0:0:0:0:
119,227,145649,6,0,P|110:189|133:135,1,77.0000023498536,2|0,1:0|0:0,0:0:0:0:
24,103,145986,2,0,P|46:67|101:45,1,77.0000023498536,8|0,0:0|0:0,0:0:0:0:
176,9,146323,2,0,P|219:20|259:33,1,77.0000023498536,2|0,1:0|0:0,0:0:0:0:
323,112,146660,1,8,0:0:0:0:
323,112,146829,1,0,0:0:0:0:
224,146,146997,6,0,B|190:234|190:234|222:293,1,154.000004699707,2|8,1:2|0:0,0:0:0:0:
289,361,147503,1,0,0:0:0:0:
365,284,147672,2,0,B|392:234|392:234|357:139,1,154.000004699707,2|8,1:0|0:0,0:0:0:0:
388,48,148177,5,8,0:0:0:0:
388,48,148262,1,8,0:0:0:0:
388,48,148346,2,0,P|322:28|300:22,1,77.0000023498536,4|0,1:2|1:0,0:0:0:0:
216,65,148683,2,0,P|234:128|242:158,1,77.0000023498536,8|0,0:0|1:0,0:0:0:0:
195,237,149020,1,10,0:0:0:0:
195,237,149188,1,0,1:0:0:0:
140,146,149357,2,0,P|98:156|57:167,1,77.0000023498536,10|8,0:0|0:0,0:0:0:0:
17,177,149610,5,8,0:0:0:0:
17,177,149694,2,0,P|45:245|69:323,1,154.000004699707,4|8,1:2|0:0,0:0:0:0:
168,360,150200,1,0,0:0:0:0:
235,276,150368,2,0,P|244:221|248:193,1,77.0000023498536,2|0,1:0|0:0,0:0:0:0:
155,150,150705,2,0,P|145:95|139:67,1,77.0000023498536,8|2,0:0|0:0,0:0:0:0:
237,26,151042,6,0,P|282:1|379:72,1,154.000004699707,2|8,1:0|0:0,0:0:0:0:
434,124,151548,1,0,0:0:0:0:
336,171,151717,2,0,P|284:158|247:153,1,77.0000023498536,2|0,1:0|0:0,0:0:0:0:
174,212,152054,2,0,P|153:261|162:292,1,77.0000023498536,8|0,0:0|0:0,0:0:0:0:
228,363,152391,6,0,P|280:337|368:316,1,115.50000352478,2|0,1:0|0:0,0:0:0:0:
370,282,152728,2,0,P|417:292|455:300,1,77.0000023498536,8|0,0:0|0:0,0:0:0:0:
496,202,153065,2,0,P|509:148|467:98,1,115.50000352478,2|0,1:0|0:0,0:0:0:0:
442,63,153402,2,0,P|411:94|377:125,1,77.0000023498536,8|0,0:0|0:0,0:0:0:0:
282,86,153739,6,0,P|303:153|327:235,1,154.000004699707,2|8,1:0|0:0,0:0:0:0:
297,335,154245,1,0,0:0:0:0:
232,251,154413,2,0,P|186:236|153:225,1,77.0000023498536,2|0,1:0|0:0,0:0:0:0:
7,326,154750,2,0,P|44:314|81:302,1,77.0000023498536,8|0,0:0|0:0,0:0:0:0:
46,199,155087,6,0,P|20:148|55:60,1,154.000004699707,2|8,1:0|0:0,0:0:0:0:
151,24,155593,1,0,0:0:0:0:
198,121,155762,2,0,P|242:103|270:93,1,77.0000023498536,2|0,1:0|0:0,0:0:0:0:
322,1,156099,2,0,P|358:13|393:28,1,77.0000023498536,8|0,0:0|0:0,0:0:0:0:
501,15,156436,6,0,P|473:78|444:169,1,154.000004699707,2|8,1:0|0:0,0:0:0:0:
465,261,156941,1,0,0:0:0:0:
392,341,157110,2,0,P|341:326|299:320,1,77.0000023498536,2|0,1:0|0:0,0:0:0:0:
243,246,157447,2,0,P|291:231|333:225,1,77.0000023498536,12|0,0:0|0:0,0:0:0:0:
348,127,157784,6,0,P|325:77|224:68,1,154.000004699707,4|8,1:2|0:0,0:0:0:0:
129,68,158290,1,0,0:0:0:0:
198,149,158458,2,0,P|184:193|176:229,1,77.0000023498536,2|0,1:0|0:0,0:0:0:0:
75,246,158795,1,8,0:0:0:0:
75,246,158964,1,0,0:0:0:0:
148,324,159132,6,0,P|217:298|295:275,1,154.000004699707,4|8,1:2|0:0,0:0:0:0:
337,181,159638,1,0,0:0:0:0:
424,240,159806,2,0,P|457:293|446:351,2,115.50000352478,2|2|0,1:0|0:0|0:0,0:0:0:0:
337,181,160481,6,0,B|250:156|257:218|178:191,1,154.000004699707,4|8,1:2|0:0,0:0:0:0:
132,105,160986,2,0,P|91:103|47:136,1,77.0000023498536,2|0,0:0|1:0,0:0:0:0:
18,216,161323,2,0,P|39:267|51:311,1,77.0000023498536,0|8,0:0|0:0,0:0:0:0:
132,351,161660,6,0,P|170:305|261:304,1,154.000004699707,2|0,0:0|0:0,0:0:0:0:
356,341,162166,2,0,P|368:293|376:259,1,77.0000023498536,8|0,0:0|0:0,0:0:0:0:
311,181,162503,2,0,P|261:156|182:128,2,115.50000352478,2|2|0,1:0|0:0|0:0,0:0:0:0:
418,174,163177,6,0,P|453:128|411:38,1,154.000004699707,2|8,1:0|0:0,0:0:0:0:
322,4,163683,2,0,P|310:49|303:82,1,77.0000023498536,2|0,0:0|1:0,0:0:0:0:
198,84,164020,2,0,P|189:46|179:9,1,77.0000023498536,0|8,0:0|0:0,0:0:0:0:
78,47,164357,1,2,0:0:0:0:
123,145,164526,6,0,P|59:155|30:243,1,154.000004699707,0|8,1:0|0:0,0:0:0:0:
81,319,165031,1,0,0:0:0:0:
171,259,165200,2,0,P|221:246|271:240,1,77.0000023498536,2|0,1:0|0:0,0:0:0:0:
288,147,165537,2,0,P|325:157|363:163,1,77.0000023498536,8|0,0:0|0:0,0:0:0:0:
469,145,165874,6,0,P|441:216|416:302,1,154.000004699707,2|8,1:0|0:0,0:0:0:0:
313,271,166379,1,0,0:0:0:0:
353,371,166548,2,0,P|306:363|257:356,1,77.0000023498536,2|0,1:0|0:0,0:0:0:0:
211,289,166885,1,8,0:0:0:0:
211,289,166969,1,8,0:0:0:0:
211,289,167054,1,8,0:0:0:0:
136,366,167222,5,10,0:0:0:0:
111,244,167391,1,8,0:0:0:0:
111,244,167896,2,0,P|66:212|6:222,2,115.50000352478,4|12|0,1:2|0:0|1:0,0:0:0:0:
211,289,168571,6,0,B|331:439|437:411|496:293|442:236|344:216,1,420,4|10,1:2|0:0,0:0:0:0:
370,222,169919,6,0,P|388:134|421:10,1,210,2|0,1:0|0:0,0:0:0:0:
324,44,170593,2,0,B|214:59|242:-18|124:2,1,210,2|0,1:0|0:0,0:0:0:0:
39,42,171267,6,0,B|85:96|85:96|58:239,1,210,2|0,1:0|0:0,0:0:0:0:
4,310,171941,2,0,P|80:272|156:357,1,210,2|0,1:0|0:0,0:0:0:0:
233,291,172615,6,0,P|218:190|197:80,1,210,2|0,1:0|0:0,0:0:0:0:
282,39,173290,2,0,P|388:24|444:115,1,210,2|0,1:0|0:0,0:0:0:0:
423,192,173964,6,0,B|381:121|311:111|311:111|252:270|390:359,1,420,4|8,1:2|0:0,0:0:0:0:
476,320,175144,5,2,0:0:0:0:
476,320,175228,1,2,0:0:0:0:
476,320,175312,2,0,P|490:263|498:225,1,70,2|0,1:0|0:0,0:0:0:0:
490,156,175649,2,0,P|476:99|468:61,1,70,8|0,0:0|0:0,0:0:0:0:
406,16,175986,2,0,P|369:29|332:41,1,70,2|0,1:0|0:0,0:0:0:0:
278,105,176323,2,0,P|228:94|198:88,1,70,8|8,0:0|0:0,0:0:0:0:
163,82,176576,5,8,0:0:0:0:
163,82,176660,2,0,P|110:93|80:99,1,70,2|0,1:0|1:0,0:0:0:0:
20,52,176997,1,8,0:0:0:0:
20,52,177166,1,0,1:0:0:0:
6,145,177335,1,8,0:0:0:0:
6,145,177503,1,0,1:0:0:0:
81,193,177672,2,0,P|125:185|156:177,1,70,8|8,0:0|0:0,0:0:0:0:
196,169,177924,5,8,0:0:0:0:
196,169,178009,2,0,B|204:80|326:64|361:148|361:148|432:92|533:175|490:257|490:257|453:324|352:298|296:386|296:386|276:277|201:247,1,868,4|0,1:2|0:0,0:0:0:0:
184,237,180705,5,12,1:2:0:0:
105,345,180874,1,12,1:2:0:0:
105,345,181885,5,12,1:2:0:0:
28,186,182222,1,12,1:2:0:0:
28,186,182896,5,0,1:0:0:0:
101,134,183065,2,0,L|137:121,2,28,2|0|0,1:2|1:0|1:0,0:0:0:0:
29,102,183402,5,12,1:2:0:0:
148,40,183571,1,12,1:2:0:0:
148,40,184582,5,12,1:2:0:0:
218,201,184919,1,12,1:2:0:0:
218,201,185424,6,0,P|257:192|290:187,1,56,2|0,1:0|1:0,0:0:0:0:
326,121,185762,1,2,1:2:0:0:
392,180,185930,5,0,1:0:0:0:
392,180,186014,1,0,1:0:0:0:
392,180,186099,2,0,P|370:238|359:295,1,112,4|0,1:2|1:0,0:0:0:0:
304,353,186604,1,2,0:0:0:0:
263,273,186773,2,0,P|225:253|157:277,1,112,10|0,0:0|1:0,0:0:0:0:
107,339,187278,1,10,0:0:0:0:
48,270,187447,6,0,B|24:235|24:235|39:168,1,112,2|0,1:2|1:0,0:0:0:0:
66,84,187953,1,2,0:0:0:0:
127,148,188121,2,0,P|160:136|187:130,1,56,10|0,0:0|1:0,0:0:0:0:
235,60,188458,2,0,L|280:66,3,28,8|8|8|8,0:0|0:0|0:0|0:0,0:0:0:0:
300,44,188795,6,0,P|315:80|324:105,1,56,4|0,1:2|1:0,0:0:0:0:
408,114,189132,2,0,P|393:150|384:175,1,56,2|0,0:0|1:0,0:0:0:0:
320,223,189469,2,0,P|292:209|248:213,1,56,2|0,1:0|1:0,0:0:0:0:
196,258,189806,2,0,L|187:286,3,28,8|8|8|8,0:0|0:0|0:0|0:0,0:0:0:0:
211,323,190144,6,0,P|246:329|273:327,1,56,10|8,1:2|0:0,0:0:0:0:
301,351,190396,1,8,0:0:0:0:
301,351,190481,2,0,P|336:343|363:338,1,56,10|0,0:0|0:0,0:0:0:0:
428,286,190818,2,0,P|445:331|454:390,2,84,6|2|8,1:2|0:0|0:0,0:0:0:0:
356,204,191492,6,0,P|371:149|407:43,1,154.000004699707,4|12,1:2|0:0,0:0:0:0:
303,12,191997,2,0,P|264:27|229:42,1,77.0000023498536,2|0,0:0|1:0,0:0:0:0:
143,100,192335,2,0,P|178:113|230:131,1,77.0000023498536,0|8,0:0|0:0,0:0:0:0:
297,191,192672,6,0,P|319:254|257:331,1,154.000004699707,2|0,0:0|0:0,0:0:0:0:
176,356,193177,2,0,P|131:344|92:338,1,77.0000023498536,8|0,0:0|0:0,0:0:0:0:
45,246,193514,2,0,P|33:185|18:120,2,115.50000352478,2|2|0,1:0|0:0|0:0,0:0:0:0:
149,221,194188,6,0,P|206:205|308:191,1,154.000004699707,2|8,1:0|0:0,0:0:0:0:
378,121,194694,2,0,P|369:83|362:45,1,77.0000023498536,2|0,0:0|1:0,0:0:0:0:
447,183,195031,2,0,P|435:234|429:268,1,77.0000023498536,0|8,0:0|0:0,0:0:0:0:
379,350,195368,6,0,B|322:349|322:349|291:324|291:324|219:321,1,154.000004699707,2|0,0:0|0:0,0:0:0:0:
129,332,195874,2,0,P|97:287|102:249,1,77.0000023498536,8|0,0:0|0:0,0:0:0:0:
1,215,196211,2,0,P|10:163|40:140,1,77.0000023498536,2|0,1:0|0:0,0:0:0:0:
68,50,196548,2,0,P|111:69|176:92,1,115.50000352478,8|0,0:0|0:0,0:0:0:0:
218,58,196885,6,0,P|286:14|365:39,1,154.000004699707,4|8,1:2|0:0,0:0:0:0:
462,37,197391,1,0,0:0:0:0:
462,37,197559,2,0,P|448:95|433:190,1,154.000004699707,2|8,1:0|0:0,0:0:0:0:
481,281,198065,1,0,0:0:0:0:
374,297,198233,6,0,B|331:284|297:277,1,77.0000023498536,2|0,1:0|0:0,0:0:0:0:
218,208,198571,2,0,B|258:195|292:191,1,77.0000023498536,8|0,0:0|0:0,0:0:0:0:
375,125,198908,2,0,P|367:65|361:34,1,77.0000023498536,2|0,1:0|0:0,0:0:0:0:
266,1,199245,1,8,0:0:0:0:
266,1,199413,1,0,0:0:0:0:
199,84,199582,6,0,P|153:47|60:65,1,154.000004699707,2|8,1:2|0:0,0:0:0:0:
6,151,200087,1,0,0:0:0:0:
96,206,200256,2,0,P|81:264|58:360,1,154.000004699707,2|8,1:0|0:0,0:0:0:0:
165,376,200762,5,8,0:0:0:0:
165,376,200846,1,8,0:0:0:0:
165,376,200930,2,0,P|215:357|238:351,1,77.0000023498536,4|0,1:2|1:0,0:0:0:0:
330,300,201267,2,0,P|380:319|403:325,1,77.0000023498536,8|0,0:0|1:0,0:0:0:0:
496,270,201604,1,10,1:2:0:0:
496,270,201773,1,0,1:0:0:0:
443,179,201941,2,0,P|390:189|356:196,1,77.0000023498536,10|8,0:0|0:0,0:0:0:0:
318,215,202194,5,8,0:0:0:0:
318,215,202278,2,0,P|248:198|163:187,1,154.000004699707,4|8,1:2|0:0,0:0:0:0:
78,241,202784,1,0,0:0:0:0:
33,145,202953,2,0,P|42:102|51:68,1,77.0000023498536,2|0,1:0|0:0,0:0:0:0:
144,16,203290,2,0,P|155:49|166:90,1,77.0000023498536,8|2,0:0|0:0,0:0:0:0:
256,144,203627,6,0,P|285:96|380:89,1,154.000004699707,2|8,1:0|0:0,0:0:0:0:
403,190,204132,1,0,0:0:0:0:
485,119,204301,2,0,P|497:169|508:207,1,77.0000023498536,2|0,1:0|0:0,0:0:0:0:
435,274,204638,2,0,P|423:324|415:364,1,77.0000023498536,8|0,0:0|0:0,0:0:0:0:
322,371,204975,6,0,P|266:347|211:331,1,115.50000352478,2|0,1:0|0:0,0:0:0:0:
172,299,205312,2,0,P|123:316|85:331,1,77.0000023498536,8|0,0:0|0:0,0:0:0:0:
30,242,205649,2,0,P|0:191|13:135,1,115.50000352478,2|0,1:0|0:0,0:0:0:0:
46,105,205986,2,0,P|81:91|124:79,1,77.0000023498536,8|0,0:0|0:0,0:0:0:0:
194,3,206323,6,0,P|215:65|241:149,1,154.000004699707,2|8,1:0|0:0,0:0:0:0:
250,253,206829,1,0,0:0:0:0:
151,224,206997,2,0,P|111:216|67:213,1,77.0000023498536,2|0,1:0|0:0,0:0:0:0:
0,321,207335,2,0,P|33:313|76:309,1,77.0000023498536,8|0,0:0|0:0,0:0:0:0:
162,372,207672,6,0,B|241:389|223:327|318:345,1,154.000004699707,2|8,1:0|0:0,0:0:0:0:
412,331,208177,1,0,0:0:0:0:
337,252,208346,2,0,P|324:206|316:176,1,77.0000023498536,2|0,1:0|0:0,0:0:0:0:
416,139,208683,2,0,P|429:93|437:60,1,77.0000023498536,8|0,0:0|0:0,0:0:0:0:
333,31,209020,6,0,P|288:65|199:32,1,154.000004699707,2|8,1:0|0:0,0:0:0:0:
98,15,209526,1,2,0:0:0:0:
29,97,209694,2,0,P|44:138|54:174,1,77.0000023498536,0|0,1:0|0:0,0:0:0:0:
149,214,210031,2,0,P|176:185|212:171,1,77.0000023498536,12|0,0:0|0:0,0:0:0:0:
305,130,210368,6,0,P|288:193|270:282,1,154.000004699707,4|8,1:2|0:0,0:0:0:0:
228,375,210874,1,0,0:0:0:0:
150,300,211042,2,0,P|111:290|70:283,1,77.0000023498536,2|0,1:0|0:0,0:0:0:0:
21,195,211379,1,8,0:0:0:0:
21,195,211548,1,0,0:0:0:0:
83,109,211717,6,0,B|127:71|127:71|236:95,1,154.000004699707,4|8,1:2|0:0,0:0:0:0:
293,168,212222,1,0,0:0:0:0:
325,64,212391,2,0,P|360:35|445:41,2,115.50000352478,2|2|0,1:0|0:0|0:0,0:0:0:0:
293,168,213065,6,0,P|314:241|333:331,1,154.000004699707,4|8,1:2|0:0,0:0:0:0:
241,372,213571,2,0,P|190:357|161:350,1,77.0000023498536,2|0,0:0|1:0,0:0:0:0:
77,289,213908,2,0,P|90:242|106:192,1,77.0000023498536,2|8,0:0|0:0,0:0:0:0:
18,144,214245,6,0,P|70:104|162:125,1,154.000004699707,2|0,0:0|0:0,0:0:0:0:
245,128,214750,2,0,P|243:90|238:52,1,77.0000023498536,8|0,0:0|0:0,0:0:0:0:
329,192,215087,2,0,P|403:167|450:155,2,115.50000352478,2|2|0,1:0|0:0|0:0,0:0:0:0:
224,204,215762,6,0,P|197:241|230:343,1,154.000004699707,2|8,1:0|0:0,0:0:0:0:
324,366,216267,2,0,P|375:354|406:348,1,77.0000023498536,2|0,0:0|1:0,0:0:0:0:
505,332,216604,2,0,P|490:268|482:234,1,77.0000023498536,2|8,0:0|0:0,0:0:0:0:
497,152,216941,1,0,0:0:0:0:
415,80,217110,6,0,P|371:93|264:127,1,154.000004699707,2|8,1:0|0:0,0:0:0:0:
190,54,217615,1,0,0:0:0:0:
94,105,217784,2,0,L|122:192,1,77.0000023498536,2|0,1:0|0:0,0:0:0:0:
207,235,218121,2,0,L|179:325,1,77.0000023498536,8|0,0:0|0:0,0:0:0:0:
94,369,218458,6,0,P|150:335|233:388,1,154.000004699707,2|8,1:0|0:0,0:0:0:0:
315,317,218964,1,0,0:0:0:0:
247,233,219132,2,0,P|257:178|265:135,1,77.0000023498536,2|0,1:0|0:0,0:0:0:0:
235,65,219469,1,8,0:0:0:0:
235,65,219554,1,8,0:0:0:0:
235,65,219638,1,8,0:0:0:0:
333,100,219806,5,10,0:0:0:0:
401,16,219975,1,8,0:0:0:0:
401,16,220481,2,0,P|496:50|515:58,2,115.50000352478,4|12|0,1:2|0:0|1:0,0:0:0:0:
294,36,221155,6,0,P|244:24|213:17,1,70,4|0,1:2|0:0,0:0:0:0:
166,96,221492,2,0,P|115:108|82:115,1,70,10|0,0:0|0:0,0:0:0:0:
22,174,221829,2,0,P|40:232|47:257,1,70,2|0,1:0|0:0,0:0:0:0:
97,318,222166,2,0,P|115:257|122:232,1,70,10|0,0:0|0:0,0:0:0:0:
177,176,222503,5,2,1:0:0:0:
215,279,222672,1,2,0:0:0:0:
215,279,223009,2,0,P|280:250|354:285,1,140,2|2,0:0|0:0,0:0:0:0:
431,304,223514,2,0,P|417:356|411:386,2,70,10|2|0,0:0|0:0|1:0,0:0:0:0:
476,216,224020,5,2,0:0:0:0:
437,115,224188,1,10,0:0:0:0:
437,115,224526,2,0,P|381:130|360:136,1,70,2|0,1:0|0:0,0:0:0:0:
327,219,224863,2,0,P|271:204|250:198,1,70,10|0,0:0|0:0,0:0:0:0:
172,163,225200,5,2,1:0:0:0:
112,252,225368,1,2,0:0:0:0:
112,252,225705,2,0,P|71:220|77:122,1,140,2|2,0:0|0:0,0:0:0:0:
97,47,226211,2,0,P|149:61|180:70,1,70,10|0,0:0|0:0,0:0:0:0:
250,23,226548,6,0,P|265:69|271:118,1,70,4|0,1:2|0:0,0:0:0:0:
366,98,226885,2,0,P|351:144|345:191,1,70,10|0,0:0|0:0,0:0:0:0:
290,242,227222,2,0,P|257:220|211:222,1,70,2|0,1:0|0:0,0:0:0:0:
139,253,227559,2,0,P|158:300|171:345,1,70,10|0,0:0|0:0,0:0:0:0:
247,364,227896,5,2,1:0:0:0:
353,328,228065,1,2,0:0:0:0:
353,328,228402,2,0,P|386:280|344:196,1,140,2|2,0:0|0:0,0:0:0:0:
290,142,228908,2,0,P|255:159|224:176,1,70,10|8,0:0|0:0,0:0:0:0:
144,217,229245,5,12,1:2:0:0:
109,117,229413,1,8,0:0:0:0:
109,117,229750,5,0,1:0:0:0:
161,33,229919,2,0,P|195:50|230:67,1,70,0|0,1:0|1:0,0:0:0:0:
292,123,230256,5,12,0:0:0:0:
363,20,230424,1,12,0:0:0:0:
363,20,230762,5,0,1:0:0:0:
438,82,230930,2,0,L|475:69,2,35,0|0|0,1:0|1:0|1:0,0:0:0:0:
367,150,231267,6,0,P|415:185|423:239,1,105,6|0,1:2|0:0,0:0:0:0:
451,266,231604,2,0,P|443:318|443:360,1,70,10|8,0:0|0:0,0:0:0:0:
400,362,231857,1,8,0:0:0:0:
400,362,231941,1,6,1:2:0:0:
256,192,232110,12,0,238514,0:0:0:0:
