osu file format v14

[General]
AudioFilename: audio.mp3
AudioLeadIn: 0
PreviewTime: 62241
Countdown: 0
SampleSet: Normal
StackLeniency: 0.7
Mode: 0
LetterboxInBreaks: 0
WidescreenStoryboard: 1

[Editor]
DistanceSpacing: 1.3
BeatDivisor: 4
GridSize: 32
TimelineZoom: 1.2

[Metadata]
Title:Grand symphony
TitleUnicode:Grand symphony
Artist:Sasaki Sayaka
ArtistUnicode:佐咲紗花
Creator:Mamiko
Version:Normal
Source:ガールズ&パンツァー 最終章
Tags:girls und panzer
BeatmapID:1598658
BeatmapSetID:760056

[Difficulty]
HPDrainRate:3
CircleSize:3
OverallDifficulty:4
ApproachRate:5
SliderMultiplier:1.3
SliderTickRate:1

[Events]
//Background and Video events
0,0,"bg.png",0,0
//Break Periods
//Storyboard Layer 0 (Background)
//Storyboard Layer 1 (Fail)
//Storyboard Layer 2 (Pass)
//Storyboard Layer 3 (Foreground)
//Storyboard Sound Samples

[TimingPoints]
1575,333.333333333333,4,1,1,60,1,0
62908,-100,4,1,1,60,0,1
86741,-100,4,1,1,60,0,0

[Colours]
Combo1 : 128,128,192
Combo2 : 0,128,192
Combo3 : 0,128,255
Combo4 : 128,64,64
Combo5 : 128,0,0
Combo6 : 255,128,64
Combo7 : 255,128,128
Combo8 : 128,0,255

[HitObjects]
261,327,1575,6,0,L|250:186,1,130
126,83,2241,2,0,P|179:115|263:100,1,130
403,50,2908,2,0,P|353:84|354:178,1,130
400,294,3574,2,0,L|253:284,1,130
109,341,4241,6,0,L|114:199,1,130
211,73,4908,2,0,L|206:202,1,130
305,339,5574,2,0,P|371:352|435:326,3,130
438,161,6908,6,0,L|427:20,1,130
341,176,7574,2,0,P|285:208|222:202,1,130
206,34,8241,2,0,P|262:64|260:136,1,130
115,169,8907,2,0,L|132:327,1,130
290,349,9574,6,0,P|344:319|423:331,1,130
466,165,10241,2,0,P|412:195|333:183,1,130
178,163,10908,2,0,L|164:24,2,130
481,314,12241,6,0,P|426:297|352:314,1,130
277,342,12741,2,0,L|186:332,1,65
151,275,13074,2,0,L|60:285,1,65
63,200,13408,6,0,L|207:182,1,130
274,200,13908,2,0,P|298:139|262:74,1,130
109,43,14574,2,0,L|119:128,1,65
131,191,14908,6,0,L|114:329,1,130
197,339,15408,2,0,P|258:320|332:339,1,130
405,347,15908,1,0,0:0:0:0:
461,284,16074,2,0,P|477:223|456:154,1,130
414,85,16574,2,0,L|334:102,1,65
267,78,16908,2,0,L|197:62,2,65
326,232,17574,5,0,0:0:0:0:
317,332,20241,6,0,L|181:323,1,130
30,259,20908,2,0,P|92:256|128:179,1,130
119,119,21408,2,0,L|254:103,1,130
314,51,21908,2,0,L|304:185,2,130
421,182,22908,6,0,P|449:238|417:311,1,130
357,344,23408,2,0,L|216:333,1,130
144,352,23908,1,0,0:0:0:0:
63,328,24074,2,0,P|31:270|56:199,1,130
117,166,24574,2,0,L|253:158,2,130
241,51,25574,6,0,P|298:26|376:55,1,130
458,181,26241,2,0,L|445:312,1,130
368,346,26741,2,0,P|317:314|238:328,1,130
165,321,27241,2,0,L|28:359,2,130
267,186,28241,6,0,P|286:127|255:65,1,130
178,39,28741,2,0,L|32:64,2,130
141,204,29741,6,0,L|64:197,2,65
205,258,30241,2,0,L|290:241,1,65
461,102,31408,6,0,P|402:78|344:103,1,130
299,175,31908,1,0,0:0:0:0:
215,183,32074,2,0,L|202:43,1,130
118,69,32574,2,0,P|55:77|-1:47,2,130
84,234,33574,6,0,P|149:206|222:211,1,130
291,219,34074,2,0,L|303:352,1,130
386,360,34574,1,0,0:0:0:0:
467,338,34741,2,0,P|491:284|468:218,1,130
421,150,35241,2,0,L|280:130,2,130
298,267,36241,6,0,P|263:308|173:303,1,130
121,263,36741,1,0,0:0:0:0:
42,295,36908,2,0,L|18:374,2,65
52,210,37408,2,0,L|39:75,1,130
123,68,37908,2,0,P|182:44|246:55,2,130
230,198,38908,6,0,L|365:212,1,130
429,164,39408,2,0,P|443:227|400:290,2,130
277,88,40408,6,0,L|353:104,2,65
193,104,40908,2,0,L|118:117,1,65
60,165,41241,2,0,L|77:308,1,130
244,303,41908,6,0,L|262:160,2,130
308,357,42741,2,0,P|367:331|437:343,1,130
489,278,43241,1,0,0:0:0:0:
457,116,43574,2,0,P|398:141|334:133,1,130
195,36,44241,5,0,0:0:0:0:
334,133,44574,2,0,L|335:209,1,65
397,255,44908,2,0,P|348:285|273:255,1,130
241,191,45408,2,0,L|105:212,1,130
33,181,45908,1,0,0:0:0:0:
116,327,46241,2,0,P|174:353|235:335,1,130
390,268,46908,5,0,0:0:0:0:
419,104,47241,2,0,L|280:83,1,130
214,47,47741,2,0,P|206:79|201:127,1,65
220,193,48074,2,0,L|242:335,1,130
158,343,48574,2,0,P|97:318|21:353,1,130
100,178,49241,1,0,0:0:0:0:
258,235,49574,6,0,P|366:271|430:161,1,260
307,45,50574,1,0,0:0:0:0:
240,97,50741,2,0,L|99:113,1,130
42,61,51241,2,0,P|23:112|58:186,1,130
119,227,51741,2,0,L|203:239,2,65
49,275,52241,5,0,0:0:0:0:
205,337,52574,2,0,P|263:318|340:334,1,130
440,201,53241,1,0,0:0:0:0:
470,121,53408,2,0,B|412:101|404:138|339:119,1,130
278,62,53908,2,0,P|220:40|157:68,1,130
31,172,54574,1,0,0:0:0:0:
98,327,54908,6,0,L|249:326,1,130
396,326,55574,2,0,P|341:283|342:224,1,130
392,160,56074,2,0,P|416:106|382:43,1,130
301,44,56574,2,0,L|206:54,1,65
155,78,56908,2,0,L|82:61,2,65
