osu file format v14

[General]
AudioFilename: audio.mp3
AudioLeadIn: 0
PreviewTime: 62241
Countdown: 0
SampleSet: Normal
StackLeniency: 0.7
Mode: 0
LetterboxInBreaks: 0
WidescreenStoryboard: 0

[Editor]
DistanceSpacing: 1.5
BeatDivisor: 4
GridSize: 32
TimelineZoom: 1

[Metadata]
Title:Grand symphony
TitleUnicode:Grand symphony
Artist:Sasaki Sayaka
ArtistUnicode:佐咲紗花
Creator:Mamiko
Version:Insane
Source:ガールズ&パンツァー 最終章
Tags:girls und panzer
BeatmapID:1598657
BeatmapSetID:760056

[Difficulty]
HPDrainRate:5
CircleSize:4
OverallDifficulty:8
ApproachRate:9
SliderMultiplier:1.7
SliderTickRate:1

[Events]
//Background and Video events
0,0,"bg.png",0,0
//Break Periods
//Storyboard Layer 0 (Background)
//Storyboard Layer 1 (Fail)
//Storyboard Layer 2 (Pass)
//Storyboard Layer 3 (Foreground)
//Storyboard Sound Samples

[TimingPoints]
1575,333.333333333333,4,1,1,60,1,0
1575,-133.333333333333,4,3,1,60,0,0
12241,-100,4,1,1,60,0,0
17574,-200,4,3,1,60,0,0
20241,-100,4,1,1,60,0,0
30574,-200,4,1,1,60,0,0
31574,-100,4,1,1,60,0,0
62908,-100,4,1,1,60,0,1
86741,-100,4,1,1,60,0,0

[Colours]
Combo1 : 128,128,192
Combo2 : 0,128,192
Combo3 : 0,128,255
Combo4 : 128,64,64
Combo5 : 128,0,0
Combo6 : 255,128,64
Combo7 : 255,128,128
Combo8 : 128,0,255

[HitObjects]
55,125,1575,6,0,L|196:113,1,127.500004863739,2|0,0:0|0:0,0:0:0:0:
457,243,2130,1,0,0:0:0:0:
429,246,2241,2,0,L|274:257,1,127.500004863739,2|0,0:0|0:0,0:0:0:0:
260,329,2686,1,0,0:0:0:0:
232,329,2796,1,0,0:0:0:0:
204,330,2908,6,0,P|174:275|201:217,1,127.500004863739,2|0,0:0|0:0,0:0:0:0:
413,163,3463,1,0,0:0:0:0:
390,176,3574,2,0,P|359:146|354:90,1,85.0000032424928,2|0,0:0|0:0,0:0:0:0:
272,41,3908,2,0,P|263:83|219:118,1,85.0000032424928
156,155,4241,6,0,L|45:142,1,85.0000032424928,2|0,0:0|0:0,0:0:0:0:
40,145,4574,1,0,0:0:0:0:
38,171,4685,1,0,0:0:0:0:
35,196,4796,1,0,0:0:0:0:
108,307,4908,2,0,P|127:276|110:226,1,85.0000032424928,2|0,0:0|0:0,0:0:0:0:
31,279,5241,2,0,L|-13:289,2,42.5000016212464
198,208,5574,6,0,P|214:270|190:344,1,127.500004863739,2|0,0:0|0:0,0:0:0:0:
410,288,6241,2,0,B|320:278|320:278|345:251,1,127.500004863739
421,43,6908,6,0,L|439:176,1,127.500004863739,2|0,0:0|0:0,0:0:0:0:
246,72,7463,1,0,0:0:0:0:
224,89,7574,2,0,L|206:222,1,127.500004863739,2|0,0:0|0:0,0:0:0:0:
183,306,8019,1,0,0:0:0:0:
212,303,8130,1,0,0:0:0:0:
242,301,8241,6,0,B|309:296|309:296|330:276|333:234,1,127.500004863739,2|0,0:0|0:0,0:0:0:0:
133,178,8797,1,0,0:0:0:0:
118,201,8908,2,0,L|30:208,1,85.0000032424928,2|0,0:0|0:0,0:0:0:0:
71,294,9241,2,0,L|123:289,2,42.5000016212464
70,119,9574,6,0,P|130:91|204:126,1,127.500004863739,2|0,0:0|0:0,0:0:0:0:
388,227,10130,1,0,0:0:0:0:
363,245,10241,2,0,P|335:185|370:111,1,127.500004863739,2|0,0:0|0:0,0:0:0:0:
401,60,10686,1,0,0:0:0:0:
422,57,10797,1,0,0:0:0:0:
443,54,10908,1,2,0:0:0:0:
462,51,11241,1,0,0:0:0:0:
482,48,11574,5,8,0:1:0:0:
437,353,11741,1,0,1:0:0:0:
343,275,11908,1,0,1:0:0:0:
307,255,11991,1,0,1:0:0:0:
270,255,12074,1,0,1:0:0:0:
236,270,12158,1,0,1:0:0:0:
207,301,12241,6,0,L|149:363,1,85,4|0,0:2|0:0,0:0:0:0:
46,316,12574,1,8,0:0:0:0:
71,186,12741,2,0,L|129:248,1,85,0|0,0:0|0:2,0:0:0:0:
277,134,13074,1,0,0:0:0:0:
277,134,13158,1,0,0:0:0:0:
277,134,13241,1,8,0:0:0:0:
255,33,13408,6,0,P|200:55|194:176,1,170
397,322,13908,2,0,P|358:301|312:308,1,85,8|0,0:0|0:0,0:0:0:0:
226,248,14241,1,0,0:0:0:0:
198,357,14408,1,0,0:0:0:0:
375,213,14574,2,0,L|362:122,1,85,8|0,0:0|0:0,0:0:0:0:
359,100,14824,1,0,0:0:0:0:
359,100,14908,6,0,P|399:110|457:117,1,85,2|0,0:2|0:0,0:0:0:0:
292,31,15241,1,8,0:0:0:0:
250,149,15408,2,0,P|210:159|152:166,1,85
56,136,15741,1,0,0:0:0:0:
56,136,15824,1,0,0:0:0:0:
56,136,15908,1,8,0:0:0:0:
101,30,16074,6,0,P|163:78|157:180,1,170
84,350,16574,1,8,0:0:0:0:
37,243,16741,1,0,0:0:0:0:
191,312,16908,1,8,0:3:0:0:
216,296,16991,1,0,0:0:0:0:
244,289,17074,1,0,0:0:0:0:
274,293,17157,1,0,0:0:0:0:
300,307,17241,1,8,0:0:0:0:
325,319,17325,1,0,0:0:0:0:
355,323,17408,1,0,0:0:0:0:
383,316,17491,1,0,0:0:0:0:
409,300,17574,1,4,3:0:0:0:
450,206,17741,6,0,L|444:160,1,42.5
353,233,18075,1,2,0:0:0:0:
419,170,18241,2,0,L|413:124,1,42.5
353,233,18575,1,2,0:0:0:0:
386,141,18741,2,0,L|380:95,1,42.5
353,233,19074,1,2,0:0:0:0:
292,87,19241,6,0,L|297:59,2,28.3333333333333,2|0|0,0:2|0:0|0:0,0:0:0:0:
205,87,19574,2,0,L|210:59,2,28.3333333333333,2|0|0,0:2|0:0|0:0,0:0:0:0:
120,90,19908,2,0,L|125:62,2,28.3333333333333,2|0|0,0:2|0:0|0:0,0:0:0:0:
48,148,20241,6,0,L|38:250,1,85
256,189,20574,1,8,0:2:0:0:
153,353,20741,2,0,P|198:303|161:216,1,170
110,283,21241,1,8,0:2:0:0:
270,348,21408,2,0,B|300:342|321:326|321:326|347:345|378:353|378:353|408:349|436:326,1,170,0|0,0:2|0:0,0:0:0:0:
481,239,21908,2,0,L|387:217,1,85,10|0,0:2|0:0,0:0:0:0:
235,137,22241,1,2,0:2:0:0:
256,248,22408,1,0,0:0:0:0:
440,77,22574,2,0,P|402:96|357:127,1,85,10|0,0:2|0:0,0:0:0:0:
256,248,22908,6,0,P|180:220|83:212,1,170,0|8,0:2|0:2,0:0:0:0:
68,47,23408,2,0,P|91:76|107:138,1,85
169,266,23741,1,0,0:0:0:0:
48,301,23908,1,8,0:2:0:0:
235,137,24074,2,0,B|282:134|325:151|325:151|356:189|350:246,1,170
260,350,24574,2,0,L|267:252,1,85,10|0,0:2|0:0,0:0:0:0:
458,183,24908,1,2,0:2:0:0:
392,335,25074,1,0,0:0:0:0:
177,269,25241,1,10,0:2:0:0:
351,223,25408,1,0,0:0:0:0:
245,52,25574,6,0,P|239:92|233:166,1,85,2|0,0:2|0:0,0:0:0:0:
266,265,25908,1,8,0:2:0:0:
331,125,26074,1,0,0:0:0:0:
148,186,26241,2,0,P|105:197|53:207,1,85
136,94,26574,1,8,0:2:0:0:
177,269,26741,2,0,B|170:306|140:327|140:327|42:310,1,170
263,229,27241,2,0,P|271:273|276:326,1,85,10|0,0:2|0:0,0:0:0:0:
411,366,27574,1,2,0:2:0:0:
445,263,27741,1,0,0:0:0:0:
320,149,27908,2,0,P|277:132|230:130,1,85,10|0,0:2|0:0,0:0:0:0:
52,195,28241,6,0,P|114:184|145:92,1,170,4|8,0:2|0:2,0:0:0:0:
41,21,28741,2,0,L|64:119,1,85
46,316,29074,1,2,0:2:0:0:
157,256,29241,1,8,0:2:0:0:
273,317,29408,2,0,P|319:348|429:340,1,170
429,339,29824,1,0,0:0:0:0:
429,339,29908,2,0,L|442:244,1,85,8|0,0:0|0:0,0:0:0:0:
266,187,30241,6,0,L|308:199,1,42.5,2|0,0:0|0:0,0:0:0:0:
413,170,30408,2,0,L|475:156,1,42.5,2|0,0:0|0:0,0:0:0:0:
374,98,30574,6,0,L|347:282,1,170,0|0,2:0|2:0,2:0:0:0:
333,353,31408,5,0,0:0:0:0:
98,269,31574,1,8,0:3:0:0:
98,269,31658,1,0,0:0:0:0:
98,269,31741,1,4,0:3:0:0:
41,353,31908,1,8,0:0:0:0:
193,314,32074,6,0,L|168:131,1,170,4|0,0:2|0:0,0:0:0:0:
77,57,32574,2,0,P|63:101|67:146,1,85,10|0,0:2|0:0,0:0:0:0:
272,235,32908,2,0,P|286:191|282:146,1,85,2|0,0:2|0:0,0:0:0:0:
193,34,33241,1,10,0:2:0:0:
99,233,33408,1,0,0:0:0:0:
377,147,33574,6,0,P|297:131|207:125,1,170,0|8,0:0|0:2,0:0:0:0:
57,329,34074,2,0,P|100:329|142:320,1,85
252,226,34408,1,0,0:0:0:0:
290,355,34574,1,8,0:2:0:0:
430,272,34741,2,0,P|479:224|442:129,1,170
255,68,35241,5,10,0:2:0:0:
163,250,35408,1,0,0:0:0:0:
373,195,35574,1,2,0:2:0:0:
373,195,35658,1,0,0:0:0:0:
373,195,35741,1,0,0:0:0:0:
133,119,35908,1,10,0:2:0:0:
252,201,36074,1,0,0:0:0:0:
74,340,36241,6,0,P|126:293|236:320,1,170,4|8,0:2|0:2,0:0:0:0:
54,216,36741,1,0,0:0:0:0:
133,119,36908,2,0,L|148:205,1,85
219,305,37241,1,8,0:2:0:0:
407,196,37408,2,0,B|300:167|300:167|240:209,1,170,0|0,0:2|0:0,0:0:0:0:
443,302,37908,5,10,0:2:0:0:
490,165,38074,1,0,0:0:0:0:
334,264,38241,2,0,P|313:302|301:365,1,85,2|0,0:2|0:2,0:2:0:0:
242,101,38574,1,10,0:2:0:0:
407,196,38741,1,0,0:0:0:0:
217,297,38908,6,0,B|162:320|162:320|43:299,1,170,4|8,0:2|0:2,0:0:0:0:
158,87,39408,2,0,L|242:101,1,85,2|0,0:0|0:0,0:0:0:0:
159,198,39741,2,0,L|75:184,1,85,2|8,0:0|0:2,0:0:0:0:
312,355,40074,6,0,B|361:307|361:307|475:339,1,170,4|0,0:2|0:0,0:0:0:0:
284,252,40574,2,0,L|345:193,1,85,8|0,0:0|0:0,0:0:0:0:
481,237,40908,1,2,3:0:0:0:
446,226,40991,1,4,3:0:0:0:
270,150,41158,1,0,3:0:0:0:
271,123,41241,1,0,3:0:0:0:
273,98,41324,1,0,3:0:0:0:
274,73,41408,2,0,L|276:31,1,42.5,0|0,3:0|3:0,3:0:0:0:
450,75,41574,6,0,P|418:99|375:105,1,85,4|0,0:2|0:0,0:0:0:0:
170,192,41908,2,0,L|181:61,1,127.5,8|0,0:2|0:0,0:0:0:0:
160,23,42241,2,0,L|148:121,1,85,2|0,0:2|0:0,0:0:0:0:
172,297,42574,1,8,0:2:0:0:
250,238,42741,2,0,B|194:204|194:204|83:234,1,170,4|0,0:2|0:0,0:0:0:0:
9,291,43241,6,0,P|33:319|86:331,1,85,10|0,0:2|0:0,0:0:0:0:
253,350,43574,2,0,L|344:326,1,85,2|0,0:2|0:0,0:0:0:0:
420,234,43908,1,10,0:2:0:0:
468,355,44074,1,0,0:0:0:0:
332,214,44241,6,0,P|373:147|458:149,1,170,0|8,0:0|0:2,0:0:0:0:
324,52,44741,1,0,0:0:0:0:
226,187,44908,2,0,L|33:174,1,170,2|8,0:2|0:2,0:0:0:0:
173,18,45408,2,0,P|186:58|194:108,1,85,4|0,0:2|0:0,0:0:0:0:
191,272,45741,1,0,0:0:0:0:
33,301,45908,6,0,L|56:173,1,127.5,8|0,0:2|0:0,0:0:0:0:
85,164,46241,2,0,L|68:258,1,85,2|0,0:2|0:0,0:0:0:0:
153,353,46574,1,8,0:2:0:0:
278,306,46741,1,0,0:0:0:0:
254,132,46908,6,0,L|242:45,1,85
189,196,47241,2,0,P|244:222|306:210,1,127.5,8|0,0:2|0:0,0:0:0:0:
342,192,47574,2,0,L|360:107,1,85,2|0,0:2|0:0,0:0:0:0:
177,287,47907,1,8,0:2:0:0:
164,105,48074,2,0,P|115:129|106:242,1,170,4|0,0:2|0:0,0:0:0:0:
292,340,48574,6,0,P|283:295|262:257,1,85
100,344,48908,2,0,P|60:329|18:330,1,85
177,287,49241,1,0,0:0:0:0:
164,105,49407,1,0,0:0:0:0:
44,164,49574,6,0,B|148:203|148:203|219:183,1,170
379,131,50074,1,0,0:0:0:0:
431,323,50241,2,0,L|320:311,1,85
199,354,50574,1,0,0:0:0:0:
233,92,50741,2,0,P|293:149|286:231,1,170
159,276,51241,6,0,L|11:261,1,127.5
21,242,51574,2,0,L|67:235,2,42.5
209,192,51907,1,0,0:0:0:0:
238,347,52074,1,0,0:0:0:0:
123,135,52241,6,0,L|135:51,1,85
366,267,52574,2,0,P|324:270|278:252,1,85
241,89,52908,1,0,0:0:0:0:
334,176,53074,1,0,0:0:0:0:
150,261,53241,1,0,0:0:0:0:
59,226,53408,2,0,P|98:173|213:194,1,170
284,255,53908,6,0,L|290:348,1,85
438,312,54241,1,0,0:0:0:0:
391,159,54408,1,0,0:0:0:0:
200,270,54574,2,0,L|309:250,1,85
464,80,54908,6,0,L|290:47,1,170
93,142,55408,1,0,0:0:0:0:
208,165,55574,2,0,L|199:80,1,85
123,29,55908,1,0,0:0:0:0:
151,257,56074,2,0,P|231:273|295:221,1,170
93,142,56574,5,0,0:0:0:0:
116,349,56741,1,0,0:0:0:0:
116,349,56824,1,0,0:0:0:0:
116,349,56908,1,0,0:0:0:0:
25,297,57074,1,0,0:0:0:0:
215,211,57241,1,0,0:0:0:0:
319,318,57408,1,0,0:0:0:0:
346,329,57491,1,0,0:0:0:0:
375,333,57574,6,0,B|403:331|429:308|429:308|442:189,1,170
355,24,58074,2,0,P|313:42|283:80,1,85
342,194,58408,1,0,0:0:0:0:
483,124,58574,1,0,0:0:0:0:
245,161,58741,2,0,P|182:163|134:69,1,170
263,253,59241,5,0,0:0:0:0:
107,211,59408,1,0,0:0:0:0:
107,211,59491,1,0,0:0:0:0:
107,211,59574,2,0,L|99:300,1,85
180,353,59824,2,0,L|183:310,2,42.5
270,344,60074,1,0,0:0:0:0:
323,100,60241,6,0,L|329:153,1,42.5
350,276,60408,1,0,0:0:0:0:
371,274,60491,1,0,0:0:0:0:
392,273,60574,1,0,0:0:0:0:
185,31,60741,6,0,L|178:84,1,42.5
158,207,60908,1,0,0:0:0:0:
137,205,60991,1,0,0:0:0:0:
116,204,61074,1,0,0:0:0:0:
350,73,61241,6,0,L|356:126,1,42.5
370,246,61408,1,0,0:0:0:0:
391,244,61491,1,0,0:0:0:0:
412,243,61574,5,4,0:2:0:0:
257,152,61741,1,4,0:2:0:0:
202,302,61908,6,0,P|106:328|162:235,1,255,0|0,2:0|2:0,2:0:0:0:
400,296,62574,1,10,1:2:0:0:
150,233,62908,6,0,P|105:244|46:269,1,85
294,348,63241,1,8,0:0:0:0:
247,162,63408,1,0,0:0:0:0:
247,162,63491,1,0,0:0:0:0:
247,162,63574,1,0,0:0:0:0:
135,320,63741,1,2,0:2:0:0:
64,169,63908,2,0,L|50:85,1,85,8|0,0:0|0:0,0:0:0:0:
279,247,64241,6,0,B|321:260|321:260|365:248,1,85,4|0,0:2|0:0,0:0:0:0:
272,62,64574,1,8,0:0:0:0:
178,224,64741,2,0,L|-13:258,1,170,2|0,0:0|0:0,0:0:0:0:
115,108,65241,2,0,L|203:132,1,85,8|0,0:0|0:0,0:0:0:0:
355,167,65574,5,0,0:0:0:0:
285,330,65741,1,0,0:0:0:0:
178,224,65908,1,8,0:0:0:0:
417,76,66074,2,0,B|460:127|460:127|435:243,1,170,2|0,0:2|0:0,0:0:0:0:
264,243,66574,2,0,L|279:132,1,85,8|0,0:0|0:0,0:0:0:0:
181,48,66908,5,2,0:2:0:0:
177,68,66991,1,0,0:0:0:0:
173,89,67074,1,0,0:0:0:0:
285,330,67241,1,8,0:0:0:0:
489,303,67408,2,0,P|429:244|354:264,1,170,2|0,0:0|0:0,0:0:0:0:
193,338,67908,2,0,L|93:325,1,85,8|0,0:0|0:0,0:0:0:0:
134,55,68241,6,0,L|149:150,1,85
224,250,68574,1,8,0:0:0:0:
27,312,68741,1,0,0:0:0:0:
27,312,68824,1,0,0:0:0:0:
27,312,68908,1,0,0:0:0:0:
55,148,69074,1,2,0:2:0:0:
224,250,69241,2,0,L|139:239,1,85,8|0,0:0|0:0,0:0:0:0:
284,64,69574,6,0,L|273:159,1,85,4|0,0:2|0:0,0:0:0:0:
387,342,69908,1,8,0:0:0:0:
463,268,70074,2,0,B|403:231|403:231|297:281,1,170,2|0,0:0|0:0,0:0:0:0:
189,349,70574,2,0,P|182:317|177:256,1,85,8|0,0:0|0:0,0:0:0:0:
186,55,70908,5,2,0:2:0:0:
365,128,71074,1,0,0:0:0:0:
365,128,71158,1,0,0:0:0:0:
365,128,71241,1,8,0:0:0:0:
103,94,71408,2,0,B|88:46|88:46|109:10,1,85,2|0,0:3|0:0,0:0:0:0:
276,80,71741,5,2,0:2:0:0:
49,185,71908,1,8,0:0:0:0:
213,302,72074,2,0,B|237:194|237:194|204:145,1,170,4|0,0:2|0:0,0:0:0:0:
111,353,72574,5,8,0:0:0:0:
316,281,72741,1,0,0:0:0:0:
143,214,72908,5,8,0:3:0:0:
207,340,73074,1,4,0:3:0:0:
466,188,73241,5,8,0:0:0:0:
436,182,73324,1,0,0:0:0:0:
407,177,73407,1,0,0:0:0:0:
378,172,73490,1,0,0:0:0:0:
348,167,73574,6,0,P|306:172|270:199,1,85
207,340,73908,1,8,0:0:0:0:
84,248,74074,1,0,0:0:0:0:
84,248,74158,1,0,0:0:0:0:
84,248,74241,1,0,0:0:0:0:
234,114,74408,1,2,0:2:0:0:
368,274,74574,2,0,L|283:279,1,85,8|0,0:0|0:0,0:0:0:0:
26,172,74908,5,4,0:2:0:0:
180,249,75074,1,0,0:0:0:0:
35,341,75241,1,8,0:0:0:0:
99,103,75408,2,0,B|165:142|165:142|266:105,1,170,2|0,0:0|0:0,0:0:0:0:
442,71,75908,2,0,L|336:43,1,85,8|0,0:0|0:0,0:0:0:0:
267,205,76241,5,0,0:0:0:0:
379,348,76408,1,0,0:0:0:0:
482,241,76574,1,8,0:0:0:0:
368,153,76741,1,0,0:0:0:0:
371,178,76824,1,0,0:0:0:0:
375,203,76907,1,0,0:0:0:0:
288,338,77074,1,2,0:2:0:0:
153,324,77241,2,0,L|138:225,1,85,8|0,0:0|0:0,0:0:0:0:
31,126,77574,5,6,0:2:0:0:
166,56,77741,1,0,0:0:0:0:
252,184,77908,1,8,0:0:0:0:
359,112,78074,2,0,P|382:77|497:85,1,170,2|0,0:0|0:0,0:0:0:0:
434,319,78574,1,8,0:0:0:0:
432,297,78657,1,0,0:0:0:0:
430,276,78740,1,0,0:0:0:0:
428,255,78823,1,0,0:0:0:0:
426,234,78908,6,0,P|390:214|339:210,1,85,2|0,0:3|3:0,0:0:0:0:
69,199,79241,5,2,0:3:0:0:
255,328,79408,1,0,3:0:0:0:
348,92,79574,5,2,0:3:0:0:
163,267,79741,1,0,3:0:0:0:
149,33,79908,5,2,0:3:0:0:
247,221,80074,1,0,3:0:0:0:
252,68,80241,6,0,L|197:136,1,85,2|2,3:3|0:0,0:0:0:0:
45,290,80574,1,2,3:3:0:0:
27,105,80741,2,0,L|93:170,1,85,2|0,0:0|0:0,0:0:0:0:
255,320,81074,1,2,0:0:0:0:
331,134,81241,1,8,0:3:0:0:
154,244,81408,1,4,0:3:0:0:
422,303,81574,5,2,0:3:0:0:
247,221,81741,1,0,3:0:0:0:
303,45,81908,5,2,0:3:0:0:
352,226,82074,1,0,3:0:0:0:
478,100,82241,5,2,0:3:0:0:
331,134,82408,1,0,3:0:0:0:
400,34,82575,5,2,0:3:0:0:
419,161,82741,1,0,3:0:0:0:
164,77,82908,5,0,0:0:0:0:
120,309,83074,1,0,0:0:0:0:
419,161,83241,5,8,0:0:0:0:
179,218,83408,1,0,0:0:0:0:
179,218,83491,1,0,0:0:0:0:
179,218,83574,6,0,L|120:208,1,42.5,4|0,0:2|0:0,0:0:0:0:
304,145,83741,2,0,L|249:162,2,42.5,0|0|8,0:0|0:0|0:0,0:0:0:0:
334,369,84074,5,4,0:2:0:0:
256,192,84241,12,0,86241,1:2:0:0:
334,369,86408,5,8,0:0:0:0:
465,214,86741,6,0,P|436:170|325:190,1,170,4|0,0:2|0:0,0:0:0:0:
205,297,87241,2,0,L|188:188,1,85,8|0,0:0|0:0,0:0:0:0:
392,249,87574,2,0,L|405:332,1,85
297,266,87908,1,8,0:0:0:0:
350,65,88074,2,0,B|332:179|332:179|272:128,1,170,2|0,0:0|0:0,0:0:0:0:
140,71,88574,6,0,P|170:43|226:30,1,85,8|0,0:0|0:0,0:0:0:0:
100,328,88908,2,0,P|70:300|14:287,1,85
206,263,89241,1,8,0:0:0:0:
22,148,89408,2,0,B|70:189|70:189|190:166,1,170,6|0,0:2|0:0,0:0:0:0:
388,45,89908,6,0,L|289:68,1,85,8|0,0:0|0:0,0:0:0:0:
337,261,90241,1,0,0:0:0:0:
430,283,90408,1,0,0:0:0:0:
402,182,90574,1,8,0:0:0:0:
175,169,90741,2,0,L|197:342,1,170,2|0,0:2|0:0,0:0:0:0:
92,302,91241,5,8,0:0:0:0:
266,219,91408,2,0,B|376:240|376:240|311:275,1,170
119,188,91908,1,8,0:0:0:0:
133,162,91991,1,0,0:0:0:0:
139,133,92074,1,0,0:0:0:0:
137,103,92157,1,0,0:0:0:0:
126,76,92241,6,0,B|91:51|40:45|40:45|22:84|42:130,1,170,4|8,0:2|0:0,0:0:0:0:
92,302,92741,1,0,0:0:0:0:
214,230,92908,2,0,P|231:189|233:139,1,85
34,215,93241,1,8,0:0:0:0:
177,357,93408,2,0,B|208:352|234:317|234:317|277:352|325:347,1,170,2|0,0:0|0:0,0:0:0:0:
434,259,93908,6,0,P|465:292|478:346,1,85,8|0,0:0|0:0,0:0:0:0:
227,190,94241,1,0,0:0:0:0:
386,86,94408,1,0,0:0:0:0:
337,262,94574,2,0,L|326:177,1,85,8|0,0:0|0:0,0:0:0:0:
197,33,94908,6,0,P|239:37|278:52,1,85,6|0,0:2|0:0,0:0:0:0:
491,145,95241,2,0,P|451:161|410:169,1,85,8|0,0:0|0:0,0:0:0:0:
193,117,95574,1,0,0:0:0:0:
191,271,95741,1,0,0:0:0:0:
326,177,95908,1,8,0:0:0:0:
77,209,96074,2,0,L|98:345,1,127.5,2|0,0:2|0:0,0:0:0:0:
120,346,96408,5,0,0:0:0:0:
279,293,96574,1,0,0:0:0:0:
407,381,96741,1,0,0:0:0:0:
457,58,96908,5,2,0:2:0:0:
370,174,97074,1,2,0:2:0:0:
209,191,97241,1,2,0:2:0:0:
99,38,97408,1,6,0:2:0:0:
99,38,98741,5,4,0:0:0:0:
256,192,98908,12,0,101074,2:0:0:0:
