osu file format v14

[General]
AudioFilename: audio.mp3
AudioLeadIn: 0
PreviewTime: 62241
Countdown: 0
SampleSet: Normal
StackLeniency: 0.7
Mode: 0
LetterboxInBreaks: 0
WidescreenStoryboard: 1

[Editor]
DistanceSpacing: 1.5
BeatDivisor: 4
GridSize: 32
TimelineZoom: 1

[Metadata]
Title:Grand symphony
TitleUnicode:Grand symphony
Artist:Sasaki Sayaka
ArtistUnicode:佐咲紗花
Creator:Mamiko
Version:Hard
Source:ガールズ&パンツァー 最終章
Tags:girls und panzer
BeatmapID:1598656
BeatmapSetID:760056

[Difficulty]
HPDrainRate:4
CircleSize:3.5
OverallDifficulty:6
ApproachRate:7
SliderMultiplier:1.7
SliderTickRate:1

[Events]
//Background and Video events
0,0,"bg.png",0,0
//Break Periods
//Storyboard Layer 0 (Background)
//Storyboard Layer 1 (Fail)
//Storyboard Layer 2 (Pass)
//Storyboard Layer 3 (Foreground)
//Storyboard Sound Samples

[TimingPoints]
1575,333.333333333333,4,1,1,60,1,0
1575,-133.333333333333,4,3,1,60,0,0
12241,-100,4,1,1,60,0,0
30574,-200,4,1,1,60,0,0
31574,-100,4,1,1,60,0,0
62908,-100,4,1,1,60,0,1
86741,-100,4,1,1,60,0,0

[Colours]
Combo1 : 128,128,192
Combo2 : 0,128,192
Combo3 : 0,128,255
Combo4 : 128,64,64
Combo5 : 128,0,0
Combo6 : 255,128,64
Combo7 : 255,128,128
Combo8 : 128,0,255

[HitObjects]
270,331,1575,6,0,P|326:357|390:332,2,127.500004863739
320,220,2574,2,0,L|329:285,2,42.5000016212464
290,195,2907,2,0,L|316:65,1,127.500004863739
412,134,3462,1,0,0:0:0:0:
420,168,3574,2,0,L|447:318,1,127.500004863739
182,252,4240,6,0,P|140:239|96:244,1,85.0000032424928
60,256,4574,2,0,L|72:306,2,42.5000016212464
39,167,4907,2,0,L|171:139,1,127.500004863739
302,42,5574,2,0,L|288:199,1,127.500004863739
352,270,6240,2,0,P|402:244|493:274,1,127.500004863739
257,323,6908,6,0,P|207:349|116:319,2,127.500004863739
179,208,7908,2,0,L|190:255,2,42.5000016212464
171,166,8241,2,0,L|37:198,1,127.500004863739
121,73,8797,1,0,0:0:0:0:
154,63,8908,2,0,P|209:68|248:139,1,127.500004863739
323,268,9574,6,0,P|344:220|325:151,1,127.500004863739
344,58,10241,2,0,P|409:70|471:37,1,127.500004863739
477,166,10797,1,0,0:0:0:0:
455,190,10908,2,0,P|436:251|452:313,1,127.500004863739
468,301,11574,5,0,0:0:0:0:
382,252,11741,1,0,0:0:0:0:
315,324,11908,1,0,0:0:0:0:
298,338,11991,1,0,0:0:0:0:
278,348,12074,1,0,0:0:0:0:
256,352,12158,1,0,0:0:0:0:
234,350,12241,6,0,L|134:334,1,85
45,314,12574,1,0,0:0:0:0:
45,314,12741,2,0,P|99:264|76:178,1,170
89,49,13241,1,0,0:0:0:0:
191,114,13408,2,0,B|242:147|242:147|367:111,1,170
340,30,13908,2,0,L|248:56,1,85
327,205,14241,1,0,0:0:0:0:
422,184,14408,1,0,0:0:0:0:
478,264,14574,2,0,L|467:362,1,85
469,349,14824,1,0,0:0:0:0:
469,349,14908,6,0,P|430:331|386:331,1,85
300,357,15241,1,0,0:0:0:0:
201,328,15408,2,0,L|189:157,1,170
265,106,15908,1,0,0:0:0:0:
109,236,16074,2,0,P|53:208|76:103,1,170
124,40,16574,2,0,L|222:19,1,85
265,106,16908,2,0,L|313:113,2,42.5
404,71,17241,2,0,L|457:60,2,42.5
383,187,17574,5,0,0:0:0:0:
256,192,17658,12,0,19908,2:0:0:0:
187,280,20241,6,0,P|224:262|267:264,1,85
349,319,20574,1,0,0:0:0:0:
426,258,20741,2,0,L|443:74,1,170
344,129,21241,1,0,0:0:0:0:
275,57,21408,2,0,P|187:38|119:86,1,170
46,151,21908,2,0,P|80:174|131:173,1,85
220,137,22241,2,0,L|216:235,1,85
241,350,22574,1,0,0:0:0:0:
130,288,22741,1,0,0:0:0:0:
308,236,22908,6,0,P|348:308|439:304,1,170
495,203,23408,2,0,L|408:224,1,85
366,131,23741,2,0,L|262:106,1,85
205,30,24074,2,0,B|166:90|166:90|194:197,1,170
304,222,24574,2,0,P|281:258|270:319,1,85
202,359,24908,1,0,0:0:0:0:
128,295,25074,1,0,0:0:0:0:
41,323,25241,2,0,L|26:215,1,85
46,124,25574,6,0,B|151:106|98:165|242:140,1,170
302,182,26074,1,0,0:0:0:0:
388,135,26241,2,0,P|399:94|390:51,1,85
297,88,26574,1,0,0:0:0:0:
221,226,26741,2,0,B|234:339|234:339|286:312,1,170
393,268,27241,2,0,P|364:238|315:229,1,85
128,298,27574,2,0,L|119:197,1,85
42,140,27908,1,0,0:0:0:0:
95,38,28074,1,0,0:0:0:0:
197,70,28241,6,0,B|232:87|247:121|247:121|294:92|336:88,1,170
422,215,28741,2,0,P|385:204|350:167,1,85
423,32,29074,2,0,L|431:127,1,85
485,314,29408,6,0,B|367:289|367:289|323:328,1,170
266,238,29908,2,0,L|252:181,2,42.5
167,232,30241,2,0,L|153:342,1,85
70,347,30574,6,0,L|49:179,1,170
33,89,31408,5,0,0:0:0:0:
134,39,31574,2,0,L|179:22,2,42.5
162,146,31908,1,0,0:0:0:0:
255,222,32074,6,0,P|335:239|400:188,1,170
322,53,32574,2,0,L|314:142,1,85
474,262,32908,2,0,L|485:161,1,85
413,101,33241,1,0,0:0:0:0:
315,138,33408,1,0,0:0:0:0:
222,77,33574,6,0,B|168:42|168:42|60:97,1,170
37,186,34074,2,0,L|50:284,1,85
229,198,34408,2,0,P|201:164|145:153,1,85
213,288,34741,2,0,P|273:286|317:170,1,170
131,246,35241,2,0,L|122:353,1,85
229,198,35574,2,0,L|236:113,1,85
377,283,35908,2,0,P|338:289|292:273,1,85
394,100,36241,6,0,B|417:142|407:200|407:200|435:173|471:158,1,170
326,166,36741,1,0,0:0:0:0:
377,283,36908,2,0,B|418:295|418:295|477:278,1,85
326,166,37241,1,0,0:0:0:0:
258,239,37408,2,0,P|219:310|138:314,1,170
57,259,37908,2,0,L|51:147,1,85
156,48,38241,2,0,P|192:58|227:104,1,85
173,234,38574,1,0,0:0:0:0:
145,144,38741,1,0,0:0:0:0:
292,177,38908,6,0,L|477:226,1,170
352,280,39408,2,0,L|253:299,1,85
373,115,39741,2,0,L|456:98,1,85
193,226,40074,2,0,L|24:263,1,170
64,158,40574,1,0,0:0:0:0:
64,158,40741,1,0,0:0:0:0:
175,39,40908,2,0,L|167:126,1,85
289,191,41241,1,0,0:0:0:0:
285,165,41324,1,0,0:0:0:0:
281,143,41407,1,0,0:0:0:0:
279,117,41491,1,0,0:0:0:0:
275,96,41574,6,0,P|311:75|362:81,1,85
439,134,41908,1,0,0:0:0:0:
439,134,42074,1,0,0:0:0:0:
466,231,42241,2,0,P|426:301|344:303,1,170
256,349,42741,2,0,P|202:319|83:348,1,170
32,260,43241,2,0,L|18:167,1,85
151,57,43574,2,0,B|164:116|164:116|140:173|140:173|178:229,2,170
299,134,44574,6,0,P|344:136|388:105,1,85
449,174,44908,2,0,P|474:125|400:34,1,170
369,210,45408,2,0,P|328:275|369:354,1,170
235,316,45908,2,0,B|177:289|177:289|72:361,1,170
124,93,46574,2,0,L|147:188,1,85
235,186,46908,6,0,B|211:89|211:89|254:18,1,170
145,176,47574,2,0,P|74:183|30:102,1,170
213,96,48074,2,0,P|284:118|384:133,1,170
464,216,48574,2,0,P|423:233|375:243,1,85
246,204,48908,2,0,B|290:253|290:253|279:306|228:348,1,170
17,223,49574,6,0,P|53:170|163:187,2,170
39,328,50408,1,0,0:0:0:0:
101,249,50574,1,0,0:0:0:0:
189,279,50741,2,0,P|258:304|327:229,1,170
410,202,51241,2,0,P|352:145|274:168,1,170
274,167,51658,1,0,0:0:0:0:
274,167,51741,1,0,0:0:0:0:
183,179,51908,2,0,L|168:81,1,85
256,36,52241,5,0,0:0:0:0:
410,202,52574,2,0,P|414:278|333:322,1,170
253,257,53074,1,0,0:0:0:0:
189,354,53241,1,0,0:0:0:0:
68,331,53408,2,0,L|47:155,1,170
85,60,53908,2,0,P|143:31|230:108,1,170
193,184,54408,1,0,0:0:0:0:
302,239,54574,2,0,L|324:149,1,85
427,105,54908,6,0,L|463:307,2,170
343,38,55741,1,0,0:0:0:0:
247,90,55908,1,0,0:0:0:0:
265,192,56074,2,0,L|301:394,1,170
193,363,56574,2,0,P|155:324|45:338,1,170
141,268,57074,1,0,0:0:0:0:
99,180,57241,2,0,P|70:150|25:137,1,85
174,105,57574,6,0,P|241:102|296:15,1,170
282,187,58074,2,0,L|451:213,2,170
185,241,58908,2,0,P|171:320|237:365,1,170
282,187,59408,1,0,0:0:0:0:
162,147,59574,2,0,P|116:154|34:207,2,127.5
263,92,60241,6,0,L|253:7,1,85
169,56,60574,1,0,0:0:0:0:
227,186,60741,6,0,L|312:176,1,85
263,92,61074,1,0,0:0:0:0:
133,150,61241,6,0,L|143:235,1,85
227,186,61574,1,0,0:0:0:0:
39,128,61741,1,0,0:0:0:0:
448,272,62241,5,0,0:0:0:0:
448,272,62574,1,0,0:0:0:0:
448,272,62908,6,0,L|442:171,1,85
346,144,63241,1,0,0:0:0:0:
316,303,63408,2,0,P|250:352|145:319,1,170
41,282,63908,2,0,P|75:259|129:260,1,85
225,258,64241,6,0,L|245:88,1,170
70,56,64741,2,0,P|57:124|145:155,1,170
245,88,65241,2,0,P|287:71|333:68,1,85
464,183,65574,5,0,0:0:0:0:
352,156,65741,1,0,0:0:0:0:
431,71,65908,1,0,0:0:0:0:
387,259,66074,2,0,B|286:301|322:237|208:269,1,170
129,209,66574,2,0,P|111:252|120:313,1,85
237,174,66908,6,0,P|187:111|95:110,1,170
28,175,67408,2,0,P|81:122|54:29,1,170
193,90,67908,2,0,P|235:77|266:40,1,85
375,30,68241,6,0,L|370:136,1,85
346,223,68574,1,0,0:0:0:0:
473,261,68741,2,0,P|509:203|421:194,1,170
389,308,69241,2,0,P|357:334|303:335,1,85
220,366,69574,6,0,P|195:329|75:327,1,170
44,211,70074,2,0,L|226:192,1,170
114,79,70574,1,0,0:0:0:0:
407,141,70908,5,0,0:0:0:0:
207,38,71241,1,0,0:0:0:0:
114,79,71408,2,0,L|126:182,1,85
207,286,71741,2,0,L|216:201,1,85
301,141,72074,2,0,P|351:165|469:140,1,170
341,49,72574,2,0,P|297:37|242:57,1,85
151,46,72908,2,0,L|136:144,1,85
39,128,73241,2,0,L|24:226,1,85
57,321,73574,6,0,P|95:301|137:304,1,85
219,360,73908,1,0,0:0:0:0:
314,325,74074,2,0,L|335:140,1,170
433,130,74574,2,0,P|444:167|429:230,1,85
239,140,74908,6,0,P|275:67|372:75,1,170
282,238,75408,2,0,L|93:219,1,170
36,110,75908,2,0,L|137:94,1,85
239,140,76241,5,0,0:0:0:0:
112,220,76408,1,0,0:0:0:0:
119,96,76574,1,0,0:0:0:0:
224,259,76741,2,0,P|288:320|377:296,1,170
446,237,77241,2,0,L|461:128,1,85
376,57,77574,6,0,B|273:42|315:88|172:65,1,170
67,111,78074,2,0,P|131:108|146:8,1,170
101,200,78574,1,0,0:0:0:0:
103,221,78657,1,0,0:0:0:0:
105,242,78740,1,0,0:0:0:0:
107,263,78823,1,0,0:0:0:0:
109,284,78908,6,0,L|200:301,1,85
371,332,79241,2,0,L|287:347,1,85
193,198,79574,2,0,L|284:215,1,85
445,231,79907,2,0,L|361:246,1,85
302,123,80241,6,0,L|477:90,1,170
369,22,80741,1,0,0:0:0:0:
235,57,80908,2,0,P|211:93|212:153,1,85
131,203,81241,2,0,P|126:161|102:126,1,85
49,260,81574,6,0,P|83:295|137:305,1,85
286,313,81908,2,0,P|246:327|218:358,1,85
131,203,82241,2,0,P|177:217|229:201,1,85
365,138,82575,2,0,P|336:169|326:209,1,85
388,299,82908,6,0,L|479:336,1,85
445,179,83241,2,0,L|498:170,2,42.5
259,107,83574,2,0,L|317:30,1,85
85,49,84074,5,0,0:0:0:0:
256,192,84241,12,0,86241,0:0:0:0:
256,192,86408,5,0,0:0:0:0:
338,268,86741,6,0,P|376:230|336:128,1,170
271,62,87241,2,0,P|226:64|187:80,1,85
82,40,87574,2,0,L|91:159,1,85
35,259,87908,1,0,0:0:0:0:
125,209,88074,2,0,P|191:198|261:286,1,170
192,331,88574,6,0,L|92:354,1,85
258,266,88908,2,0,L|358:289,1,85
434,313,89241,1,0,0:0:0:0:
479,164,89408,2,0,L|304:189,1,170
198,205,89908,2,0,P|176:171|166:126,1,85
58,109,90241,2,0,P|76:71|113:41,1,85
223,40,90574,1,0,0:0:0:0:
320,100,90741,6,0,B|338:195|280:161|318:288,1,170
402,220,91241,1,0,0:0:0:0:
227,305,91408,2,0,P|153:348|61:312,1,170
48,223,91908,1,0,0:0:0:0:
49,201,91991,1,0,0:0:0:0:
50,180,92074,1,0,0:0:0:0:
51,159,92157,1,0,0:0:0:0:
53,138,92241,6,0,B|98:97|98:97|120:152|196:171,1,170
358,86,92741,1,0,0:0:0:0:
275,30,92908,2,0,L|256:127,1,85
209,280,93241,1,0,0:0:0:0:
318,336,93408,6,0,P|388:335|430:228,1,170
378,180,93908,2,0,P|332:195|290:226,1,85
201,196,94241,2,0,P|202:245|217:302,1,85
36,349,94574,2,0,P|44:307|44:264,1,85
40,159,94908,6,0,P|123:150|166:56,2,170
71,56,95741,1,0,0:0:0:0:
166,82,95908,2,0,P|205:96|251:105,1,85
348,127,96241,6,0,P|412:119|463:51,1,127.5
465,54,96574,2,0,L|459:143,1,85
366,261,96908,2,0,L|360:345,1,85
213,217,97241,2,0,L|207:306,1,85
213,217,98741,5,0,0:0:0:0:
256,192,98908,12,0,101074,0:0:0:0:
