osu file format v14

[General]
AudioFilename: audio.mp3
AudioLeadIn: 0
PreviewTime: 60833
Countdown: 0
SampleSet: Normal
StackLeniency: 0.7
Mode: 1
LetterboxInBreaks: 0
WidescreenStoryboard: 0

[Editor]
Bookmarks:
DistanceSpacing: 0.5
BeatDivisor: 4
GridSize: 32
TimelineZoom: 1.3

[Metadata]
Title:Golden Mission
TitleUnicode:Golden Mission
Artist:Sasaki Sayaka
ArtistUnicode:佐咲紗花
Creator:yuzu__rinrin
Version:Futsuu
Source:金色ラブリッチェ
Tags:SAGA PLANETS Kin-iro Loveriche Opening Visual Novel eroge Elements Garden Kikuta Daisuke
BeatmapID:1417551
BeatmapSetID:670221

[Difficulty]
HPDrainRate:6
CircleSize:2
OverallDifficulty:4
ApproachRate:10
SliderMultiplier:1.4
SliderTickRate:1

[Events]
//Background and Video events
0,0,"BG4.jpg",0,100
//Break Periods
//Storyboard Layer 0 (Background)
//Storyboard Layer 1 (Fail)
//Storyboard Layer 2 (Pass)
//Storyboard Layer 3 (Foreground)
//Storyboard Sound Samples

[TimingPoints]
294,410.958904109589,4,1,0,80,1,0
1937,-100,4,1,0,70,0,0
3581,-100,4,1,0,80,0,0
5225,-100,4,1,0,70,0,0
8513,-100,4,1,0,80,0,0
8924,-100,4,1,0,60,0,0
13444,-100,4,1,0,70,0,0
15088,-100,4,1,0,80,0,0
25362,-100,4,1,0,60,0,0
26595,-100,4,1,0,80,0,0
27006,-100,4,1,0,70,0,0
28239,-100,4,1,0,80,0,0
31526,-100,4,1,0,70,0,0
44677,-100,4,1,0,60,0,0
46115,-100,4,1,0,70,0,0
47965,-100,4,1,0,80,0,0
57828,-100,4,1,0,70,0,0
59472,-100,4,1,0,80,0,0
61115,-100,4,1,0,100,0,1
74266,-100,4,1,0,90,0,1
80841,-100,4,1,0,80,0,0
81252,-100,4,1,0,100,0,0
81869,-100,4,1,0,80,0,0
82074,-100,4,1,0,100,0,0
82280,-100,4,1,0,100,0,1
82691,-100,4,1,0,90,0,1
87417,-100,4,1,0,80,0,0
93992,-100,4,1,0,90,0,0

[HitObjects]
256,192,294,5,4,0:0:0:0:
256,192,1115,1,4,0:0:0:0:
256,192,1937,1,4,0:0:0:0:
256,192,2348,1,4,0:0:0:0:
256,192,2759,1,12,0:0:0:0:
256,192,3067,1,12,0:0:0:0:
256,192,3376,1,12,0:0:0:0:
256,192,3581,1,4,0:0:0:0:
256,192,4403,1,4,0:0:0:0:
256,192,5225,1,4,0:0:0:0:
256,192,5636,1,8,0:0:0:0:
256,192,5841,1,0,0:0:0:0:
256,192,6047,1,12,0:0:0:0:
256,192,6663,1,12,0:0:0:0:
256,192,7280,1,0,0:0:0:0:
256,192,7588,1,12,0:0:0:0:
256,192,8513,1,12,0:0:0:0:
256,192,9129,1,8,0:0:0:0:
256,192,9335,1,0,0:0:0:0:
256,192,9746,1,8,0:0:0:0:
256,192,10157,1,0,0:0:0:0:
256,192,10773,1,8,0:0:0:0:
256,192,10978,1,0,0:0:0:0:
256,192,11389,1,8,0:0:0:0:
256,192,11800,1,0,0:0:0:0:
256,192,12417,1,8,0:0:0:0:
256,192,12622,1,0,0:0:0:0:
256,192,13033,1,0,0:0:0:0:
256,192,13239,1,8,0:0:0:0:
256,192,13444,1,4,0:0:0:0:
256,192,13855,1,4,0:0:0:0:
256,192,14266,1,12,0:0:0:0:
256,192,14677,1,12,0:0:0:0:
256,192,15088,1,4,0:0:0:0:
256,192,15499,1,8,0:0:0:0:
256,192,16321,1,8,0:0:0:0:
256,192,16732,1,0,0:0:0:0:
256,192,17143,1,8,0:0:0:0:
256,192,17554,1,0,0:0:0:0:
256,192,17759,1,0,0:0:0:0:
256,192,17965,1,8,0:0:0:0:
256,192,18376,1,0,0:0:0:0:
256,192,19198,1,8,0:0:0:0:
256,192,20020,1,0,0:0:0:0:
256,192,20430,1,8,0:0:0:0:
256,192,20636,1,8,0:0:0:0:
256,192,20841,1,0,0:0:0:0:
256,192,21252,1,8,0:0:0:0:
256,192,21663,1,4,0:0:0:0:
256,192,22074,1,8,0:0:0:0:
256,192,22896,1,8,0:0:0:0:
256,192,23307,1,0,0:0:0:0:
256,192,23718,1,0,0:0:0:0:
256,192,23924,1,8,0:0:0:0:
256,192,24129,1,0,0:0:0:0:
256,192,24540,1,8,0:0:0:0:
256,192,24951,1,4,0:0:0:0:
256,192,26595,1,12,0:0:0:0:
256,192,28239,1,4,0:0:0:0:
256,192,28650,1,0,0:0:0:0:
256,192,29061,1,8,0:0:0:0:
256,192,29472,1,0,0:0:0:0:
256,192,29677,1,0,0:0:0:0:
256,192,30088,1,12,0:0:0:0:
256,192,30293,1,12,0:0:0:0:
256,192,30704,1,0,0:0:0:0:
256,192,30910,1,12,0:0:0:0:
256,192,31115,1,12,0:0:0:0:
256,192,31526,1,4,0:0:0:0:
256,192,31937,1,8,0:0:0:0:
256,192,32348,1,8,0:0:0:0:
256,192,33170,1,0,0:0:0:0:
256,192,33581,1,8,0:0:0:0:
256,192,33992,1,0,0:0:0:0:
256,192,34198,1,8,0:0:0:0:
256,192,34403,1,8,0:0:0:0:
256,192,34814,1,0,0:0:0:0:
256,192,35225,1,8,0:0:0:0:
256,192,35636,1,8,0:0:0:0:
256,192,36458,1,0,0:0:0:0:
256,192,36869,1,0,0:0:0:0:
256,192,37280,1,8,0:0:0:0:
256,192,37485,1,8,0:0:0:0:
256,192,37691,1,8,0:0:0:0:
256,192,38102,1,0,0:0:0:0:
256,192,38513,1,8,0:0:0:0:
256,192,38924,1,8,0:0:0:0:
256,192,39746,1,0,0:0:0:0:
256,192,40157,1,8,0:0:0:0:
256,192,40567,1,0,0:0:0:0:
256,192,40773,1,8,0:0:0:0:
256,192,40978,1,0,0:0:0:0:
256,192,41389,1,0,0:0:0:0:
256,192,41800,1,0,0:0:0:0:
256,192,42006,1,0,0:0:0:0:
256,192,42211,1,8,0:0:0:0:
256,192,42622,1,8,0:0:0:0:
256,192,43033,1,0,0:0:0:0:
256,192,43444,1,0,0:0:0:0:
256,192,43855,1,8,0:0:0:0:
256,192,44677,1,4,0:0:0:0:
256,192,45499,1,4,0:0:0:0:
256,192,46115,1,12,0:0:0:0:
256,192,46732,1,4,0:0:0:0:
256,192,47040,1,4,0:0:0:0:
256,192,47965,1,4,0:0:0:0:
256,192,48273,1,4,0:0:0:0:
256,192,48787,1,12,0:0:0:0:
256,192,49095,1,12,0:0:0:0:
256,192,49609,1,4,0:0:0:0:
256,192,50430,1,0,0:0:0:0:
256,192,50841,1,8,0:0:0:0:
256,192,51252,1,4,0:0:0:0:
256,192,51561,1,4,0:0:0:0:
256,192,52074,1,12,0:0:0:0:
256,192,52383,1,12,0:0:0:0:
256,192,52896,1,4,0:0:0:0:
256,192,53718,1,8,0:0:0:0:
256,192,54129,1,8,0:0:0:0:
256,192,54540,1,4,0:0:0:0:
256,192,55362,1,12,0:0:0:0:
256,192,56184,1,4,0:0:0:0:
256,192,56800,1,12,0:0:0:0:
256,192,57828,1,0,0:0:0:0:
256,192,58239,1,0,0:0:0:0:
256,192,58650,1,8,0:0:0:0:
256,192,59061,1,8,0:0:0:0:
256,192,59472,1,12,0:0:0:0:
256,192,59780,1,12,0:0:0:0:
256,192,60088,1,4,0:0:0:0:
256,192,60293,1,12,0:0:0:0:
256,192,61115,1,4,0:0:0:0:
256,192,61526,1,8,0:0:0:0:
256,192,61937,1,0,0:0:0:0:
256,192,62143,1,0,0:0:0:0:
256,192,62348,1,8,0:0:0:0:
256,192,62759,1,0,0:0:0:0:
256,192,63170,1,0,0:0:0:0:
256,192,63581,1,8,0:0:0:0:
256,192,64403,1,0,0:0:0:0:
256,192,64814,1,8,0:0:0:0:
256,192,65020,1,0,0:0:0:0:
256,192,65225,1,8,0:0:0:0:
256,192,65636,1,8,0:0:0:0:
256,192,65841,1,0,0:0:0:0:
256,192,66252,1,0,0:0:0:0:
256,192,66458,1,8,0:0:0:0:
256,192,66869,1,0,0:0:0:0:
256,192,67691,1,12,0:0:0:0:
256,192,68102,1,8,0:0:0:0:
256,192,68513,1,0,0:0:0:0:
256,192,68718,1,0,0:0:0:0:
256,192,68924,1,8,0:0:0:0:
256,192,69335,1,0,0:0:0:0:
256,192,69746,1,8,0:0:0:0:
256,192,69951,1,0,0:0:0:0:
256,192,70157,1,8,0:0:0:0:
256,192,70978,1,0,0:0:0:0:
256,192,71389,1,8,0:0:0:0:
256,192,71800,1,0,0:0:0:0:
256,192,72006,1,0,0:0:0:0:
256,192,72211,1,0,0:0:0:0:
256,192,72622,1,8,0:0:0:0:
256,192,73033,1,8,0:0:0:0:
256,192,73444,1,0,0:0:0:0:
256,192,73650,1,0,0:0:0:0:
256,192,73855,1,12,0:0:0:0:
256,192,74266,1,4,0:0:0:0:
256,192,75088,1,8,0:0:0:0:
256,192,75499,1,8,0:0:0:0:
256,192,75910,1,0,0:0:0:0:
256,192,76732,1,0,0:0:0:0:
256,192,77143,1,8,0:0:0:0:
256,192,77348,1,0,0:0:0:0:
256,192,77554,1,8,0:0:0:0:
256,192,78376,1,8,0:0:0:0:
256,192,78787,1,0,0:0:0:0:
256,192,78992,1,0,0:0:0:0:
256,192,79198,1,8,0:0:0:0:
256,192,79609,1,8,0:0:0:0:
256,192,80020,1,8,0:0:0:0:
256,192,80430,1,0,0:0:0:0:
256,192,81252,1,12,0:0:0:0:
256,192,82074,1,12,0:0:0:0:
256,192,82280,1,12,0:0:0:0:
256,192,82691,1,0,0:0:0:0:
256,192,82896,1,8,0:0:0:0:
256,192,83307,1,0,0:0:0:0:
256,192,83718,1,8,0:0:0:0:
256,192,84129,1,0,0:0:0:0:
256,192,84951,1,0,0:0:0:0:
256,192,85157,1,0,0:0:0:0:
256,192,85567,1,8,0:0:0:0:
256,192,85978,1,0,0:0:0:0:
256,192,86184,1,0,0:0:0:0:
256,192,86595,1,8,0:0:0:0:
256,192,87417,1,4,0:0:0:0:
256,192,88033,1,8,0:0:0:0:
256,192,88239,1,0,0:0:0:0:
256,192,88650,1,0,0:0:0:0:
256,192,88855,1,8,0:0:0:0:
256,192,89061,1,0,0:0:0:0:
256,192,89677,1,8,0:0:0:0:
256,192,89883,1,0,0:0:0:0:
256,192,90294,1,0,0:0:0:0:
256,192,90499,1,0,0:0:0:0:
256,192,90704,1,8,0:0:0:0:
256,192,91321,1,8,0:0:0:0:
256,192,91526,1,0,0:0:0:0:
256,192,91937,1,0,0:0:0:0:
256,192,92143,1,8,0:0:0:0:
256,192,92348,1,0,0:0:0:0:
256,192,92965,1,8,0:0:0:0:
256,192,93170,1,0,0:0:0:0:
256,192,93581,1,8,0:0:0:0:
256,192,93992,1,4,0:0:0:0:
256,192,94814,1,4,0:0:0:0:
256,192,95636,1,4,0:0:0:0:
256,192,95944,1,4,0:0:0:0:
256,192,96252,1,4,0:0:0:0:
256,192,96458,1,4,0:0:0:0:
