osu file format v14

[General]
AudioFilename: Golden Mission.mp3
AudioLeadIn: 0
PreviewTime: 61017
Countdown: 0
SampleSet: Soft
StackLeniency: 0.7
Mode: 0
LetterboxInBreaks: 0
WidescreenStoryboard: 0

[Editor]
DistanceSpacing: 1.1
BeatDivisor: 4
GridSize: 16
TimelineZoom: 3.099999

[Metadata]
Title:Golden Mission (Short Ver.)
TitleUnicode:Golden Mission (Short Ver.)
Artist:Sasaki Sayaka
ArtistUnicode:佐咲紗花
Creator:Misure
Version:Sakura's Expert
Source:金色ラブリッチェ
Tags:Akitoshi Corinn -Laura- Left Garden Sakura Blossom SAGA PLANETS kinkoi golden kin-iro loveriche eroge galgame visual novel japanese video game op opening short version
BeatmapID:2284217
BeatmapSetID:1067678

[Difficulty]
HPDrainRate:5
CircleSize:4
OverallDifficulty:8.2
ApproachRate:9.2
SliderMultiplier:2
SliderTickRate:1

[Events]
//Background and Video events
Video,-90,"op.flv"
0,0,"sy.jpg",0,0
//Break Periods
//Storyboard Layer 0 (Background)
//Storyboard Layer 1 (Fail)
//Storyboard Layer 2 (Pass)
//Storyboard Layer 3 (Foreground)
//Storyboard Layer 4 (Overlay)
//Storyboard Sound Samples

[TimingPoints]
504,410.958904109589,4,2,1,50,1,0
504,-125,4,2,1,50,0,0
6873,-100,4,2,1,50,0,0
8723,-66.6666666666667,4,2,1,50,0,0
9031,-125,4,2,1,35,0,0
13654,-66.6666666666667,4,2,1,50,0,0
25572,-125,4,2,1,35,0,0
26805,-66.6666666666667,4,2,1,50,0,0
27216,-100,4,2,1,50,0,0
28449,-66.6666666666667,4,2,1,50,0,0
31736,-100,4,2,1,50,0,0
60503,-66.6666666666667,4,2,1,60,0,0
61325,-66.6666666666667,4,2,1,70,0,1
74476,-66.6666666666667,4,2,1,50,0,0
80640,-100,4,2,1,50,0,0
82490,-66.6666666666667,4,2,1,50,0,0
87524,-66.6666666666667,4,2,1,5,0,0
87627,-66.6666666666667,4,2,1,50,0,0
97695,-66.6666666666667,4,2,1,5,0,0

[Colours]
Combo1 : 255,113,184
Combo2 : 255,167,79
Combo3 : 0,236,236
Combo4 : 242,242,0

[HitObjects]
94,51,504,5,4,1:2:0:0:
157,113,606,1,8,0:0:0:0:
157,113,812,2,0,L|288:101,1,120,0|8,1:0|0:0,0:0:0:0:
71,133,1325,1,4,1:2:0:0:
134,195,1428,1,8,0:0:0:0:
134,195,1633,2,0,L|263:183,1,120,0|8,1:0|0:0,0:0:0:0:
394,313,2147,6,0,P|337:281|328:205,1,120,0|0,1:0|0:0,0:0:0:0:
436,126,2558,2,0,P|437:190|376:237,1,120,0|0,1:0|0:0,0:0:0:0:
321,151,2969,2,0,P|282:157|252:183,1,80,2|0,1:0|0:0,0:0:0:0:
183,148,3277,2,0,P|143:144|111:106,1,80,2|0,1:0|0:0,0:0:0:0:
47,157,3586,2,0,L|-3:168,1,40,2|0,1:0|0:0,0:0:0:0:
107,213,3791,5,4,1:2:0:0:
68,288,3894,1,8,0:0:0:0:
68,288,4099,2,0,P|130:295|187:239,1,120,0|8,1:0|0:0,0:0:0:0:
312,304,4613,1,4,1:2:0:0:
351,379,4716,1,8,0:0:0:0:
351,379,4921,2,0,P|289:386|233:329,1,120,0|8,1:0|0:0,0:0:0:0:
312,304,5435,5,0,1:0:0:0:
312,304,6257,5,0,1:0:0:0:
312,304,6873,6,0,P|328:227|260:167,1,150,0|0,1:0|0:0,0:0:0:0:
233,123,7284,2,0,P|269:102|302:101,1,50,8|0,0:0|0:0,0:0:0:0:
368,142,7490,2,0,P|404:162|421:190,1,50,2|0,0:3|0:0,0:0:0:0:
486,131,7695,1,8,0:0:0:0:
486,131,7798,6,0,P|424:147|355:67,1,150,8|4,0:0|0:3,0:0:0:0:
386,6,8209,1,2,0:3:0:0:
386,6,8312,2,0,P|448:-10|517:70,1,150,8|0,1:3|0:0,0:0:0:0:
435,69,8723,6,0,L|263:36,1,150.000005722046,4|0,0:0|0:0,0:0:0:0:
217,0,9031,6,0,L|123:13,1,80,2|0,0:0|0:0,0:0:0:0:
65,46,9339,2,0,P|31:33|14:22,1,40,2|0,0:0|0:0,0:0:0:0:
133,90,9545,2,0,P|144:131|114:188,1,80,2|0,0:3|0:0,0:0:0:0:
77,227,9853,1,0,0:0:0:0:
77,227,9956,2,0,P|66:268|96:325,1,80,0|0,3:0|0:0,0:0:0:0:
150,342,10264,1,0,0:0:0:0:
150,342,10367,6,0,L|251:329,1,80,2|0,0:3|0:0,0:0:0:0:
286,384,10675,2,0,P|304:348|300:303,1,80,2|0,0:0|0:0,0:0:0:0:
382,343,10983,2,0,P|411:359|434:362,1,40,2|0,0:0|0:0,0:0:0:0:
488,310,11188,2,0,L|498:207,1,80,2|0,0:3|0:0,0:0:0:0:
504,153,11497,1,0,0:0:0:0:
504,153,11599,2,0,L|514:50,1,80,0|0,3:0|0:0,0:0:0:0:
512,74,12010,6,0,P|462:67|424:24,1,80,2|0,0:3|0:0,0:0:0:0:
378,0,12319,2,0,P|326:10|293:51,1,80,2|0,0:0|0:0,0:0:0:0:
364,76,12627,2,0,L|357:134,1,40,2|0,0:0|0:0,0:0:0:0:
464,216,12832,2,0,P|412:188|372:194,1,80,2|0,0:3|0:0,0:0:0:0:
331,240,13140,1,0,0:0:0:0:
331,240,13243,2,0,P|383:268|423:262,1,80,0|0,3:0|0:0,0:0:0:0:
502,331,13551,5,0,0:0:0:0:
502,331,13654,2,0,L|405:348,1,75.0000028610231,4|0,0:0|0:0,0:0:0:0:
343,360,13860,1,8,0:0:0:0:
343,360,13962,1,2,3:0:0:0:
343,360,14065,2,0,L|245:343,1,75.0000028610231,4|0,0:0|0:0,0:0:0:0:
217,257,14271,1,8,0:0:0:0:
217,257,14373,1,2,3:0:0:0:
217,257,14476,6,0,L|121:276,1,75.0000028610231,4|0,0:0|0:0,0:0:0:0:
74,384,14682,1,8,0:0:0:0:
74,384,14784,1,2,3:0:0:0:
74,384,14887,2,0,L|-25:369,1,75.0000028610231,4|0,0:0|0:0,0:0:0:0:
74,251,15093,1,8,0:0:0:0:
74,251,15195,1,2,3:0:0:0:
74,251,15298,6,0,P|67:157|13:131,1,150.000005722046,4|0,3:1|0:0,0:0:0:0:
198,0,15709,2,0,P|205:94|259:120,1,150.000005722046,8|0,0:0|0:0,0:0:0:0:
273,39,16017,1,0,3:0:0:0:
352,17,16120,2,0,P|395:28|426:65,1,75.0000028610231,2|0,0:0|0:0,0:0:0:0:
387,125,16325,2,0,L|374:199,1,75.0000028610231,10|0,0:0|0:0,0:0:0:0:
450,232,16531,2,0,L|463:158,1,75.0000028610231,8|0,0:0|0:0,0:0:0:0:
509,289,16736,2,0,P|446:314|373:258,1,150.000005722046,8|2,0:0|3:0,0:0:0:0:
266,347,17147,6,0,P|267:294|246:261,1,75.0000028610231,10|0,0:0|0:0,0:0:0:0:
134,260,17353,2,0,L|115:94,1,150.000005722046,8|0,0:0|0:0,0:0:0:0:
113,31,17661,1,2,3:0:0:0:
186,69,17764,1,2,0:3:0:0:
247,14,17867,1,2,3:0:0:0:
263,93,17969,2,0,P|332:106|399:33,1,150.000005722046,10|8,0:0|0:0,0:0:0:0:
512,133,18380,2,0,P|485:175|490:227,1,75.0000028610231,8|0,0:0|0:0,0:0:0:0:
430,379,18586,6,0,L|406:204,1,150.000005722046,2|10,3:0|0:0,0:0:0:0:
331,258,18894,1,0,0:0:0:0:
278,193,18997,2,0,L|290:112,1,75.0000028610231,8|0,0:0|0:0,0:0:0:0:
193,78,19202,2,0,L|203:152,1,75.0000028610231,8|0,0:0|0:0,0:0:0:0:
186,233,19408,1,2,3:0:0:0:
130,293,19510,2,0,P|52:302|-1:228,1,150.000005722046,10|0,0:0|3:0,0:0:0:0:
201,347,19819,2,0,P|279:338|332:416,1,150.000005722046,8|8,0:0|0:0,0:0:0:0:
490,246,20230,6,0,L|515:83,1,150.000005722046,2|10,3:0|0:0,0:0:0:0:
475,23,20538,1,0,3:0:0:0:
396,0,20640,2,0,P|338:13|312:43,1,75.0000028610231,8|0,0:0|0:0,0:0:0:0:
285,94,20846,2,0,P|309:163|329:177,1,75.0000028610231,0|0,3:0|3:0,0:0:0:0:
384,160,21051,5,12,0:0:0:0:
456,192,21154,1,0,0:0:0:0:
494,262,21257,1,2,3:0:0:0:
472,339,21360,1,2,3:0:0:0:
410,384,21462,2,0,P|327:369|296:291,1,150.000005722046,4|2,3:2|3:0,0:0:0:0:
385,303,21771,1,2,0:3:0:0:
385,303,21873,6,0,L|212:260,1,150.000005722046,4|0,3:1|0:0,0:0:0:0:
76,59,22284,2,0,L|221:95,1,150.000005722046,8|0,0:0|0:0,0:0:0:0:
300,122,22593,1,0,3:0:0:0:
357,63,22695,2,0,P|323:42|285:39,1,75.0000028610231,2|0,3:0|0:0,0:0:0:0:
380,139,22901,2,0,P|452:153|522:85,2,150.000005722046,10|8|8,0:0|0:0|0:0,0:0:0:0:
0,51,23517,6,0,P|43:26|88:31,1,75.0000028610231,2|2,3:0|0:3,0:0:0:0:
111,156,23723,2,0,P|68:181|23:176,1,75.0000028610231,10|0,0:0|0:0,0:0:0:0:
67,25,23928,2,0,P|110:0|155:5,1,75.0000028610231,8|0,0:0|0:0,0:0:0:0:
195,163,24134,1,8,0:0:0:0:
154,233,24236,1,8,0:0:0:0:
174,313,24339,2,0,P|301:353|328:337,1,150.000005722046,2|8,3:0|0:0,0:0:0:0:
356,288,24647,1,8,0:0:0:0:
339,206,24750,2,0,L|310:36,1,150.000005722046,2|8,3:0|3:2,0:0:0:0:
512,0,25058,1,8,3:2:0:0:
495,82,25161,6,0,L|466:252,1,150.000005722046,4|0,0:0|0:0,0:0:0:0:
469,229,25572,5,2,0:0:0:0:
484,258,25674,1,2,0:0:0:0:
476,290,25777,1,2,0:0:0:0:
449,308,25880,1,2,0:0:0:0:
417,304,25982,1,2,0:0:0:0:
395,280,26085,1,2,0:0:0:0:
396,247,26188,1,2,0:0:0:0:
310,268,26394,1,2,0:1:0:0:
223,251,26599,2,0,L|153:235,1,40,2|0,0:1|0:0,0:0:0:0:
73,267,26805,6,0,L|253:247,1,150.000005722046,4|0,0:0|0:0,0:0:0:0:
280,192,27113,5,0,0:0:0:0:
280,192,27216,2,0,P|239:172|209:172,1,50,2|2,0:0|0:0,0:0:0:0:
160,112,27421,2,0,P|200:99|222:83,1,50,2|2,0:0|0:0,0:0:0:0:
307,6,27627,2,0,L|286:116,2,100,2|2|2,0:0|0:0|0:0,0:0:0:0:
455,32,28449,6,0,P|396:96|411:178,1,150.000005722046,4|2,0:1|0:0,0:0:0:0:
418,186,28757,1,2,0:0:0:0:
485,234,28860,1,0,0:0:0:0:
500,314,28962,1,0,0:0:0:0:
449,379,29065,1,0,0:0:0:0:
295,369,29271,5,4,0:0:0:0:
295,369,29373,2,0,L|135:343,1,150.000005722046,8|0,0:0|0:0,0:0:0:0:
64,357,29682,2,0,P|68:318|105:273,1,75.0000028610231,2|0,3:0|0:0,0:0:0:0:
165,263,29887,1,8,0:0:0:0:
150,181,29990,1,8,0:0:0:0:
228,207,30093,5,2,0:3:0:0:
0,167,30298,2,0,L|102:153,1,75.0000028610231,6|0,0:0|0:0,0:0:0:0:
159,5,30503,2,0,P|216:63|199:149,1,150.000005722046,10|8,0:0|0:0,0:0:0:0:
228,207,30812,1,8,0:0:0:0:
165,263,30914,6,0,L|66:240,1,75.0000028610231,4|2,3:0|3:0,0:0:0:0:
235,384,31120,1,10,0:0:0:0:
273,310,31223,1,0,3:0:0:0:
309,236,31325,2,0,P|406:254|486:145,1,225.000008583069,4|0,0:1|0:0,0:0:0:0:
483,159,31736,6,0,L|471:89,1,50,2|0,3:0|0:0,0:0:0:0:
510,42,31942,2,0,P|456:35|406:83,1,100,0|8,0:0|3:0,0:0:0:0:
354,19,32250,1,0,0:0:0:0:
354,19,32353,2,0,P|314:3|299:-13,1,50,0|0,0:0|0:0,0:0:0:0:
255,51,32558,2,0,L|138:61,1,100,2|0,3:0|0:0,0:0:0:0:
87,25,32867,1,0,0:0:0:0:
87,25,32969,2,0,P|48:36|27:59,1,50,8|0,3:0|0:0,0:0:0:0:
88,100,33175,2,0,P|78:139|87:168,1,50,0|0,0:0|0:0,0:0:0:0:
154,143,33380,6,0,P|181:195|170:249,1,100,2|2,3:0|0:1,0:0:0:0:
353,384,33791,2,0,P|350:334|375:292,1,100,2|0,3:1|0:0,0:0:0:0:
451,264,34099,1,0,0:0:0:0:
451,264,34202,2,0,L|464:206,1,50,2|0,3:0|0:0,0:0:0:0:
298,167,34408,2,0,P|335:207|395:212,1,100,2|8,0:1|3:0,0:0:0:0:
472,140,34716,1,0,0:0:0:0:
472,140,34819,2,0,P|447:140|423:148,1,50,2|0,0:1|0:0,0:0:0:0:
298,167,35024,6,0,L|309:115,1,50,2|0,3:0|0:0,0:0:0:0:
244,78,35230,2,0,P|214:124|226:177,2,100,0|8|0,0:0|3:0|0:0,0:0:0:0:
195,18,35743,1,0,0:0:0:0:
195,18,35846,2,0,P|147:23|122:37,1,50,2|0,3:0|0:0,0:0:0:0:
73,45,36051,2,0,P|39:32|14:4,1,50,0|0,0:0|0:0,0:0:0:0:
135,105,36257,1,8,3:0:0:0:
135,105,36360,1,0,0:0:0:0:
135,105,36462,1,0,0:0:0:0:
6,195,36668,6,0,L|-4:266,1,50,2|0,3:0|0:0,0:0:0:0:
85,280,36873,2,0,L|78:230,1,50,2|0,0:0|0:0,0:0:0:0:
165,198,37079,2,0,L|155:269,1,50,8|0,3:0|0:0,0:0:0:0:
244,283,37284,2,0,L|237:233,1,50,2|0,0:0|0:0,0:0:0:0:
297,187,37490,2,0,L|346:193,1,50,2|0,3:0|0:0,0:0:0:0:
387,110,37695,2,0,L|337:116,1,50,2|0,0:0|0:0,0:0:0:0:
304,48,37901,2,0,L|428:29,1,100,8|2,3:0|0:0,0:0:0:0:
465,84,38209,1,0,0:0:0:0:
465,84,38312,6,0,P|463:136|448:162,1,50,2|0,3:0|0:0,0:0:0:0:
408,184,38517,2,0,P|355:182|316:136,1,100,0|8,0:0|3:0,0:0:0:0:
268,212,38825,1,0,0:0:0:0:
268,212,38928,2,0,P|228:224|208:241,1,50,0|0,0:0|0:0,0:0:0:0:
332,260,39134,1,2,3:0:0:0:
332,260,39236,2,0,L|343:382,1,100,0|0,0:0|0:0,0:0:0:0:
413,384,39545,2,0,P|460:369|474:358,1,50,8|0,3:0|0:0,0:0:0:0:
512,301,39750,2,0,P|465:286|451:275,1,50,0|0,0:0|0:0,0:0:0:0:
439,214,39956,6,0,P|448:158|487:123,1,100,2|2,3:0|0:1,0:0:0:0:
247,293,40367,2,0,P|238:349|200:384,1,100,2|0,3:1|0:0,0:0:0:0:
139,353,40675,1,0,0:0:0:0:
139,353,40777,2,0,P|95:358|68:357,1,50,2|0,3:0|0:0,0:0:0:0:
0,296,40983,2,0,L|126:278,1,100,2|8,0:1|3:0,0:0:0:0:
154,173,41291,1,0,0:0:0:0:
154,173,41394,2,0,L|142:117,2,33.3333333333333,2|0|0,0:1|0:0|0:0,0:0:0:0:
138,217,41599,6,0,P|188:222|238:175,1,100,2|0,3:0|0:0,0:0:0:0:
129,20,42010,2,0,P|79:15|29:62,1,100,8|0,3:0|0:0,0:0:0:0:
0,108,42319,1,0,0:0:0:0:
0,108,42421,2,0,L|13:181,1,50,2|0,3:0|0:0,0:0:0:0:
90,151,42627,2,0,L|77:224,1,50,0|0,0:0|0:0,0:0:0:0:
38,262,42832,2,0,P|64:315|47:364,1,100,8|0,3:0|0:0,0:0:0:0:
163,291,43243,6,0,L|288:306,1,100,2|2,3:0|0:0,0:0:0:0:
512,356,43654,2,0,L|412:343,1,100,8|2,3:0|0:0,0:0:0:0:
349,383,43962,1,0,0:0:0:0:
349,383,44065,2,0,P|305:372|284:353,1,50,2|0,3:0|0:0,0:0:0:0:
345,307,44271,2,0,P|332:263|338:235,1,50,2|0,0:0|0:0,0:0:0:0:
407,258,44476,2,0,P|437:206|425:153,1,100,0|2,1:0|3:0,0:0:0:0:
386,108,44784,1,2,3:0:0:0:
386,108,44887,5,4,0:0:0:0:
306,120,45093,1,2,0:0:0:0:
226,132,45298,1,2,0:0:0:0:
148,144,45503,1,2,0:0:0:0:
61,130,45709,5,2,1:2:0:0:
67,110,45812,1,0,0:0:0:0:
67,110,46017,2,0,P|95:165|70:222,1,100,2|0,0:0|0:0,0:0:0:0:
40,261,46325,6,0,P|104:274|166:198,1,150,4|0,0:0|0:0,0:0:0:0:
220,172,46736,2,0,P|259:179|284:195,1,50,2|0,3:0|0:0,0:0:0:0:
230,249,46942,2,0,P|240:288|233:317,1,50,2|0,3:0|0:0,0:0:0:0:
204,363,47147,1,4,0:0:0:0:
204,363,47250,1,0,1:0:0:0:
332,228,47558,5,4,3:0:0:0:
464,298,47764,1,8,3:0:0:0:
464,298,48175,6,0,P|501:249|491:195,1,100,4|0,0:1|0:0,0:0:0:0:
450,155,48483,2,0,P|380:163|351:204,1,100,8|0,0:0|0:0,0:0:0:0:
354,256,48791,2,0,P|384:294|411:305,1,50,2|0,0:3|0:0,0:0:0:0:
384,294,48997,6,0,L|255:309,1,100,0|0,1:0|0:0,0:0:0:0:
218,365,49305,2,0,L|204:252,1,100,8|0,0:0|0:0,0:0:0:0:
138,323,49613,2,0,L|73:330,1,50,2|0,0:3|0:0,0:0:0:0:
27,282,49819,6,0,P|30:225|68:189,1,100,0|0,1:0|0:0,0:0:0:0:
22,127,50127,1,2,0:0:0:0:
22,127,50230,2,0,P|68:118|100:128,1,50,8|0,0:0|0:0,0:0:0:0:
138,175,50435,1,2,3:0:0:0:
138,175,50538,1,2,3:0:0:0:
138,175,50640,2,0,P|196:171|235:128,1,100,2|4,3:0|0:3,0:0:0:0:
180,3,51051,2,0,P|122:7|83:50,1,100,2|2,3:0|0:3,0:0:0:0:
307,78,51462,6,0,L|322:204,1,100,0|0,1:0|0:0,0:0:0:0:
393,165,51771,2,0,L|381:65,1,100,8|0,0:0|0:0,0:0:0:0:
460,79,52079,2,0,L|468:153,1,50,2|0,3:0|0:0,0:0:0:0:
465,128,52284,6,0,P|490:177|470:235,1,100,0|0,1:0|0:0,0:0:0:0:
511,291,52593,2,0,P|452:311|429:359,1,100,8|0,0:0|0:0,0:0:0:0:
371,384,52901,2,0,P|358:348|360:311,1,50,2|0,3:0|0:0,0:0:0:0:
297,291,53106,6,0,P|282:330|284:363,1,50,0|0,1:0|0:0,0:0:0:0:
218,276,53312,2,0,P|191:244|161:229,1,50,8|0,0:0|0:0,0:0:0:0:
176,367,53517,2,0,P|122:375|70:330,1,100,8|0,0:0|3:0,0:0:0:0:
139,301,53825,1,0,3:0:0:0:
139,301,53928,2,0,L|128:194,1,100,2|2,3:0|3:0,0:0:0:0:
59,231,54236,1,2,3:0:0:0:
59,231,54339,2,0,P|50:194|56:165,1,50,0|0,3:0|3:0,0:0:0:0:
104,74,54545,2,0,P|112:110|106:139,1,50,4|2,0:3|0:3,0:0:0:0:
111,122,54750,5,4,0:0:0:0:
167,20,54956,2,0,L|236:29,2,50,2|0|0,0:0|0:0|0:0,0:0:0:0:
408,74,55367,2,0,P|400:110|406:139,1,50,0|0,0:0|0:0,0:0:0:0:
401,122,55572,5,4,0:0:0:0:
345,20,55778,2,0,L|276:29,2,50,2|0|0,0:0|0:0|0:0,0:0:0:0:
130,374,56291,1,0,0:0:0:0:
130,374,56394,6,0,P|129:314|177:274,1,100,4|2,0:0|0:3,0:0:0:0:
113,221,56702,2,0,L|-12:204,1,100,4|2,0:0|0:3,0:0:0:0:
51,138,57010,2,0,L|127:149,1,50,4|0,0:0|0:0,0:0:0:0:
162,100,57216,2,0,L|152:-12,1,100,8|4,0:0|3:0,0:0:0:0:
235,44,57524,1,2,3:0:0:0:
235,44,57627,5,8,0:0:0:0:
259,50,57729,1,8,0:0:0:0:
283,48,57832,1,2,0:3:0:0:
306,39,57935,1,2,0:3:0:0:
325,23,58038,5,2,0:3:0:0:
422,43,58243,1,2,0:3:0:0:
453,137,58449,1,2,0:3:0:0:
387,210,58654,1,2,0:3:0:0:
484,231,58860,1,2,0:3:0:0:
356,116,59065,1,2,0:3:0:0:
321,285,59271,5,8,0:0:0:0:
304,303,59373,1,8,0:0:0:0:
283,316,59476,1,0,1:0:0:0:
259,322,59579,1,0,1:0:0:0:
234,320,59682,5,4,1:2:0:0:
225,338,59784,1,8,0:0:0:0:
50,295,59990,2,0,B|32:325|32:325|161:307,1,150,0|0,1:0|1:0,0:0:0:0:
0,161,60503,6,0,P|87:195|110:263,1,150.000005722046,4|2,1:2|0:3,0:0:0:0:
114,237,60812,1,2,0:3:0:0:
120,233,60914,2,0,P|164:188|254:209,1,150.000005722046,8|2,3:0|3:0,0:0:0:0:
277,114,61223,1,0,3:0:0:0:
277,114,61325,6,0,B|335:161|335:161|433:140,1,150.000005722046,4|0,1:0|0:0,0:0:0:0:
508,118,61634,1,0,0:0:0:0:
436,67,61736,2,0,L|422:243,1,150.000005722046,8|0,1:3|0:0,0:0:0:0:
416,292,62045,1,0,3:0:0:0:
490,265,62147,2,0,P|492:310|465:358,1,75.0000028610231,2|0,3:2|0:0,0:0:0:0:
342,319,62353,2,0,P|339:273|368:227,1,75.0000028610231,2|0,3:2|0:0,0:0:0:0:
262,357,62558,2,0,P|226:368|189:364,1,75.0000028610231,8|0,0:1|0:0,0:0:0:0:
46,282,62764,1,2,0:1:0:0:
103,233,62867,6,0,P|177:232|214:313,1,150.000005722046,0|0,0:0|0:0,0:0:0:0:
205,160,63175,2,0,P|256:157|298:128,1,75.0000028610231,2|2,3:2|3:2,0:0:0:0:
374,8,63380,2,0,B|342:73|342:73|365:164,1,150.000005722046,8|0,1:3|0:0,0:0:0:0:
433,87,63688,1,0,0:0:0:0:
433,87,63791,2,0,L|519:98,1,75.0000028610231,2|2,3:0|3:0,0:0:0:0:
512,204,63997,2,0,L|437:194,1,75.0000028610231,2|0,3:2|0:0,0:0:0:0:
304,252,64202,1,8,0:1:0:0:
280,323,64305,1,0,3:0:0:0:
326,382,64408,6,0,P|405:374|443:296,1,150.000005722046,2|2,3:2|1:3,0:0:0:0:
400,243,64716,1,0,0:0:0:0:
400,243,64819,2,0,L|389:145,1,75.0000028610231,0|0,3:0|0:0,0:0:0:0:
512,68,65024,2,0,P|440:70|391:-9,1,150.000005722046,8|0,1:3|3:0,0:0:0:0:
314,0,65332,1,0,0:0:0:0:
314,0,65435,2,0,P|258:3|224:29,1,75.0000028610231,2|0,3:2|0:0,0:0:0:0:
112,45,65640,2,0,P|166:57|196:88,1,75.0000028610231,2|0,3:2|0:0,0:0:0:0:
289,78,65846,2,0,P|252:111|237:159,1,75.0000028610231,8|0,0:1|0:0,0:0:0:0:
164,251,66051,6,0,P|171:170|111:124,1,150.000005722046,2|2,0:1|3:0,0:0:0:0:
56,289,66360,1,0,3:0:0:0:
118,328,66462,2,0,P|188:333|247:250,2,150.000005722046,2|8|2,3:2|1:3|3:0,0:0:0:0:
56,289,66976,1,10,3:0:0:0:
31,217,67079,2,0,P|38:160|71:126,1,75.0000028610231,4|0,3:1|3:0,0:0:0:0:
305,91,67284,5,4,1:2:0:0:
321,164,67387,1,0,0:0:0:0:
336,237,67490,2,0,L|302:406,1,150.000005722046,8|0,0:1|1:0,0:0:0:0:
479,159,67798,1,0,1:0:0:0:
491,84,67901,6,0,P|430:29|343:47,1,150.000005722046,4|0,1:0|0:0,0:0:0:0:
226,119,68209,1,0,0:0:0:0:
156,148,68312,2,0,P|82:148|31:97,1,150.000005722046,8|0,1:3|0:0,0:0:0:0:
0,278,68620,1,0,3:0:0:0:
65,227,68723,2,0,P|81:264|69:317,1,75.0000028610231,2|0,3:2|0:0,0:0:0:0:
189,287,68928,2,0,P|151:328|147:368,1,75.0000028610231,2|0,3:2|0:0,0:0:0:0:
293,384,69134,2,0,P|227:358|199:366,1,75.0000028610231,8|0,0:1|0:0,0:0:0:0:
274,284,69339,6,0,L|257:111,1,150.000005722046,2|2,0:1|3:0,0:0:0:0:
174,96,69647,1,0,0:0:0:0:
174,96,69750,2,0,L|183:194,1,75.0000028610231,2|2,3:2|3:2,0:0:0:0:
260,135,69956,2,0,L|265:60,1,75.0000028610231,8|0,1:3|0:0,0:0:0:0:
331,10,70161,1,0,3:0:0:0:
410,32,70264,1,0,3:0:0:0:
456,100,70367,2,0,L|442:201,1,75.0000028610231,2|2,3:2|3:2,0:0:0:0:
294,224,70572,2,0,L|396:204,1,75.0000028610231,0|0,3:0|3:0,0:0:0:0:
512,272,70777,2,0,L|412:254,1,75.0000028610231,8|0,0:1|0:0,0:0:0:0:
251,384,70983,6,0,P|244:299|170:265,1,150.000005722046,2|2,3:2|1:3,0:0:0:0:
116,291,71291,1,0,0:0:0:0:
53,236,71394,2,0,P|99:211|142:215,1,75.0000028610231,0|0,0:0|3:0,0:0:0:0:
288,140,71599,1,8,1:3:0:0:
288,140,71702,2,0,B|243:116|243:116|119:135,1,150.000005722046,0|0,0:0|0:0,0:0:0:0:
118,54,72010,2,0,L|194:43,1,75.0000028610231,2|0,3:2|0:0,0:0:0:0:
288,140,72216,2,0,L|259:45,1,75.0000028610231,2|0,3:2|0:0,0:0:0:0:
374,0,72421,2,0,L|353:72,1,75.0000028610231,8|0,0:1|0:0,0:0:0:0:
484,145,72627,6,0,P|403:138|359:211,1,150.000005722046,2|2,0:1|3:0,0:0:0:0:
358,331,72935,1,0,0:0:0:0:
426,284,73038,2,0,P|443:237|429:189,1,75.0000028610231,0|0,3:0|0:0,0:0:0:0:
300,137,73243,2,0,P|283:184|297:232,1,75.0000028610231,8|0,1:3|0:0,0:0:0:0:
207,167,73449,2,0,L|132:177,1,75.0000028610231,4|0,3:2|0:0,0:0:0:0:
0,292,73654,5,2,3:0:0:0:
81,306,73757,1,0,3:0:0:0:
162,322,73860,2,0,L|236:332,1,75.0000028610231,0|0,3:0|0:0,0:0:0:0:
426,284,74065,2,0,P|436:200|373:151,1,150.000005722046,12|2,1:0|3:0,0:0:0:0:
298,14,74373,1,2,3:0:0:0:
243,75,74476,6,0,B|272:97|272:97|411:78,1,150.000005722046,4|0,0:1|0:0,0:0:0:0:
197,146,74784,1,0,0:0:0:0:
123,107,74887,2,0,L|110:14,1,75.0000028610231,2|0,3:0|0:0,0:0:0:0:
36,79,75093,2,0,L|25:153,1,75.0000028610231,0|0,3:0|0:0,0:0:0:0:
75,308,75298,1,8,0:0:0:0:
146,265,75401,2,0,P|219:277|250:363,1,150.000005722046,8|0,0:0|0:0,0:0:0:0:
371,272,75709,2,0,P|320:260|287:226,1,75.0000028610231,2|0,3:0|0:0,0:0:0:0:
436,339,75914,2,0,P|395:361|374:406,1,75.0000028610231,0|0,3:0|0:0,0:0:0:0:
503,285,76120,6,0,L|486:111,1,150.000005722046,8|0,0:0|3:0,0:0:0:0:
385,80,76428,1,0,0:0:0:0:
433,12,76531,2,0,P|402:-2|339:14,1,75.0000028610231,2|0,3:0|0:0,0:0:0:0:
296,96,76736,2,0,P|265:110|200:96,1,75.0000028610231,0|0,3:0|0:0,0:0:0:0:
355,163,76942,2,0,P|380:226|368:259,1,75.0000028610231,8|0,0:0|0:0,0:0:0:0:
207,362,77147,5,10,0:0:0:0:
287,346,77250,1,2,0:0:0:0:
314,270,77353,1,2,3:0:0:0:
263,206,77456,1,2,0:3:0:0:
182,222,77558,1,8,0:0:0:0:
120,169,77661,1,8,0:0:0:0:
136,88,77764,6,0,L|318:107,1,150.000005722046,8|0,0:0|3:0,0:0:0:0:
366,201,78072,1,0,0:0:0:0:
444,228,78175,2,0,P|499:220|527:187,1,75.0000028610231,2|0,3:0|0:0,0:0:0:0:
422,74,78380,2,0,L|431:165,1,75.0000028610231,0|0,3:0|0:0,0:0:0:0:
367,363,78586,1,8,0:0:0:0:
335,286,78688,2,0,P|254:249|186:276,1,150.000005722046,8|2,0:0|0:3,0:0:0:0:
131,353,78997,2,0,L|232:342,1,75.0000028610231,2|0,3:0|0:0,0:0:0:0:
52,217,79202,2,0,L|151:230,1,75.0000028610231,8|8,0:0|0:0,0:0:0:0:
251,76,79408,6,0,P|263:142|151:107,1,225.000008583069,4|0,1:2|0:0,0:0:0:0:
203,0,79819,2,0,B|342:-31|290:75|441:39,1,225.000008583069,4|0,1:2|0:0,0:0:0:0:
456,113,80230,2,0,B|453:239|453:239|510:267|502:340,1,225.000008583069,4|2,1:2|3:0,0:0:0:0:
419,315,80640,2,0,P|355:321|316:358,1,100,8|2,0:0|0:3,0:0:0:0:
204,232,81051,6,0,P|268:238|307:275,1,100,2|0,0:0|3:0,0:0:0:0:
232,308,81360,1,0,0:0:0:0:
260,384,81462,2,0,P|196:378|157:341,1,100,12|2,0:0|0:3,0:0:0:0:
76,181,81873,6,0,P|125:180|167:154,1,100,2|2,0:0|3:0,0:0:0:0:
103,104,82182,1,2,3:0:0:0:
89,28,82284,2,0,P|138:34|168:68,1,50,12|0,0:0|0:0,0:0:0:0:
326,0,82490,6,0,P|265:61|277:146,1,150.000005722046,4|0,1:0|0:0,0:0:0:0:
338,252,82798,1,0,0:0:0:0:
398,195,82901,2,0,P|351:171|306:182,1,75.0000028610231,0|0,3:0|0:0,0:0:0:0:
255,259,83106,2,0,L|77:276,1,150.000005722046,2|0,0:3|3:0,0:0:0:0:
168,154,83517,2,0,P|162:226|106:274,1,150.000005722046,2|8,3:0|0:0,0:0:0:0:
400,372,83928,2,0,P|394:300|338:252,1,150.000005722046,2|8,3:0|0:0,0:0:0:0:
400,372,84339,6,0,L|447:203,1,150.000005722046,2|0,3:2|3:0,0:0:0:0:
469,101,84647,1,0,0:0:0:0:
419,34,84750,2,0,P|366:15|322:27,1,75.0000028610231,10|0,0:0|0:0,0:0:0:0:
316,153,84956,2,0,P|369:172|413:160,1,75.0000028610231,8|0,0:0|0:0,0:0:0:0:
349,17,85161,2,0,P|296:-2|252:10,1,75.0000028610231,10|0,3:2|0:0,0:0:0:0:
245,135,85367,2,0,P|298:154|342:142,1,75.0000028610231,2|0,3:0|0:0,0:0:0:0:
175,79,85572,2,0,L|101:92,1,75.0000028610231,0|0,1:0|0:0,0:0:0:0:
202,216,85777,1,2,1:2:0:0:
240,289,85880,6,0,P|170:375|116:369,1,150.000005722046,0|0,1:0|0:0,0:0:0:0:
60,224,86188,2,0,P|112:192|151:193,1,75.0000028610231,8|0,0:0|0:0,0:0:0:0:
218,145,86394,2,0,P|200:208|209:240,1,75.0000028610231,2|0,1:2|0:0,0:0:0:0:
320,331,86599,1,10,1:2:0:0:
402,321,86702,1,0,1:0:0:0:
484,312,86805,1,0,3:0:0:0:
168,287,87627,6,0,P|174:250|195:220,1,75.0000028610231,12|0,0:0|0:0,0:0:0:0:
198,132,87832,2,0,P|161:138|131:161,1,75.0000028610231
173,51,88038,2,0,P|247:61|277:148,1,150.000005722046,8|0,0:0|3:0,0:0:0:0:
355,78,88346,1,0,0:0:0:0:
434,99,88449,2,0,P|493:76|516:44,1,75.0000028610231,2|0,3:0|0:0,0:0:0:0:
378,165,88654,1,2,0:0:0:0:
378,165,88757,1,2,0:0:0:0:
378,165,88860,2,0,P|334:224|367:308,1,150.000005722046,2|2,3:0|0:0,0:0:0:0:
395,362,89168,1,0,0:0:0:0:
462,313,89271,6,0,L|289:331,1,150.000005722046,8|0,0:0|0:0,0:0:0:0:
241,370,89579,1,2,0:0:0:0:
158,362,89682,2,0,P|107:341|82:309,1,75.0000028610231,8|0,0:0|0:0,0:0:0:0:
228,241,89887,2,0,P|184:274|140:278,1,75.0000028610231,2|0,0:0|0:0,0:0:0:0:
19,293,90093,1,2,3:0:0:0:
19,293,90195,1,0,0:0:0:0:
19,293,90298,2,0,L|1:119,2,150.000005722046,0|2|0,0:0|3:0|3:0,0:0:0:0:
46,47,90914,6,0,P|106:99|189:74,1,150.000005722046,8|0,0:0|0:0,0:0:0:0:
227,149,91223,1,0,0:0:0:0:
307,133,91325,2,0,L|297:53,1,75.0000028610231,8|0,0:0|0:0,0:0:0:0:
398,31,91531,2,0,L|388:105,1,75.0000028610231,0|0,3:0|0:0,0:0:0:0:
511,180,91736,1,2,3:0:0:0:
511,180,91839,1,0,0:0:0:0:
511,180,91942,2,0,B|437:173|437:173|398:199|353:182,2,150.000005722046,2|2|2,0:0|3:0|0:0,0:0:0:0:
476,256,92456,1,0,0:0:0:0:
501,333,92558,6,0,P|439:377|354:343,1,150.000005722046,8|0,0:0|0:0,0:0:0:0:
314,300,92867,1,2,0:0:0:0:
234,281,92969,2,0,P|183:297|156:330,1,75.0000028610231,8|0,0:0|0:0,0:0:0:0:
291,219,93175,2,0,L|278:128,1,75.0000028610231,10|0,0:0|0:0,0:0:0:0:
194,30,93380,1,2,3:0:0:0:
194,30,93483,1,0,3:0:0:0:
194,30,93586,2,0,P|268:19|319:92,2,150.000005722046,8|2|0,0:0|3:0|3:0,0:0:0:0:
8,203,94202,5,4,1:2:0:0:
86,177,94305,1,8,0:0:0:0:
86,177,94510,2,0,P|120:261|86:331,1,150.000005722046,2|0,1:2|0:0,0:0:0:0:
163,370,94819,2,0,P|221:360|253:333,1,75.0000028610231,10|0,0:0|0:0,0:0:0:0:
263,245,95024,5,4,1:2:0:0:
341,271,95127,1,8,0:0:0:0:
341,271,95332,2,0,P|375:187|344:120,1,150.000005722046,2|0,1:2|0:0,0:0:0:0:
418,78,95641,2,0,P|476:88|508:115,1,75.0000028610231,10|0,0:0|0:0,0:0:0:0:
335,56,95846,6,0,L|165:80,1,150.000005722046,4|0,1:2|0:0,0:0:0:0:
141,7,96154,2,0,L|177:177,1,150.000005722046,4|0,1:2|0:0,0:0:0:0:
74,58,96462,2,0,L|-18:45,1,75.0000028610231,4|0,1:2|0:0,0:0:0:0:
137,225,96668,1,4,1:0:0:0:
256,192,96771,12,0,97695,0:0:0:0:
