osu file format v14

[General]
AudioFilename: audio.mp3
AudioLeadIn: 0
PreviewTime: 46435
Countdown: 0
SampleSet: Soft
StackLeniency: 0.9
Mode: 0
LetterboxInBreaks: 0
WidescreenStoryboard: 1

[Editor]
DistanceSpacing: 0.3
BeatDivisor: 2
GridSize: 32
TimelineZoom: 2.599999

[Metadata]
Title:FEEL x ALIVE (TV Size)
TitleUnicode:FEEL✕ALIVE (TV Size)
Artist:Sasaki Sayaka
ArtistUnicode:佐咲紗花
Creator:dkblaze
Version:Shizuku's Insane
Source:ばくおん!!
Tags:Bakuon!! OP Opening Anime Japanese rock j-pop pop Shizuku- Kazato Asa Shikibe Mayu nautzz
BeatmapID:2608505
BeatmapSetID:1148252

[Difficulty]
HPDrainRate:5
CircleSize:4.1
OverallDifficulty:8
ApproachRate:9
SliderMultiplier:1.44
SliderTickRate:1

[Events]
//Background and Video events
0,0,"BG.jpg",0,0
Video,-280,"video.mp4"
//Break Periods
//Storyboard Layer 0 (Background)
//Storyboard Layer 1 (Fail)
//Storyboard Layer 2 (Pass)
//Storyboard Layer 3 (Foreground)
//Storyboard Layer 4 (Overlay)
//Storyboard Sound Samples

[TimingPoints]
338,230.769230769231,4,2,2,65,1,0
338,-100,4,2,2,65,0,0
568,-200,4,2,2,65,0,0
914,-71.4285714285714,4,2,2,65,0,0
1261,-166.666666666667,4,2,2,65,0,0
6280,-166.666666666667,4,2,2,5,0,0
6338,-166.666666666667,4,2,2,65,0,0
6799,-100,4,2,2,65,0,0
7953,-100,4,2,2,65,0,0
8645,-100,4,2,2,75,0,0
14357,-100,4,2,2,5,0,0
14414,-100,4,2,2,75,0,0
14818,-100,4,2,2,5,0,0
14875,-100,4,2,2,75,0,0
16030,-100,4,2,2,70,0,0
29876,-100,4,2,2,70,0,0
30568,-100,4,2,2,70,0,0
30799,-125,4,2,2,70,0,0
37261,-100,4,2,2,70,0,0
38184,-100,4,2,2,70,0,0
43030,-100,4,2,2,70,0,0
46491,-333.333333333333,4,2,2,70,0,0
47414,-100,4,2,2,80,0,1
50357,-100,4,2,2,5,0,1
50414,-100,4,2,2,80,0,1
58491,-83.3333333333333,4,2,2,80,0,1
60338,-100,4,2,2,80,0,1
62184,-100,4,2,2,80,0,1
65126,-100,4,2,2,5,0,1
65184,-100,4,2,2,80,0,1
72799,-100,4,2,2,80,0,1
73261,-100,4,2,2,80,0,1
76030,-200,4,2,2,75,0,0
76491,-100,4,2,2,75,0,0
76953,-100,4,2,2,75,0,0
84338,-100,4,2,2,75,0,0
86068,-100,4,2,2,75,0,0
87280,-100,4,2,2,5,0,0
87338,-100,4,2,2,75,0,0

[Colours]
Combo1 : 255,128,255
Combo2 : 128,255,128
Combo3 : 128,255,255
Combo4 : 255,128,128
Combo5 : 255,255,128

[HitObjects]
448,288,568,6,0,B|438:268|419:265|419:265|430:278|430:296,1,72,2|2,0:0|0:0,0:0:0:0:
354,356,914,2,0,B|312:348|312:348|317:342|317:342|267:334,1,100.799996923828,2|10,0:0|3:3,0:0:0:0:
267,334,1261,5,2,3:2:0:0:
192,192,1491,2,0,P|170:194|151:204,3,43.1999986816407,8|10|2|0,0:0|0:0|0:0|0:0,0:0:0:0:
64,256,1953,2,0,P|72:236|73:214,3,43.1999986816407,10|2|0|2,0:0|0:0|0:0|0:0,0:0:0:0:
72,113,2414,2,0,P|85:129|103:141,3,43.1999986816407,10|0|2|2,0:0|0:0|0:0|0:0,0:0:0:0:
192,192,2876,2,0,P|170:194|151:204,3,43.1999986816407,10|0|2|2,0:0|0:0|0:0|0:0,0:0:0:0:
256,96,3338,6,0,L|248:53,3,43.1999986816407,8|2|2|0,0:0|0:0|0:0|0:0,0:0:0:0:
320,192,3799,2,0,L|327:234,3,43.1999986816407,10|2|0|2,0:0|0:0|0:0|0:0,0:0:0:0:
384,96,4261,2,0,L|426:88,1,43.1999986816407,10|0,0:0|0:0,0:0:0:0:
512,192,4491,1,2,0:0:0:0:
512,192,4607,1,2,3:2:0:0:
512,192,4722,2,0,L|469:199,1,43.1999986816407,10|0,0:0|3:0,0:0:0:0:
406,318,4953,5,2,3:2:0:0:
406,318,5069,1,2,0:0:0:0:
406,318,5184,2,0,L|448:310,1,43.1999986816407,8|2,0:0|0:0,0:0:0:0:
327,234,5414,2,0,L|284:241,1,43.1999986816407,2|0,0:0|0:0,0:0:0:0:
192,352,5645,5,10,0:0:0:0:
192,352,5761,1,2,0:0:0:0:
192,352,5876,2,0,L|184:309,1,43.1999986816407,2|2,0:0|0:0,0:0:0:0:
9,191,6107,2,0,L|20:254,1,64.799998022461,10|0,0:0|2:0,0:0:0:0:
23,267,6338,2,0,P|44:264|63:255,1,43.1999986816407,8|8,0:3|0:3,0:0:0:0:
166,100,6568,5,4,0:3:0:0:
166,100,6684,1,4,0:3:0:0:
166,100,6799,2,0,B|153:167|153:167|159:164|159:164|145:231,1,144,6|0,3:2|0:0,0:0:0:0:
192,352,7145,2,0,P|254:329|244:263,1,144,14|0,0:0|0:0,0:0:0:0:
288,192,7491,2,0,L|359:179,1,72,14|0,0:0|0:0,0:0:0:0:
480,96,7722,1,12,0:0:0:0:
480,96,7953,5,8,0:0:0:0:
461,65,8068,1,8,0:0:0:0:
435,40,8183,1,8,0:0:0:0:
403,25,8299,1,8,0:0:0:0:
367,18,8414,1,8,0:0:0:0:
332,22,8529,1,8,0:0:0:0:
298,36,8645,6,0,B|270:80|219:89|219:89|178:66,1,144,6|10,3:2|0:0,0:0:0:0:
90,10,8991,2,0,P|135:62|121:130,1,144,0|0,3:0|3:0,0:0:0:0:
68,212,9338,2,0,P|32:210|0:224,1,72,10|0,0:0|0:0,0:0:0:0:
50,381,9568,6,0,P|120:365|190:350,2,144,2|10|2,3:2|0:0|3:2,0:0:0:0:
49,299,10145,1,0,3:0:0:0:
49,299,10261,2,0,P|84:304|113:324,1,72,10|0,0:0|0:0,0:0:0:0:
191,350,10491,2,0,P|218:285|209:214,1,144,2|8,3:2|0:0,0:0:0:0:
121,130,10838,6,0,L|106:200,1,72,2|0,3:2|0:0,0:0:0:0:
224,96,11068,1,0,3:0:0:0:
224,96,11184,2,0,L|238:25,1,72,10|0,0:0|0:0,0:0:0:0:
311,168,11414,2,0,B|375:127|375:127|441:140,1,144,2|12,3:2|0:0,0:0:0:0:
441,140,11876,2,0,P|432:174|425:210,1,72,14|0,3:2|0:0,0:0:0:0:
479,366,12107,5,10,3:2:0:0:
479,366,12222,1,8,3:2:0:0:
479,366,12338,2,0,B|429:304|349:336,1,144,6|8,3:2|0:0,0:0:0:0:
261,384,12684,2,0,L|249:312,1,72,2|0,3:2|0:0,0:0:0:0:
311,168,12914,1,0,3:0:0:0:
311,168,13030,2,0,L|322:239,1,72,10|0,0:0|0:0,0:0:0:0:
443,109,13261,1,2,3:2:0:0:
443,109,13491,6,0,B|363:115|394:64|309:69,1,144,10|2,0:0|3:2,0:0:0:0:
214,18,13838,1,0,3:0:0:0:
214,17,13953,2,0,P|206:52|199:87,1,72,14|0,0:0|0:0,0:0:0:0:
76,292,14184,6,0,P|129:288|173:317,1,108,2|0,3:2|2:0,0:0:0:0:
179,326,14414,2,0,P|214:317|249:311,1,72,14|0,0:0|0:0,0:0:0:0:
431,209,14645,6,0,P|452:160|440:108,1,108,2|0,3:2|2:0,0:0:0:0:
434,100,14875,2,0,P|398:91|363:85,1,72,14|0,0:0|0:0,0:0:0:0:
206,12,15107,1,2,3:2:0:0:
206,12,15338,2,0,P|213:47|219:82,1,72,8|8,0:0|0:0,0:0:0:0:
124,217,15568,5,2,3:2:0:0:
158,206,15683,1,0,3:0:0:0:
193,211,15799,1,8,0:0:0:0:
223,230,15914,1,8,0:0:0:0:
243,262,16030,6,0,B|323:248|301:302|380:285,1,144,6|8,3:2|0:0,0:0:0:0:
457,327,16376,2,0,B|416:291|416:239|416:239|435:200,1,144,2|0,3:2|3:0,0:0:0:0:
493,81,16722,2,0,P|467:105|433:99,1,72,10|0,0:0|0:0,0:0:0:0:
354,30,16953,2,0,P|357:101|341:171,2,144,2|8|0,3:2|0:0|3:0,0:0:0:0:
358,34,17530,1,0,3:0:0:0:
362,38,17645,2,0,L|291:53,1,72,10|0,0:0|0:0,0:0:0:0:
144,79,17876,6,0,P|77:67|63:0,1,144,2|10,3:2|0:0,0:0:0:0:
200,14,18222,2,0,P|184:84|177:155,1,144,2|0,3:2|3:0,0:0:0:0:
101,204,18568,2,0,P|65:207|30:215,1,72,10|0,0:0|0:0,0:0:0:0:
2,353,18799,6,0,B|80:325|135:378,2,144,2|8|0,3:2|0:0|3:0,0:0:0:0:
6,357,19376,1,0,3:0:0:0:
10,361,19491,2,0,P|7:325|0:290,1,72,10|0,0:0|0:0,0:0:0:0:
101,204,19722,6,0,B|177:218|153:253|226:270,1,144,2|8,3:2|0:0,0:0:0:0:
288,192,20068,2,0,P|321:179|357:172,1,72,2|0,3:2|0:0,0:0:0:0:
410,289,20299,1,0,3:0:0:0:
410,289,20414,2,0,P|376:276|340:269,1,72,10|0,0:0|0:0,0:0:0:0:
353,98,20645,6,0,B|381:146|423:155|423:155|439:142|468:133,1,144,2|10,3:2|0:0,0:0:0:0:
391,20,20991,2,0,P|338:65|269:54,1,144,2|0,0:0|3:0,0:0:0:0:
166,7,21338,2,0,P|178:40|183:76,1,72,10|0,0:0|0:0,0:0:0:0:
157,261,21568,6,0,B|106:252|106:252|82:264|82:264|18:275,1,144,2|10,3:2|0:0,0:0:0:0:
17,275,21914,2,0,P|13:239|4:204,1,72,2|0,3:2|0:0,0:0:0:0:
101,89,22145,2,0,P|91:123|88:159,1,72,2|8,3:2|0:0,0:0:0:0:
115,336,22376,6,0,P|183:316|254:302,1,144,2|0,3:2|3:0,0:0:0:0:
320,228,22722,2,0,P|346:250|382:251,1,72,10|0,0:0|0:0,0:0:0:0:
512,320,22953,1,2,3:2:0:0:
512,320,23068,1,0,3:0:0:0:
512,320,23184,2,0,P|476:328|441:336,1,72,14|0,0:1|0:0,0:0:0:0:
320,228,23414,6,0,B|300:150|346:171|321:87,1,144,6|8,3:2|0:0,0:0:0:0:
384,0,23761,2,0,P|442:32|427:97,1,144,2|0,3:2|3:0,0:0:0:0:
321,87,24107,2,0,P|285:95|250:102,1,72,10|0,0:0|0:0,0:0:0:0:
128,32,24338,5,2,3:2:0:0:
128,32,24453,1,0,0:0:0:0:
128,32,24568,2,0,B|141:86|141:86|134:96|134:96|147:171,1,144,8|0,0:0|3:0,0:0:0:0:
96,288,24914,1,0,3:0:0:0:
96,287,25030,2,0,P|63:284|69:252,1,72,10|0,0:0|0:0,0:0:0:0:
160,383,25261,6,0,B|185:345|237:334|237:334|284:350,1,144,2|8,3:2|0:0,0:0:0:0:
377,373,25607,2,0,P|444:365|465:301,1,144,2|0,3:2|3:0,0:0:0:0:
405,248,25953,1,10,0:0:0:0:
405,248,26184,6,0,P|409:177|426:107,1,144,2|8,3:2|0:0,0:0:0:0:
371,18,26530,1,0,0:0:0:0:
377,25,26645,2,0,P|411:16|447:8,1,72,2|0,3:2|3:0,0:0:0:0:
376,159,26876,2,0,P|341:150|305:142,1,72,10|0,0:0|0:0,0:0:0:0:
253,37,27107,6,0,B|177:57|214:88|131:108,1,144,2|10,3:2|0:0,0:0:0:0:
49,162,27453,2,0,P|119:151|175:191,1,144,2|0,3:2|3:0,0:0:0:0:
114,270,27799,2,0,P|84:283|63:256,1,72,10|0,0:0|0:0,0:0:0:0:
100,378,28030,6,0,B|167:362|167:362|174:366|174:366|239:350,1,144,2|10,3:2|0:0,0:0:0:0:
322,382,28376,2,0,P|327:346|336:311,1,72,2|0,0:0|0:0,0:0:0:0:
237,263,28607,1,2,3:2:0:0:
237,263,28722,2,0,P|231:227|222:192,1,72,8|2,0:0|0:0,0:0:0:0:
169,89,28953,6,0,P|218:138|288:139,1,144,2|8,3:2|0:0,0:0:0:0:
351,51,29299,2,0,L|420:32,1,72,2|0,3:2|0:0,0:0:0:0:
482,118,29530,1,0,3:0:0:0:
482,118,29645,2,0,L|412:136,1,72,12|0,0:1|0:0,0:0:0:0:
237,263,29876,6,0,B|313:264|282:307|373:297,1,144,6|10,3:2|0:0,0:0:0:0:
188,357,30222,2,0,P|178:286|158:217,1,144,4|0,3:2|3:0,0:0:0:0:
88,175,30568,1,10,0:0:0:0:
88,175,30684,1,8,0:0:0:0:
121,85,30799,6,0,P|64:91|13:66,2,115.2,6|8|0,3:2|0:0|0:0,0:0:0:0:
182,16,31376,1,0,0:0:0:0:
182,16,31491,2,0,P|210:13|236:25,1,57.6,10|0,0:0|0:0,0:0:0:0:
323,9,31722,6,0,P|309:64|297:121,1,115.2,2|8,0:0|0:0,0:0:0:0:
219,178,32068,2,0,P|225:205|231:234,1,57.6,2|0,0:0|0:0,0:0:0:0:
136,219,32299,1,0,0:0:0:0:
136,219,32414,2,0,P|130:190|123:162,1,57.6,10|0,0:0|0:0,0:0:0:0:
114,313,32645,6,0,B|65:320|65:320|55:329|55:329|4:342,2,115.2,2|8|0,0:0|0:0|0:0,0:0:0:0:
182,375,33222,1,0,0:0:0:0:
181,375,33338,2,0,P|208:364|227:342,1,57.6,10|0,0:0|0:0,0:0:0:0:
304,373,33568,6,0,B|356:362|356:362|364:365|364:365|416:353,1,115.2,2|8,0:0|0:0,0:0:0:0:
497,376,33914,2,0,P|512:321|498:265,1,115.2,2|0,0:0|3:0,0:0:0:0:
512,173,34261,5,10,0:0:0:0:
512,173,34376,1,0,3:0:0:0:
512,173,34491,2,0,P|457:157|401:146,1,115.2,2|8,3:2|0:0,0:0:0:0:
344,81,34838,2,0,P|325:38|369:51,1,115.2,2|0,0:0|0:0,0:0:0:0:
399,145,35184,2,0,P|376:160|348:166,1,57.6,10|0,0:0|0:0,0:0:0:0:
237,91,35414,6,0,B|175:99|195:120|131:133,1,115.2,2|10,0:0|0:0,0:0:0:0:
131,133,35761,1,2,0:0:0:0:
8,268,35991,1,0,0:0:0:0:
8,268,36107,2,0,P|36:270|64:277,1,57.6,10|0,0:0|0:0,0:0:0:0:
114,369,36338,6,0,P|169:352|225:342,1,115.2,2|8,0:0|0:0,0:0:0:0:
322,353,36684,1,2,0:0:0:0:
322,353,36799,2,0,P|345:368|374:372,2,57.6,2|0|8,0:0|0:0|0:0,0:0:0:0:
233,229,37261,6,0,B|203:155|262:169|227:89,1,144,4|10,3:2|0:0,0:0:0:0:
194,18,37607,2,0,B|226:64|287:63|287:63|319:45,1,144,4|0,3:1|3:0,0:0:0:0:
480,128,37953,1,14,0:0:0:0:
480,128,38184,6,0,B|425:137|425:137|401:162|401:162|348:174,1,144,6|8,3:2|0:0,0:0:0:0:
312,344,38530,1,0,3:0:0:0:
322,353,38645,2,0,P|342:323|341:288,1,72,0|0,0:0|3:0,0:0:0:0:
233,229,38876,2,0,B|202:239|202:239|199:244|199:244|167:254,1,72,10|0,0:0|0:0,0:0:0:0:
33,312,39107,6,0,B|56:236|17:243|37:169,1,144,2|10,3:2|0:0,0:0:0:0:
0,70,39453,2,0,P|38:126|105:113,1,144,2|0,3:2|3:0,0:0:0:0:
181,0,39799,2,0,B|150:10|150:10|146:17|146:17|114:28,1,72,10|0,0:0|0:0,0:0:0:0:
116,27,40030,6,0,B|197:43|154:78|239:93,1,144,2|8,3:2|0:0,0:0:0:0:
329,35,40376,2,0,P|363:25|398:15,1,72,2|0,3:2|0:0,0:0:0:0:
481,94,40607,1,0,3:0:0:0:
481,94,40722,2,0,P|446:103|411:113,1,72,10|0,0:0|0:0,0:0:0:0:
320,223,40953,6,0,P|390:228|442:275,1,144,2|8,3:2|0:0,0:0:0:0:
351,335,41299,1,0,0:0:0:0:
350,335,41414,2,0,P|339:308|365:321,1,72,2|0,0:0|3:0,0:0:0:0:
264,373,41645,2,0,B|237:368|237:368|232:362|232:362|195:354,1,72,14|0,0:0|0:0,0:0:0:0:
92,383,41876,6,0,P|126:322|111:253,1,144,4|8,3:2|0:0,0:0:0:0:
53,192,42222,2,0,P|123:204|194:216,1,144,0|0,3:0|3:0,0:0:0:0:
256,127,42568,2,0,P|262:93|243:63,1,72,8|0,0:0|0:0,0:0:0:0:
227,60,42799,6,0,P|297:68|348:18,1,144,0|14,3:0|0:1,0:0:0:0:
445,11,43145,1,0,3:0:0:0:
445,11,43261,2,0,P|434:45|435:81,1,72,14|0,0:0|0:0,0:0:0:0:
507,226,43491,5,2,3:2:0:0:
417,205,43607,1,0,3:0:0:0:
367,288,43722,2,0,B|286:283|307:332|231:324,1,144,10|0,3:2|3:0,0:0:0:0:
136,301,44068,2,0,P|143:336|148:371,1,72,4|0,0:0|0:0,0:0:0:0:
44,306,44299,1,0,3:0:0:0:
44,306,44414,2,0,P|38:270|31:235,1,72,10|0,0:0|3:0,0:0:0:0:
0,155,44645,6,0,B|80:162|41:197|130:208,1,144,14|0,0:0|3:0,0:0:0:0:
238,54,44991,1,12,3:2:0:0:
226,60,45107,2,0,P|216:94|212:130,1,72,0|0,0:0|3:0,0:0:0:0:
285,265,45338,5,8,3:2:0:0:
364,242,45453,1,0,3:0:0:0:
436,291,45568,2,0,B|466:215|417:228|449:150,1,144,10|0,3:2|3:0,0:0:0:0:
498,82,45914,2,0,P|431:98|386:46,1,144,10|0,3:2|3:0,0:0:0:0:
288,0,46261,5,10,3:2:0:0:
288,0,46376,1,0,0:0:0:0:
256,96,46491,2,0,P|263:138|270:181,1,86.3999973632813,10|0,3:2|0:0,0:0:0:0:
267,206,47414,6,0,B|244:123|287:148|268:64,1,144,6|8,3:2|0:0,0:0:0:0:
201,2,47761,2,0,P|158:55|89:48,1,144,2|0,3:2|3:0,0:0:0:0:
3,43,48107,2,0,P|12:77|17:113,1,72,10|0,0:0|0:0,0:0:0:0:
0,191,48338,6,0,B|57:205|57:205|75:225|75:225|131:240,1,144,2|10,3:2|0:0,0:0:0:0:
237,191,48684,1,0,0:0:0:0:
247,198,48799,2,0,P|255:232|263:268,1,72,2|0,3:2|3:0,0:0:0:0:
205,376,49030,2,0,P|187:346|188:311,1,72,10|0,0:0|0:0,0:0:0:0:
351,219,49261,6,0,B|406:233|406:233|424:258|424:258|479:268,1,144,2|10,3:2|0:0,0:0:0:0:
511,159,49607,2,0,P|457:115|387:118,1,144,2|0,3:2|3:0,0:0:0:0:
257,71,49953,2,0,P|246:37|260:5,1,72,10|0,0:0|0:0,0:0:0:0:
372,116,50184,6,0,B|300:115|320:162|236:154,1,144,2|8,3:2|0:0,0:0:0:0:
123,86,50530,1,0,0:0:0:0:
137,81,50645,2,0,P|130:116|125:152,1,72,2|0,3:2|3:0,0:0:0:0:
30,313,50876,5,10,0:0:0:0:
112,295,50991,1,0,0:0:0:0:
175,351,51107,2,0,P|243:359|283:303,1,144,2|10,3:2|0:0,0:0:0:0:
234,218,51453,2,0,P|229:182|222:146,1,72,2|0,3:2|0:0,0:0:0:0:
123,86,51684,1,0,3:0:0:0:
113,94,51799,2,0,P|119:129|124:165,1,72,10|0,0:0|0:0,0:0:0:0:
269,8,52030,6,0,B|348:19|313:54|397:67,2,144,2|10|2,3:2|0:0|3:2,0:0:0:0:
210,75,52607,1,0,3:0:0:0:
210,75,52722,2,0,P|216:110|221:146,1,72,10|0,0:0|0:0,0:0:0:0:
283,303,52953,6,0,B|220:296|220:296|210:302|210:302|141:293,1,144,2|8,3:2|0:0,0:0:0:0:
48,370,53299,2,0,P|88:314|68:248,1,144,2|0,3:2|3:0,0:0:0:0:
0,189,53645,2,0,P|3:154|8:118,1,72,10|0,0:0|0:0,0:0:0:0:
10,19,53876,6,0,B|47:49|47:49|140:26,1,144,2|12,3:2|0:0,0:0:0:0:
230,6,54222,1,0,0:0:0:0:
234,15,54338,2,0,L|216:84,1,72,2|0,3:2|0:0,0:0:0:0:
339,164,54568,5,10,0:0:0:0:
397,104,54684,1,8,0:0:0:0:
477,127,54799,2,0,P|465:198|456:269,1,144,6|8,3:2|0:0,0:0:0:0:
511,370,55145,2,0,P|463:320|393:321,1,144,2|0,3:2|3:0,0:0:0:0:
326,373,55491,1,10,0:0:0:0:
256,237,55722,6,0,B|235:154|282:184|255:95,1,144,2|10,3:2|0:0,0:0:0:0:
275,15,56068,2,0,P|231:67|164:52,1,144,2|0,0:0|3:0,0:0:0:0:
87,12,56414,1,10,0:0:0:0:
87,12,56530,1,0,0:0:0:0:
32,80,56645,6,0,P|48:149|60:221,1,144,2|8,3:2|0:0,0:0:0:0:
128,376,56991,2,0,P|76:328|5:328,1,144,2|0,3:2|3:0,0:0:0:0:
16,336,57338,2,0,B|46:328|46:328|51:324|51:324|84:315,1,72,10|0,0:0|0:0,0:0:0:0:
200,272,57568,6,0,B|225:310|225:310|264:328|322:324,1,144,2|8,3:2|0:0,0:0:0:0:
399,384,57914,1,0,0:0:0:0:
411,375,58030,2,0,P|418:339|426:304,1,72,2|0,3:2|3:0,0:0:0:0:
504,160,58261,5,14,0:0:0:0:
416,176,58376,1,0,0:0:0:0:
354,119,58491,2,0,B|255:102|289:169|191:152,1,172.799994726563,6|10,3:2|0:0,0:0:0:0:
117,94,58838,2,0,P|125:51|133:9,1,86.3999973632813,6|0,3:2|0:0,0:0:0:0:
9,109,59068,1,2,3:2:0:0:
17,127,59184,2,0,P|8:169|0:211,1,86.3999973632813,8|2,0:0|0:0,0:0:0:0:
32,320,59414,6,0,B|105:303|105:303|115:309|115:309|199:290,1,172.799994726563,4|10,3:2|0:0,0:0:0:0:
324,380,59761,1,4,3:2:0:0:
316,377,59876,2,0,B|298:335|298:335|312:297,1,86.3999973632813,0|0,0:0|3:0,0:0:0:0:
445,195,60107,2,0,B|460:158|460:158|442:116,1,86.3999973632813,14|0,0:0|0:0,0:0:0:0:
440,282,60338,6,0,B|358:261|401:230|318:212,1,144,2|8,3:2|0:0,0:0:0:0:
232,265,60684,2,0,B|273:233|273:233|246:144,1,144,0|2,3:0|3:2,0:0:0:0:
294,76,61030,1,10,0:0:0:0:
294,76,61145,1,2,0:0:0:0:
224,13,61261,6,0,B|164:30|164:30|149:48|149:48|93:65,1,144,0|8,3:0|0:0,0:0:0:0:
11,41,61607,1,0,3:0:0:0:
11,41,61722,2,0,P|4:76|0:112,1,72,2|8,3:2|0:0,0:0:0:0:
38,252,61953,5,10,0:0:0:0:
94,189,62068,1,0,3:0:0:0:
176,209,62184,2,0,B|260:194|236:251|313:230,1,144,6|8,3:2|0:0,0:0:0:0:
448,192,62530,2,0,P|443:125|377:119,1,144,2|0,3:2|3:0,0:0:0:0:
382,129,62876,2,0,B|391:99|391:99|389:87|389:87|397:59,1,72,10|0,0:0|0:0,0:0:0:0:
256,32,63107,6,0,P|266:103|276:174,2,144,2|10|2,3:2|0:0|3:2,0:0:0:0:
177,17,63684,1,0,3:0:0:0:
177,17,63799,2,0,B|146:31|146:31|108:24,1,72,10|0,0:0|0:0,0:0:0:0:
1,122,64030,6,0,B|86:122|116:192,1,144,2|8,3:2|0:0,0:0:0:0:
199,289,64376,2,0,B|208:223|208:223|204:215|204:215|212:147,1,144,2|0,3:2|3:0,0:0:0:0:
195,50,64722,2,0,B|195:23|177:9|177:9|183:20|182:33,1,72,10|0,0:0|0:0,0:0:0:0:
284,85,64953,6,0,B|354:60|346:42|413:23,1,144,2|8,3:2|0:0,0:0:0:0:
476,126,65299,1,0,0:0:0:0:
475,126,65414,2,0,P|441:132|410:114,1,72,2|0,3:2|3:0,0:0:0:0:
323,209,65645,5,10,0:0:0:0:
360,287,65761,1,0,0:0:0:0:
316,361,65876,2,0,B|242:343|257:380|173:361,1,144,2|10,3:2|0:0,0:0:0:0:
96,384,66222,2,0,B|54:375|45:335|45:335|63:269,1,144,2|0,3:2|3:0,0:0:0:0:
68,251,66568,2,0,P|43:275|8:275,1,72,10|0,0:0|0:0,0:0:0:0:
62,155,66799,6,0,P|132:171|202:186,2,144,2|10|2,3:2|0:0|3:2,0:0:0:0:
0,64,67376,1,0,3:0:0:0:
0,64,67491,2,0,B|-13:28|-13:28|13:48,1,72,10|0,0:0|0:0,0:0:0:0:
62,155,67722,6,0,B|139:138|106:113|192:97,1,144,2|8,3:2|0:0,0:0:0:0:
327,125,68068,2,0,P|330:89|337:53,1,72,2|0,3:2|0:0,0:0:0:0:
244,162,68299,1,0,3:0:0:0:
250,174,68414,2,0,P|243:209|239:245,1,72,14|0,0:0|0:0,0:0:0:0:
320,383,68645,2,0,P|364:330|432:339,1,144,6|12,3:2|0:0,0:0:0:0:
429,350,69107,2,0,P|410:320|413:284,1,72,2|0,3:2|0:0,0:0:0:0:
478,180,69338,5,10,0:3:0:0:
510,97,69453,1,0,0:0:0:0:
446,36,69568,2,0,B|365:54|405:76|317:98,1,144,6|8,3:2|0:0,0:0:0:0:
247,41,69914,2,0,B|214:-5|163:6|163:6|136:44,1,144,2|0,3:2|3:0,0:0:0:0:
64,92,70261,2,0,B|38:77|38:77|35:70|35:70|5:55,1,72,10|0,0:0|0:0,0:0:0:0:
16,191,70491,6,0,B|44:142|99:134|99:134|135:147,2,144,2|10|2,3:2|0:0|3:2,0:0:0:0:
60,270,71068,1,0,3:0:0:0:
60,270,71184,2,0,P|94:259|129:250,1,72,10|0,0:0|0:0,0:0:0:0:
212,106,71414,6,0,P|246:116|281:125,1,72,6|0,3:2|0:0,0:0:0:0:
488,50,71645,1,10,0:0:0:0:
411,18,71761,2,0,P|367:71|373:141,1,144,6|0,3:1|3:0,0:0:0:0:
480,192,72107,2,0,B|494:183|498:157|498:157|491:173|478:180,1,72,14|0,0:0|0:0,0:0:0:0:
431,338,72338,6,0,P|378:294|309:305,1,144,2|12,3:2|0:0,0:0:0:0:
219,343,72684,1,0,0:0:0:0:
208,330,72799,2,0,P|214:294|223:259,1,72,8|0,3:2|0:0,0:0:0:0:
248,71,73030,5,10,0:3:0:0:
164,90,73145,1,0,0:0:0:0:
98,32,73261,2,0,P|40:71|35:140,1,144,6|8,3:2|0:0,0:0:0:0:
3,246,73607,2,0,B|65:229|65:229|77:233|77:233|141:215,1,144,6|0,3:2|3:0,0:0:0:0:
221,193,73953,1,14,0:1:0:0:
430,380,74184,6,0,B|470:340|470:340|451:254,1,144,4|10,3:2|0:0,0:0:0:0:
431,163,74530,2,0,L|501:175,1,72,4|2,3:2|0:0,0:0:0:0:
460,41,74761,1,0,3:0:0:0:
449,54,74876,2,0,L|378:66,1,72,14|0,0:1|0:0,0:0:0:0:
258,10,75107,1,2,3:2:0:0:
258,10,75338,5,0,3:0:0:0:
238,32,75453,1,8,0:0:0:0:
224,78,75568,1,10,3:2:0:0:
237,125,75684,1,8,3:2:0:0:
287,165,75799,1,8,3:2:0:0:
314,241,75914,1,8,3:2:0:0:
279,316,76030,6,0,P|208:315|152:358,1,144,6|6,3:2|3:3,0:0:0:0:
161,376,76953,6,0,B|181:298|128:320|146:237,1,144,6|8,3:2|0:0,0:0:0:0:
207,175,77299,2,0,P|138:180|87:132,1,144,2|0,3:2|3:0,0:0:0:0:
187,26,77645,1,10,0:0:0:0:
186,26,77761,2,0,P|174:60|167:95,1,72,2|0,0:0|3:0,0:0:0:0:
301,118,77991,5,2,3:2:0:0:
301,118,78107,2,0,B|371:107|357:162|437:144,1,144,10|2,0:0|3:2,0:0:0:0:
437,144,78453,1,0,3:0:0:0:
437,144,78568,2,0,P|442:108|448:72,1,72,10|0,0:0|0:0,0:0:0:0:
504,256,78799,5,2,3:2:0:0:
452,327,78914,2,0,B|379:320|383:371|309:364,1,144,2|2,0:0|3:2,0:0:0:0:
233,379,79261,2,0,P|239:343|246:308,1,72,2|0,0:0|0:0,0:0:0:0:
176,184,79491,5,10,0:0:0:0:
185,195,79607,2,0,P|178:230|171:265,1,72,2|0,0:0|0:0,0:0:0:0:
95,384,79838,6,0,P|71:358|36:362,1,72,2|8,3:2|0:0,0:0:0:0:
54,248,80068,2,0,B|108:233|108:233|130:211|130:211|184:194,1,144,2|2,3:2|3:2,0:0:0:0:
184,194,80414,1,10,0:0:0:0:
329,31,80645,5,2,3:2:0:0:
362,110,80761,2,0,P|293:108|249:54,1,144,2|2,3:2|0:0,0:0:0:0:
177,11,81107,2,0,B|146:20|146:20|139:29|139:29|112:38,1,72,2|0,3:2|0:0,0:0:0:0:
69,234,81338,5,10,0:0:0:0:
1,184,81453,2,0,B|37:145|92:150|92:150|127:174,1,144,2|2,0:0|3:2,0:0:0:0:
210,235,81799,2,0,P|203:270|196:305,1,72,10|0,0:0|3:0,0:0:0:0:
128,384,82030,1,2,0:0:0:0:
128,384,82145,1,0,3:0:0:0:
127,383,82261,2,0,P|107:353|109:317,1,72,10|0,0:0|0:0,0:0:0:0:
210,235,82491,6,0,B|291:222|270:263|351:247,1,144,2|8,3:2|0:0,0:0:0:0:
490,314,82838,2,0,P|445:367|375:362,1,144,2|0,3:2|0:0,0:0:0:0:
375,362,83184,1,10,0:0:0:0:
319,166,83414,6,0,B|332:125|332:125|327:104|327:104|349:27,1,144,2|2,0:0|3:2,0:0:0:0:
418,109,83761,1,0,3:0:0:0:
418,109,83876,2,0,B|455:99|455:99|459:93|459:93|484:84,1,72,14|0,0:0|0:0,0:0:0:0:
273,9,84107,5,0,3:0:0:0:
211,69,84222,1,0,3:0:0:0:
132,30,84338,2,0,P|66:52|43:118,1,144,14|0,0:1|3:0,0:0:0:0:
119,199,84684,2,0,L|136:128,1,72,14|0,0:0|0:0,0:0:0:0:
2,281,84914,5,0,3:0:0:0:
65,356,85030,2,0,B|128:344|128:344|132:348|132:348|205:334,1,144,10|0,0:0|3:0,0:0:0:0:
315,286,85376,2,0,P|342:346|288:384,1,144,10|0,0:0|3:0,0:0:0:0:
230,245,85722,2,0,L|242:174,1,72,10|0,0:0|0:0,0:0:0:0:
220,42,85953,5,2,0:0:0:0:
359,86,86068,1,6,0:0:0:0:
256,192,86184,12,8,87568,0:3:0:0:
