osu file format v14

[General]
AudioFilename: audio.mp3
AudioLeadIn: 0
PreviewTime: 46435
Countdown: 0
SampleSet: Soft
StackLeniency: 0.4
Mode: 0
LetterboxInBreaks: 0
WidescreenStoryboard: 1

[Editor]
DistanceSpacing: 0.8
BeatDivisor: 4
GridSize: 16
TimelineZoom: 2.299999

[Metadata]
Title:FEEL x ALIVE (TV Size)
TitleUnicode:FEEL✕ALIVE (TV Size)
Artist:Sasaki Sayaka
ArtistUnicode:佐咲紗花
Creator:dkblaze
Version:Expert
Source:ばくおん!!
Tags:Bakuon!! OP Opening Anime Japanese rock j-pop pop Shizuku- Kazato Asa Shikibe Mayu nautzz
BeatmapID:2397419
BeatmapSetID:1148252

[Difficulty]
HPDrainRate:6
CircleSize:3.8
OverallDifficulty:9
ApproachRate:9.4
SliderMultiplier:1.6
SliderTickRate:1

[Events]
//Background and Video events
0,0,"BG.jpg",0,0
Video,-280,"video.mp4"
//Break Periods
//Storyboard Layer 0 (Background)
//Storyboard Layer 1 (Fail)
//Storyboard Layer 2 (Pass)
//Storyboard Layer 3 (Foreground)
//Storyboard Layer 4 (Overlay)
//Storyboard Sound Samples

[TimingPoints]
338,230.769230769231,4,2,2,65,1,0
338,-100,4,2,2,65,0,0
568,-90.909090909091,4,2,2,65,0,0
1030,-166.666666666667,4,2,2,65,0,0
5876,-111.111111111111,4,2,2,65,0,0
6799,-71.4285714285714,4,2,2,65,0,0
7895,-71.4285714285714,4,2,2,5,0,0
7953,-100,4,2,2,65,0,0
8184,-100,4,2,2,40,0,0
8645,-83.3333333333333,4,2,2,75,0,0
8818,-83.3333333333333,4,2,2,5,0,0
8876,-83.3333333333333,4,2,2,75,0,0
10664,-83.3333333333333,4,2,2,5,0,0
10722,-83.3333333333333,4,2,2,75,0,0
11588,-83.3333333333333,4,2,2,5,0,0
11645,-83.3333333333333,4,2,2,75,0,0
12857,-83.3333333333333,4,2,2,5,0,0
12914,-83.3333333333333,4,2,2,75,0,0
14184,-166.666666666667,4,2,2,75,0,0
14357,-166.666666666667,4,2,2,5,0,0
14414,-83.3333333333333,4,2,2,75,0,0
16030,-100,4,2,2,70,0,0
18049,-100,4,2,2,5,0,0
18107,-100,4,2,2,70,0,0
25434,-100,4,2,2,5,0,0
25491,-100,4,2,2,70,0,0
27280,-100,4,2,2,5,0,0
27338,-100,4,2,2,70,0,0
29126,-100,4,2,2,5,0,0
29184,-100,4,2,2,70,0,0
29876,-76.9230769230769,4,2,2,70,0,0
30568,-76.9230769230769,4,2,2,70,0,0
30799,-100,4,2,2,70,0,0
33741,-100,4,2,2,5,0,0
33799,-100,4,2,2,70,0,0
35588,-100,4,2,2,5,0,0
35645,-100,4,2,2,70,0,0
36972,-100,4,2,2,5,0,0
37030,-100,4,2,2,70,0,0
37261,-76.9230769230769,4,2,2,70,0,0
37434,-76.9230769230769,4,2,2,5,0,0
37491,-76.9230769230769,4,2,2,70,0,0
37549,-76.9230769230769,4,2,2,5,0,0
37607,-76.9230769230769,4,2,2,70,0,0
38184,-71.4285714285714,4,2,2,70,0,0
38357,-71.4285714285714,4,2,2,5,0,0
38414,-71.4285714285714,4,2,2,70,0,0
38530,-90.9090909090909,4,2,2,70,0,0
39280,-90.9090909090909,4,2,2,5,0,0
39338,-90.9090909090909,4,2,2,70,0,0
40203,-90.9090909090909,4,2,2,5,0,0
40261,-90.9090909090909,4,2,2,70,0,0
42049,-90.9090909090909,4,2,2,5,0,0
42107,-90.9090909090909,4,2,2,70,0,0
43030,-76.9230769230769,4,2,2,70,0,0
43895,-76.9230769230769,4,2,2,5,0,0
43953,-76.9230769230769,4,2,2,70,0,0
46491,-111.111111111111,4,2,2,70,0,0
47414,-83.3333333333333,4,2,2,80,0,1
47588,-83.3333333333333,4,2,2,5,0,1
47645,-83.3333333333333,4,2,2,80,0,1
49434,-83.3333333333333,4,2,2,5,0,1
49491,-83.3333333333333,4,2,2,80,0,1
51280,-83.3333333333333,4,2,2,5,0,1
51338,-83.3333333333333,4,2,2,80,0,1
53876,-500,4,2,2,80,0,1
54049,-500,4,2,2,5,0,1
54107,-66.6666666666667,4,2,2,80,0,1
54280,-66.6666666666667,4,2,2,5,0,1
54338,-83.3333333333333,4,2,2,80,0,1
54972,-83.3333333333333,4,2,2,5,0,1
55030,-83.3333333333333,4,2,2,80,0,1
56818,-83.3333333333333,4,2,2,5,0,1
56876,-83.3333333333333,4,2,2,80,0,1
58491,-76.9230769230769,4,2,2,80,0,1
58664,-76.9230769230769,4,2,2,5,0,1
58722,-76.9230769230769,4,2,2,80,0,1
58838,-83.3333333333333,4,2,2,80,0,1
59761,-76.9230769230769,4,2,2,80,0,1
60107,-83.3333333333333,4,2,2,80,0,1
60338,-90.9090909090909,4,2,2,80,0,1
61261,-83.3333333333333,4,2,2,80,0,1
62184,-83.3333333333333,4,2,2,80,0,1
62357,-83.3333333333333,4,2,2,5,0,1
62414,-83.3333333333333,4,2,2,80,0,1
64203,-83.3333333333333,4,2,2,5,0,1
64261,-83.3333333333333,4,2,2,80,0,1
66049,-83.3333333333333,4,2,2,5,0,1
66107,-83.3333333333333,4,2,2,80,0,1
67895,-83.3333333333333,4,2,2,5,0,1
67953,-83.3333333333333,4,2,2,80,0,1
68876,-62.5,4,2,2,80,0,1
69049,-62.5,4,2,2,5,0,1
69107,-166.666666666667,4,2,2,80,0,1
69280,-166.666666666667,4,2,2,5,0,1
69338,-66.6666666666667,4,2,2,80,0,1
69511,-66.6666666666667,4,2,2,5,0,1
69568,-66.6666666666667,4,2,2,80,0,1
69741,-83.3333333333333,4,2,2,5,0,1
69799,-83.3333333333333,4,2,2,80,0,1
71414,-71.4285714285714,4,2,2,80,0,1
71588,-71.4285714285714,4,2,2,5,0,1
71645,-71.4285714285714,4,2,2,80,0,1
72338,-66.6666666666667,4,2,2,80,0,1
72511,-66.6666666666667,4,2,2,5,0,1
72568,-83.3333333333333,4,2,2,80,0,1
72799,-111.111111111111,4,2,2,80,0,1
73261,-90.9090909090909,4,2,2,80,0,1
73607,-71.4285714285714,4,2,2,80,0,1
73953,-90.9090909090909,4,2,2,80,0,1
74530,-71.4285714285714,4,2,2,80,0,1
74876,-90.9090909090909,4,2,2,80,0,1
76030,-66.6666666666667,4,2,2,75,0,0
76203,-66.6666666666667,4,2,2,5,0,0
76491,-250.000000000001,4,2,2,75,0,0
76838,-250.000000000001,4,2,2,5,0,0
76953,-111.111111111111,4,2,2,75,0,0
80645,-90.9090909090908,4,2,2,75,0,0
82491,-83.3333333333333,4,2,2,75,0,0
82664,-83.3333333333333,4,2,2,5,0,0
82722,-83.3333333333333,4,2,2,75,0,0
83414,-76.9230769230769,4,2,2,75,0,0
84338,-66.6666666666667,4,2,2,75,0,0
86068,-181.818181818182,4,2,2,75,0,0
87222,-181.818181818182,4,2,2,5,0,0
87376,-125,4,2,2,75,0,0

[Colours]
Combo1 : 255,128,255
Combo2 : 128,255,128
Combo3 : 128,255,255
Combo4 : 255,128,128
Combo5 : 255,255,128

[HitObjects]
177,129,568,6,0,B|289:88|289:88|251:159,1,176.000005371094,2|2,0:0|0:0,0:0:0:0:
258,146,914,1,2,0:0:0:0:
195,217,1030,2,0,P|202:247|206:280,1,47.9999985351563,10|0,3:3|0:0,0:0:0:0:
302,374,1261,5,2,3:2:0:0:
309,379,1376,2,0,L|366:368,1,47.9999985351563,2|8,0:0|0:0,0:0:0:0:
471,380,1607,1,10,0:0:0:0:
478,371,1722,2,0,P|474:351|465:314,1,47.9999985351563,2|0,0:0|0:0,0:0:0:0:
365,274,1953,1,10,0:0:0:0:
371,267,2068,2,0,P|375:244|379:208,1,47.9999985351563,2|0,0:0|0:0,0:0:0:0:
486,201,2299,1,2,0:0:0:0:
479,194,2414,2,0,P|475:174|466:137,1,47.9999985351563,10|0,0:0|0:0,0:0:0:0:
393,64,2645,5,2,0:0:0:0:
384,58,2761,1,2,0:0:0:0:
375,52,2876,2,0,P|352:57|313:67,1,47.9999985351563,10|0,0:0|0:0,0:0:0:0:
206,149,3107,5,2,0:0:0:0:
200,141,3222,2,0,L|139:128,1,47.9999985351563,2|8,0:0|0:0,0:0:0:0:
88,73,3453,1,2,0:0:0:0:
79,78,3568,2,0,L|18:91,1,47.9999985351563,2|0,0:0|0:0,0:0:0:0:
2,190,3799,1,10,0:0:0:0:
6,198,3914,1,2,0:0:0:0:
10,206,4030,6,0,P|2:254|1:268,1,47.9999985351563,0|2,0:0|0:0,0:0:0:0:
108,319,4261,2,0,P|129:314|166:306,1,47.9999985351563,10|0,0:0|0:0,0:0:0:0:
279,229,4491,5,2,0:0:0:0:
329,256,4607,1,2,3:2:0:0:
345,311,4722,1,10,0:0:0:0:
320,363,4838,1,0,3:0:0:0:
265,380,4953,5,2,3:2:0:0:
258,373,5068,2,0,P|256:349|249:310,1,47.9999985351563,2|8,0:0|0:0,0:0:0:0:
178,229,5299,1,2,0:0:0:0:
183,221,5414,2,0,P|187:197|193:159,1,47.9999985351563,2|0,0:0|0:0,0:0:0:0:
170,64,5645,1,10,0:0:0:0:
179,53,5761,1,2,0:0:0:0:
188,42,5876,6,0,P|223:47|265:53,1,71.9999978027344,2|2,0:0|0:0,0:0:0:0:
357,118,6107,1,10,0:0:0:0:
410,139,6222,1,8,0:0:0:0:
456,119,6338,1,8,0:3:0:0:
473,87,6453,1,8,0:3:0:0:
475,51,6568,1,4,0:3:0:0:
453,21,6684,1,4,0:3:0:0:
408,8,6799,6,0,P|381:203|381:236,1,223.999993164063,6|0,3:2|3:0,0:0:0:0:
273,287,7145,2,0,B|255:271|223:261|223:261|255:263|306:246,1,111.999996582031,14|0,0:0|0:0,0:0:0:0:
356,235,7376,1,0,3:0:0:0:
475,322,7491,2,0,B|495:336|527:347|527:347|495:344|469:352,1,111.999996582031,14|0,0:0|0:0,0:0:0:0:
310,384,7722,6,0,P|267:341|146:362,1,167.999994873047,12|0,0:0|0:0,0:0:0:0:
89,371,7953,6,0,P|131:379|170:358,1,80,0|0,0:0|0:0,0:0:0:0:
256,162,8184,6,0,P|253:171|250:181,12,20,2|2|2|2|2|2|2|2|2|2|2|2|2,0:0|0:0|0:0|0:0|0:0|0:0|0:0|0:0|0:0|0:0|0:0|0:0|0:0,0:0:0:0:
154,243,8645,6,0,P|149:213|119:66,1,143.999995605469,6|0,3:2|0:0,0:0:0:0:
123,88,8876,1,10,0:0:0:0:
43,164,8991,2,0,P|26:144|41:70,1,95.9999970703126,0|0,3:0|0:0,0:0:0:0:
117,2,9222,1,0,3:0:0:0:
218,86,9338,2,0,P|255:78|339:62,1,95.9999970703126,10|0,0:0|0:0,0:0:0:0:
512,164,9568,6,0,P|488:160|388:132,1,95.9999970703126,2|0,3:2|3:0,0:0:0:0:
358,0,9799,2,0,B|319:36|319:36|340:86,1,95.9999970703126,10|0,0:0|0:0,0:0:0:0:
416,157,10030,1,2,3:2:0:0:
428,193,10145,1,0,3:0:0:0:
410,227,10261,2,0,P|358:242|314:252,1,95.9999970703126,10|0,0:0|0:0,0:0:0:0:
178,192,10491,6,0,B|229:166|229:166|220:254,1,143.999995605469,2|0,3:2|0:0,0:0:0:0:
219,266,10722,1,8,0:0:0:0:
157,366,10838,2,0,P|192:316|311:361,1,191.999994140625,2|0,3:2|3:0,0:0:0:0:
499,303,11184,2,0,P|464:345|450:385,1,95.9999970703126,10|0,0:0|0:0,0:0:0:0:
348,258,11414,6,0,P|314:219|332:118,1,143.999995605469,2|0,3:2|0:0,0:0:0:0:
361,54,11645,2,0,P|354:113|321:141,1,95.9999970703126,12|0,0:0|0:0,0:0:0:0:
207,234,11876,2,0,P|176:224|94:204,1,95.9999970703126,14|0,3:2|0:0,0:0:0:0:
42,67,12107,1,10,3:2:0:0:
130,39,12222,1,8,3:2:0:0:
186,115,12338,6,0,P|163:250|158:308,1,191.999994140625,6|8,3:2|0:0,0:0:0:0:
57,357,12684,2,0,P|108:334|195:397,1,143.999995605469,2|0,3:2|0:0,0:0:0:0:
187,384,12914,1,0,3:0:0:0:
309,342,13030,2,0,P|306:315|291:221,1,95.9999970703126,10|0,0:0|0:0,0:0:0:0:
203,14,13261,6,0,P|183:44|194:119,1,95.9999970703126,2|0,3:2|3:0,0:0:0:0:
360,194,13491,2,0,P|343:160|272:133,1,95.9999970703126,10|0,0:0|0:0,0:0:0:0:
127,237,13722,2,0,P|162:238|222:191,1,95.9999970703126,2|0,3:2|3:0,0:0:0:0:
203,14,13953,2,0,P|183:44|194:119,1,95.9999970703126,14|0,0:0|0:0,0:0:0:0:
360,203,14184,6,0,P|389:194|432:185,1,71.9999978027344,2|0,3:2|0:0,0:0:0:0:
449,178,14414,6,0,B|486:214|486:214|458:299,1,95.9999970703126,14|0,0:0|0:0,0:0:0:0:
501,384,14645,1,2,3:2:0:0:
429,355,14761,1,0,3:0:0:0:
357,326,14876,2,0,P|285:339|248:348,1,95.9999970703126,14|0,0:0|0:0,0:0:0:0:
140,384,15107,5,2,3:2:0:0:
113,343,15222,1,0,3:0:0:0:
126,296,15338,1,8,0:0:0:0:
166,270,15453,1,8,0:0:0:0:
256,117,15568,5,2,3:2:0:0:
284,188,15684,1,0,3:0:0:0:
252,257,15799,1,8,0:0:0:0:
178,277,15914,1,8,0:0:0:0:
106,219,16030,6,0,P|107:197|126:46,1,160,6|8,3:2|0:0,0:0:0:0:
203,175,16376,2,0,P|252:160|376:140,1,160,2|0,3:2|3:0,0:0:0:0:
443,133,16722,1,10,0:0:0:0:
395,276,16953,5,2,3:2:0:0:
377,252,17068,1,0,3:0:0:0:
389,222,17184,1,8,0:0:0:0:
498,351,17414,1,0,3:0:0:0:
461,382,17530,1,0,3:0:0:0:
414,372,17645,1,10,0:0:0:0:
408,360,17876,6,0,P|411:321|421:226,1,120,2|0,3:2|0:0,0:0:0:0:
421,231,18107,1,10,0:0:0:0:
500,176,18222,2,0,B|463:129|463:129|348:155,1,160,2|0,3:2|3:0,0:0:0:0:
283,177,18568,1,10,0:0:0:0:
224,73,18799,5,2,3:2:0:0:
199,93,18914,1,0,3:0:0:0:
200,125,19030,1,8,0:0:0:0:
78,168,19261,1,0,3:0:0:0:
110,213,19376,1,0,3:0:0:0:
165,210,19491,1,10,0:0:0:0:
174,202,19722,6,0,P|162:256|150:375,1,160,2|8,3:2|0:0,0:0:0:0:
250,384,20068,2,0,P|283:347|383:371,1,160,2|0,3:2|3:0,0:0:0:0:
494,289,20414,2,0,P|487:255|474:202,1,80,10|0,0:0|0:0,0:0:0:0:
361,254,20645,2,0,L|265:228,1,80,2|0,3:2|3:0,0:0:0:0:
377,168,20876,1,10,0:0:0:0:
389,157,20991,2,0,P|393:124|405:53,1,80,2|0,0:0|3:0,0:0:0:0:
223,63,21222,1,0,3:0:0:0:
303,0,21338,1,10,0:0:0:0:
303,0,21568,6,0,P|312:53|316:80,1,80,2|0,3:2|0:0,0:0:0:0:
369,269,21799,1,10,0:0:0:0:
483,222,21914,1,2,3:2:0:0:
384,376,22145,2,0,P|360:366|299:346,1,80,2|8,3:2|0:0,0:0:0:0:
235,281,22376,6,0,B|151:288|201:355|106:375,1,160,2|0,3:2|3:0,0:0:0:0:
15,293,22722,2,0,P|12:276|-1:208,1,80,10|0,0:0|0:0,0:0:0:0:
273,186,22953,2,0,P|279:159|293:94,1,80,2|0,3:2|3:0,0:0:0:0:
109,0,23184,2,0,P|121:59|125:92,1,80,14|0,0:1|0:0,0:0:0:0:
43,140,23414,6,0,B|132:153|108:77|215:109,1,160,6|8,3:2|0:0,0:0:0:0:
261,195,23761,2,0,P|246:302|243:355,1,160,2|0,3:2|3:0,0:0:0:0:
101,384,24107,2,0,P|82:356|88:294,1,80,10|0,0:0|0:0,0:0:0:0:
169,190,24338,5,2,3:2:0:0:
178,202,24453,1,0,3:0:0:0:
187,214,24568,2,0,P|226:203|275:193,1,80,8|0,0:0|0:0,0:0:0:0:
350,252,24799,1,0,3:0:0:0:
359,264,24914,1,0,3:0:0:0:
368,276,25029,2,0,P|407:265|456:255,1,80,10|0,0:0|0:0,0:0:0:0:
498,169,25261,6,0,B|518:115|518:115|455:54,1,120,2|0,3:2|0:0,0:0:0:0:
464,65,25491,1,8,0:0:0:0:
366,138,25607,2,0,B|330:90|268:102|268:102|254:138|217:147,1,160,2|0,3:2|3:0,0:0:0:0:
159,44,25953,2,0,P|197:32|234:17,1,80,10|0,0:0|0:0,0:0:0:0:
114,138,26184,2,0,P|131:186|143:234,1,80,2|0,3:2|3:0,0:0:0:0:
293,364,26414,2,0,B|320:334|320:334|292:286,1,80,8|0,0:0|0:0,0:0:0:0:
138,214,26645,1,2,3:2:0:0:
129,226,26761,1,0,3:0:0:0:
120,238,26876,2,0,P|64:223|16:212,1,80,10|0,0:0|0:0,0:0:0:0:
0,370,27107,6,0,P|31:333|115:354,1,120,2|0,3:2|0:0,0:0:0:0:
104,349,27338,1,10,0:0:0:0:
207,384,27453,2,0,P|210:337|222:204,1,160,2|0,3:2|3:0,0:0:0:0:
301,119,27799,2,0,P|319:150|303:209,1,80,10|0,0:0|0:0,0:0:0:0:
143,123,28030,2,0,P|181:133|219:147,1,80,2|0,3:2|3:0,0:0:0:0:
212,17,28261,1,10,0:0:0:0:
250,39,28376,2,0,P|285:29|338:15,1,80,2|0,0:0|3:0,0:0:0:0:
494,69,28607,2,0,P|506:118|482:153,1,80,2|8,3:2|0:0,0:0:0:0:
377,174,28838,1,2,0:0:0:0:
427,245,28953,6,0,P|363:228|286:215,1,120,2|0,3:2|0:0,0:0:0:0:
300,218,29184,1,8,0:0:0:0:
216,328,29299,2,0,B|167:295|167:295|193:187,1,160,2|0,3:2|3:0,0:0:0:0:
45,32,29645,2,0,P|56:88|59:112,1,80,12|0,0:1|0:0,0:0:0:0:
12,212,29876,6,0,B|-6:220|-39:193|-32:127|63:94|121:203,1,207.999990478516,6|10,3:2|0:0,0:0:0:0:
301,282,30222,6,0,B|341:266|403:273|403:273|343:258|307:235,1,207.999990478516,4|0,3:2|3:0,0:0:0:0:
216,144,30568,5,10,0:0:0:0:
183,82,30684,1,8,0:0:0:0:
254,34,30799,6,0,P|246:116|245:144,1,80,6|0,3:2|0:0,0:0:0:0:
111,204,31030,2,0,B|83:177|43:169|43:169|84:172|126:154,1,160,8|0,0:0|0:0,0:0:0:0:
134,147,31491,1,10,0:0:0:0:
0,310,31722,6,0,P|28:300|98:275,1,80,2|0,0:0|0:0,0:0:0:0:
169,336,31953,1,8,0:0:0:0:
184,337,32068,2,0,P|266:352|362:396,1,160,2|0,0:0|0:0,0:0:0:0:
445,368,32414,2,0,P|460:335|431:282,1,80,10|0,0:0|0:0,0:0:0:0:
308,266,32645,6,0,P|305:241|294:176,1,80,2|0,0:0|0:0,0:0:0:0:
458,130,32876,2,0,P|442:213|435:290,1,160,8|0,0:0|0:0,0:0:0:0:
436,294,33338,1,10,0:0:0:0:
263,157,33568,6,0,P|310:166|364:105,1,120,2|0,0:0|0:0,0:0:0:0:
360,112,33799,1,8,0:0:0:0:
306,34,33914,2,0,P|199:49|138:59,1,160,2|0,0:0|3:0,0:0:0:0:
64,174,34261,2,0,B|38:146|38:146|64:85,1,80,10|0,0:0|3:0,0:0:0:0:
173,143,34491,6,0,P|158:265|154:309,1,160,2|8,3:2|0:0,0:0:0:0:
103,371,34838,2,0,P|151:334|241:359,1,160,2|0,0:0|0:0,0:0:0:0:
333,384,35184,2,0,P|336:351|347:296,1,80,10|0,0:0|0:0,0:0:0:0:
209,217,35414,6,0,P|152:226|60:244,1,120,2|0,0:0|0:0,0:0:0:0:
81,241,35645,1,10,0:0:0:0:
44,168,35761,2,0,B|104:136|104:136|83:250,1,160,2|0,0:0|0:0,0:0:0:0:
13,295,36107,2,0,P|44:325|89:326,1,80,10|0,0:0|0:0,0:0:0:0:
255,207,36338,6,0,B|337:227|293:287|379:313,1,160,2|8,0:0|0:0,0:0:0:0:
488,262,36684,1,2,0:0:0:0:
377,306,36799,2,0,P|385:237|407:156,1,120,2|0,0:0|0:0,0:0:0:0:
426,175,37030,2,0,P|420:138|410:84,1,80,8|0,0:0|3:0,0:0:0:0:
265,192,37261,6,0,B|236:139|169:155|169:155|159:186|102:202,1,155.999992858887,4|0,3:2|0:0,0:0:0:0:
127,188,37491,2,0,P|137:224|142:250,1,51.999997619629,10|0,0:0|0:0,0:0:0:0:
250,378,37607,6,0,B|322:400|360:310|360:310|323:348|261:347,1,207.999990478516,4|0,3:1|3:0,0:0:0:0:
26,263,37953,2,0,P|18:226|39:257,1,103.999995239258,14|0,0:0|0:0,0:0:0:0:
0,365,38184,6,0,B|54:374|54:374|99:346|99:346|181:362,1,167.999994873047,6|0,3:2|0:0,0:0:0:0:
168,361,38414,1,8,0:0:0:0:
134,252,38530,2,0,P|138:219|158:75,1,176.000005371094,0|0,3:0|3:0,0:0:0:0:
241,131,38876,2,0,P|233:189|229:224,1,88.000002685547,10|0,0:0|0:0,0:0:0:0:
332,299,39107,6,0,P|380:270|377:181,1,132.00000402832,2|0,3:2|0:0,0:0:0:0:
381,192,39338,1,10,0:0:0:0:
484,171,39453,2,0,P|473:101|375:55,1,176.000005371094,2|0,3:2|3:0,0:0:0:0:
323,124,39799,2,0,P|282:134|234:143,1,88.000002685547,10|0,0:0|0:0,0:0:0:0:
140,68,40030,6,0,B|97:107|97:107|123:194,1,132.00000402832,2|0,3:2|0:0,0:0:0:0:
124,187,40261,1,8,0:0:0:0:
64,249,40376,2,0,B|146:277|134:184|231:226,1,176.000005371094,2|0,3:2|3:0,0:0:0:0:
339,225,40722,2,0,P|331:279|325:321,1,88.000002685547,10|0,0:0|0:0,0:0:0:0:
204,384,40953,6,0,P|200:348|191:297,1,88.000002685547,2|0,3:2|0:0,0:0:0:0:
240,104,41184,1,8,0:0:0:0:
234,118,41299,1,0,3:0:0:0:
228,132,41414,2,0,P|197:158|125:149,1,88.000002685547,2|0,0:0|3:0,0:0:0:0:
53,220,41645,2,0,P|14:199|15:128,1,88.000002685547,14|0,0:0|0:0,0:0:0:0:
45,9,41876,6,0,P|118:24|206:45,1,132.00000402832,4|0,3:2|0:0,0:0:0:0:
181,39,42107,1,8,0:0:0:0:
228,132,42222,2,0,B|260:73|328:99|328:99|342:129|372:133,1,176.000005371094,0|0,3:0|3:0,0:0:0:0:
485,65,42568,2,0,P|474:125|470:156,1,88.000002685547,8|0,0:0|0:0,0:0:0:0:
449,333,42799,5,0,3:0:0:0:
449,333,43030,6,0,P|470:297|441:227,1,103.999995239258,14|0,0:1|3:0,0:0:0:0:
477,148,43261,2,0,P|435:121|377:130,1,103.999995239258,14|0,0:0|0:0,0:0:0:0:
245,271,43491,1,2,3:2:0:0:
230,277,43607,1,0,3:0:0:0:
215,283,43722,6,0,P|211:252|184:114,1,155.999992858887,10|0,3:2|0:0,0:0:0:0:
183,118,43953,1,0,3:0:0:0:
4,160,44068,2,0,B|111:124|90:227|201:202,1,207.999990478516,4|0,0:0|3:0,0:0:0:0:
321,96,44414,1,10,0:0:0:0:
303,90,44530,1,0,3:0:0:0:
269,117,44645,5,14,0:0:0:0:
335,167,44761,1,2,3:2:0:0:
416,150,44876,1,0,3:0:0:0:
457,78,44991,2,0,P|472:151|477:199,1,103.999995239258,12|0,3:2|0:0,0:0:0:0:
403,384,45222,5,0,3:0:0:0:
370,318,45338,1,8,3:2:0:0:
425,265,45453,1,0,3:0:0:0:
501,291,45568,6,0,B|379:255|432:362|291:343,1,207.999990478516,10|0,3:2|3:0,0:0:0:0:
15,181,45914,2,0,B|130:143|96:248|220:228,1,207.999990478516,10|0,3:2|3:0,0:0:0:0:
298,135,46261,5,10,3:2:0:0:
226,61,46376,1,0,3:0:0:0:
286,1,46491,1,10,3:2:0:0:
286,1,47414,6,0,P|277:111|276:172,1,143.999995605469,6|0,3:2|0:0,0:0:0:0:
275,157,47645,1,8,0:0:0:0:
154,221,47761,2,0,P|141:171|164:131,1,95.9999970703126,2|0,3:2|0:0,0:0:0:0:
374,135,47991,1,0,3:0:0:0:
387,144,48107,2,0,P|403:192|388:235,1,95.9999970703126,10|0,0:0|0:0,0:0:0:0:
288,379,48338,6,0,P|284:350|271:280,1,95.9999970703126,2|0,3:2|3:0,0:0:0:0:
92,384,48568,2,0,P|138:374|195:363,1,95.9999970703126,10|0,0:0|0:0,0:0:0:0:
255,179,48799,1,2,3:2:0:0:
194,132,48914,1,0,3:0:0:0:
123,162,49030,2,0,P|114:227|111:261,1,95.9999970703126,10|0,0:0|0:0,0:0:0:0:
399,278,49261,6,0,P|398:239|387:129,1,143.999995605469,2|0,3:2|0:0,0:0:0:0:
385,123,49491,1,10,0:0:0:0:
269,52,49607,2,0,B|365:65|334:-28|459:11,1,191.999994140625,2|0,3:2|3:0,0:0:0:0:
490,138,49953,2,0,P|436:123|385:111,1,95.9999970703126,10|0,0:0|0:0,0:0:0:0:
174,3,50184,6,0,P|113:18|107:73,1,95.9999970703126,2|0,3:2|3:0,0:0:0:0:
3,128,50414,2,0,P|5:172|60:204,1,95.9999970703126,8|0,0:0|0:0,0:0:0:0:
219,160,50645,1,2,3:2:0:0:
291,134,50761,1,0,3:0:0:0:
352,179,50876,2,0,P|345:242|341:287,1,95.9999970703126,10|0,0:0|0:0,0:0:0:0:
125,230,51107,6,0,P|135:289|140:376,1,143.999995605469,2|0,3:2|0:0,0:0:0:0:
139,384,51338,1,10,0:0:0:0:
245,263,51453,2,0,P|293:257|336:289,1,95.9999970703126,2|0,3:2|0:0,0:0:0:0:
420,384,51684,1,0,3:0:0:0:
409,373,51799,2,0,P|404:338|437:284,1,95.9999970703126,10|0,0:0|0:0,0:0:0:0:
511,103,52030,6,0,P|503:152|498:199,1,95.9999970703126,2|0,3:2|3:0,0:0:0:0:
331,281,52261,2,0,P|326:238|316:172,1,95.9999970703126,10|0,0:0|0:0,0:0:0:0:
198,62,52491,1,2,3:2:0:0:
129,27,52607,1,0,3:0:0:0:
59,59,52722,2,0,P|46:118|47:182,1,95.9999970703126,10|0,0:0|0:0,0:0:0:0:
152,295,52953,6,0,P|115:285|51:269,1,95.9999970703126,2|0,3:2|0:0,0:0:0:0:
203,223,53184,1,8,0:0:0:0:
43,279,53299,2,0,P|125:261|238:242,1,191.999994140625,2|0,3:2|3:0,0:0:0:0:
289,315,53645,2,0,P|334:288|329:189,1,143.999995605469,10|0,0:0|0:0,0:0:0:0:
258,164,53876,6,0,L|253:139,1,24,2|0,3:2|0:0,0:0:0:0:
274,29,54107,6,0,B|318:-20|388:15|388:15|396:54|432:67,1,180.000006866455,12|0,0:0|0:0,0:0:0:0:
431,58,54338,6,0,P|392:97|399:144,1,95.9999970703126,2|0,3:2|0:0,0:0:0:0:
483,332,54568,1,10,0:0:0:0:
512,255,54684,1,8,0:0:0:0:
439,220,54799,6,0,P|374:229|286:258,1,143.999995605469,6|0,3:2|0:0,0:0:0:0:
290,257,55030,1,8,0:0:0:0:
355,330,55145,2,0,B|298:342|273:298|289:290|255:236|166:265,1,191.999994140625,2|0,3:2|3:0,0:0:0:0:
84,377,55491,2,0,P|80:329|85:281,1,95.9999970703126,10|0,0:0|0:0,0:0:0:0:
292,244,55722,6,0,P|295:208|293:121,1,95.9999970703126,2|0,3:2|3:0,0:0:0:0:
107,19,55953,1,10,0:0:0:0:
24,65,56068,2,0,P|18:153|20:197,1,95.9999970703126,2|0,0:0|3:0,0:0:0:0:
218,188,56299,1,0,3:0:0:0:
301,234,56414,2,0,P|307:322|305:366,1,95.9999970703126,10|0,0:0|0:0,0:0:0:0:
84,377,56645,6,0,P|79:335|160:285,1,143.999995605469,2|0,3:2|0:0,0:0:0:0:
165,292,56876,1,8,0:0:0:0:
301,234,56991,2,0,P|152:200|110:193,1,191.999994140625,2|0,3:2|3:0,0:0:0:0:
238,84,57338,2,0,P|228:143|222:184,1,95.9999970703126,10|0,0:0|0:0,0:0:0:0:
252,308,57568,5,2,3:2:0:0:
262,321,57684,1,0,3:0:0:0:
272,334,57799,2,0,P|316:327|380:318,1,95.9999970703126,8|0,0:0|0:0,0:0:0:0:
493,292,58030,2,0,P|500:361|464:403,1,95.9999970703126,2|0,3:2|3:0,0:0:0:0:
356,308,58261,2,0,P|337:283|355:214,1,95.9999970703126,14|0,0:0|0:0,0:0:0:0:
508,174,58491,6,0,B|456:162|456:162|427:120|427:120|367:105,1,155.999992858887,6|0,3:2|0:0,0:0:0:0:
368,107,58722,1,10,0:0:0:0:
279,34,58838,2,0,P|309:33|370:-7,1,95.9999970703126,6|0,3:2|0:0,0:0:0:0:
349,213,59068,2,0,P|313:176|267:166,1,95.9999970703126,2|8,3:2|0:0,0:0:0:0:
480,75,59299,1,2,0:0:0:0:
428,163,59414,6,0,P|436:233|441:277,1,95.9999970703126,4|0,3:2|0:0,0:0:0:0:
512,331,59645,1,10,0:0:0:0:
415,381,59761,6,0,B|375:307|295:332|295:332|285:369|242:380,1,207.999990478516,4|0,3:2|3:0,0:0:0:0:
244,239,60107,2,0,P|261:209|255:243,1,95.9999970703126,14|0,0:0|0:0,0:0:0:0:
1,290,60338,5,2,3:2:0:0:
37,236,60453,1,0,3:0:0:0:
97,218,60568,1,8,0:0:0:0:
152,239,60684,2,0,P|162:293|167:328,1,88.000002685547,0|0,3:0|0:0,0:0:0:0:
339,379,60914,1,2,3:2:0:0:
400,384,61030,1,10,0:0:0:0:
451,351,61145,1,2,0:0:0:0:
477,294,61261,6,0,P|481:257|488:181,1,95.9999970703126,0|0,3:0|0:0,0:0:0:0:
345,174,61491,1,8,0:0:0:0:
353,195,61607,1,0,3:0:0:0:
271,232,61722,5,2,3:2:0:0:
182,202,61838,1,8,0:0:0:0:
140,109,61953,1,10,0:0:0:0:
191,16,62068,1,0,3:0:0:0:
293,0,62184,6,0,P|281:59|272:147,1,143.999995605469,6|0,3:2|0:0,0:0:0:0:
274,151,62414,1,8,0:0:0:0:
380,277,62530,2,0,P|391:240|351:181,1,95.9999970703126,2|0,3:2|0:0,0:0:0:0:
182,202,62761,1,0,3:0:0:0:
173,211,62876,2,0,P|161:261|185:301,1,95.9999970703126,10|0,0:0|0:0,0:0:0:0:
332,362,63107,6,0,P|284:370|226:386,1,95.9999970703126,2|0,3:2|3:0,0:0:0:0:
93,327,63338,2,0,P|58:318|-11:301,1,95.9999970703126,10|0,0:0|0:0,0:0:0:0:
60,74,63568,1,2,3:2:0:0:
136,56,63684,1,0,3:0:0:0:
194,106,63799,2,0,P|185:172|181:204,1,95.9999970703126,10|0,0:0|0:0,0:0:0:0:
375,219,64030,6,0,P|314:206|259:264,1,143.999995605469,2|0,3:2|0:0,0:0:0:0:
258,274,64261,1,8,0:0:0:0:
420,303,64376,2,0,P|418:273|396:106,1,191.999994140625,2|0,3:2|3:0,0:0:0:0:
319,15,64722,2,0,P|368:6|445:-4,1,95.9999970703126,10|0,0:0|0:0,0:0:0:0:
199,96,64953,6,0,P|184:60|233:4,1,95.9999970703126,2|0,3:2|3:0,0:0:0:0:
308,123,65184,2,0,P|315:180|321:227,1,95.9999970703126,8|0,0:0|0:0,0:0:0:0:
219,363,65414,1,2,3:2:0:0:
144,384,65530,1,0,3:0:0:0:
78,344,65645,2,0,P|82:313|92:243,1,95.9999970703126,10|0,0:0|0:0,0:0:0:0:
199,96,65876,6,0,B|175:49|115:62|115:62|134:85|135:112,1,143.999995605469,2|0,3:2|0:0,0:0:0:0:
131,113,66107,1,10,0:0:0:0:
0,182,66222,2,0,B|66:170|66:170|114:209|114:209|179:198,1,191.999994140625,2|0,3:2|3:0,0:0:0:0:
302,105,66568,2,0,P|292:175|290:211,1,95.9999970703126,10|0,0:0|0:0,0:0:0:0:
420,384,66799,6,0,P|442:352|425:277,1,95.9999970703126,2|0,3:2|3:0,0:0:0:0:
512,181,67030,2,0,P|483:155|419:162,1,95.9999970703126,10|0,0:0|0:0,0:0:0:0:
321,287,67261,1,2,3:2:0:0:
245,301,67376,1,0,3:0:0:0:
186,251,67491,2,0,P|190:212|199:145,1,95.9999970703126,10|0,0:0|0:0,0:0:0:0:
301,7,67722,6,0,B|380:21|337:69|418:90,1,143.999995605469,2|0,3:2|0:0,0:0:0:0:
423,88,67953,1,8,0:0:0:0:
495,142,68068,2,0,B|393:107|422:209|304:197,1,191.999994140625,2|0,3:2|3:0,0:0:0:0:
117,299,68414,2,0,P|98:271|103:208,1,95.9999970703126,14|0,0:0|0:0,0:0:0:0:
252,134,68645,5,6,3:2:0:0:
266,141,68761,1,0,3:0:0:0:
326,84,68876,6,0,P|305:208|294:282,1,192,12|0,0:0|0:0,0:0:0:0:
152,381,69107,6,0,P|148:353|135:303,1,71.9999978027344,2|0,3:2|0:0,0:0:0:0:
199,244,69338,6,0,B|307:258|257:313|356:338,1,180.000006866455,10|0,0:3|0:0,0:0:0:0:
453,384,69568,6,0,B|517:357|517:357|469:256,1,180.000006866455,6|0,3:2|0:0,0:0:0:0:
462,245,69799,1,8,0:0:0:0:
511,108,69914,2,0,B|477:43|395:59|395:59|389:87|361:99,1,191.999994140625,2|0,3:2|3:0,0:0:0:0:
199,44,70261,2,0,P|242:18|288:33,1,95.9999970703126,10|0,0:0|0:0,0:0:0:0:
462,245,70491,6,0,P|466:197|474:149,1,95.9999970703126,2|0,3:2|3:0,0:0:0:0:
348,218,70722,2,0,P|352:170|360:122,1,95.9999970703126,10|0,0:0|0:0,0:0:0:0:
30,295,70953,6,0,P|25:247|17:199,1,95.9999970703126,2|0,3:2|3:0,0:0:0:0:
144,268,71184,2,0,P|139:220|131:172,1,95.9999970703126,10|0,0:0|0:0,0:0:0:0:
135,18,71414,6,0,P|42:14|29:78,1,167.999994873047,6|0,3:2|0:0,0:0:0:0:
34,80,71645,1,10,0:0:0:0:
139,162,71761,2,0,P|129:239|115:403,1,223.999993164063,6|0,3:1|3:0,0:0:0:0:
22,328,72107,2,0,B|9:305|-11:283|-11:283|17:264|38:241,1,111.999996582031,14|0,0:0|0:0,0:0:0:0:
286,174,72338,6,0,B|206:156|253:79|147:65,1,180.000006866455,2|0,3:2|0:0,0:0:0:0:
134,76,72568,2,0,P|145:152|150:192,1,95.9999970703126,12|0,0:0|0:0,0:0:0:0:
218,238,72799,5,8,3:2:0:0:
237,239,72876,5,8,0:0:0:0:
254,230,72953,5,8,0:0:0:0:
266,215,73030,6,0,P|270:197|276:167,2,47.9999985351563,10|4|4,0:3|0:3|0:3,0:0:0:0:
436,146,73261,6,0,P|388:133|348:125,1,88.000002685547,6|0,3:2|0:0,0:0:0:0:
504,89,73491,1,8,0:0:0:0:
374,15,73607,6,0,P|229:30|108:50,1,223.999993164063,6|0,3:2|3:0,0:0:0:0:
100,197,73953,2,0,P|132:227|183:226,1,88.000002685547,14|0,0:1|0:0,0:0:0:0:
342,127,74184,6,0,P|351:177|358:228,1,88.000002685547,4|0,3:2|0:0,0:0:0:0:
296,52,74414,1,10,0:0:0:0:
224,161,74530,6,0,P|213:276|206:389,1,223.999993164063,4|0,3:2|3:0,0:0:0:0:
100,301,74876,2,0,P|94:264|84:197,1,88.000002685547,14|0,0:1|0:0,0:0:0:0:
330,171,75107,5,2,3:2:0:0:
345,184,75222,1,8,0:0:0:0:
356,213,75338,1,0,3:0:0:0:
349,250,75453,1,8,0:0:0:0:
288,289,75568,5,10,3:2:0:0:
192,261,75684,1,8,3:2:0:0:
145,167,75799,1,8,3:2:0:0:
172,64,75914,1,8,3:2:0:0:
280,3,76030,6,0,B|333:12|399:21|399:21|364:25|343:49,1,180.000006866455,6|0,3:2|0:0,0:0:0:0:
413,136,76491,6,0,P|420:104|404:135,1,96,6|0,3:3|0:0,0:0:0:0:
323,267,76953,5,6,3:2:0:0:
335,273,77068,2,0,P|344:322|348:354,1,71.9999978027344,2|8,0:0|0:0,0:0:0:0:
471,384,77299,1,2,3:2:0:0:
482,375,77414,2,0,P|485:344|494:286,1,71.9999978027344,2|0,0:0|3:0,0:0:0:0:
436,175,77645,1,10,0:0:0:0:
425,164,77761,2,0,P|380:172|337:183,1,71.9999978027344,2|0,0:0|3:0,0:0:0:0:
238,255,77991,1,2,3:2:0:0:
225,261,78107,2,0,P|203:256|150:246,1,71.9999978027344,10|0,0:0|0:0,0:0:0:0:
48,121,78338,5,2,3:2:0:0:
61,114,78453,1,0,3:0:0:0:
74,107,78568,2,0,P|66:168|63:198,1,71.9999978027344,10|0,0:0|0:0,0:0:0:0:
0,323,78799,5,2,3:2:0:0:
11,314,78914,2,0,P|52:321|78:348,1,71.9999978027344,2|8,0:0|0:0,0:0:0:0:
123,261,79145,1,2,3:2:0:0:
136,266,79261,2,0,P|167:259|194:230,1,71.9999978027344,2|0,0:0|3:0,0:0:0:0:
242,324,79491,2,0,P|284:342|311:373,1,71.9999978027344,10|2,0:0|0:0,0:0:0:0:
412,291,79722,5,2,3:2:0:0:
420,279,79838,2,0,P|417:243|411:184,1,71.9999978027344,2|8,3:2|0:0,0:0:0:0:
310,174,80068,2,0,P|313:209|316:245,1,71.9999978027344,2|0,3:2|0:0,0:0:0:0:
467,71,80299,1,2,3:2:0:0:
393,105,80414,2,0,P|345:91|294:78,1,71.9999978027344,10|0,0:0|0:0,0:0:0:0:
156,52,80645,5,2,3:2:0:0:
195,14,80761,2,0,P|187:83|184:113,1,88.000002685547,2|8,3:2|0:0,0:0:0:0:
103,151,80991,1,2,0:0:0:0:
64,113,81107,2,0,P|72:182|75:212,1,88.000002685547,2|0,3:2|3:0,0:0:0:0:
110,371,81338,1,10,0:0:0:0:
32,326,81453,2,0,P|79:329|117:375,1,88.000002685547,2|0,0:0|3:0,0:0:0:0:
201,329,81684,1,2,3:2:0:0:
191,232,81799,2,0,P|211:278|203:324,1,88.000002685547,10|0,0:0|3:0,0:0:0:0:
93,238,82030,6,0,P|96:203|106:125,1,88.000002685547,2|0,0:0|3:0,0:0:0:0:
0,17,82261,2,0,P|10:85|14:114,1,88.000002685547,10|0,0:0|0:0,0:0:0:0:
126,37,82491,6,0,B|185:29|185:29|214:48|214:48|284:37,1,143.999995605469,2|0,3:2|0:0,0:0:0:0:
274,38,82722,1,8,0:0:0:0:
361,0,82838,2,0,P|351:76|348:107,1,95.9999970703126,2|2,3:2|0:0,0:0:0:0:
512,176,83068,1,0,3:0:0:0:
423,129,83184,2,0,P|432:179|439:225,1,95.9999970703126,10|2,0:0|0:0,0:0:0:0:
283,376,83414,5,2,3:2:0:0:
225,315,83530,1,8,0:0:0:0:
247,238,83645,1,2,3:2:0:0:
326,221,83760,1,0,3:0:0:0:
383,285,83876,6,0,B|281:293|242:215|274:204|235:119|106:159,1,311.999985717774,14|0,0:0|3:0,0:0:0:0:
101,312,84338,5,14,0:1:0:0:
17,263,84453,1,0,3:0:0:0:
165,240,84568,1,0,3:0:0:0:
98,299,84684,5,14,0:0:0:0:
2,260,84799,1,0,3:0:0:0:
178,232,84914,1,0,3:0:0:0:
77,384,85030,6,0,P|49:345|131:178,1,240.000009155274,10|0,0:0|3:0,0:0:0:0:
181,7,85376,6,0,B|286:-12|344:78|344:78|314:90|305:132,1,240.000009155274,10|0,0:0|3:0,0:0:0:0:
184,322,85722,2,0,B|239:310|239:310|242:305|242:305|303:293,1,120.000004577637,10|0,0:0|0:0,0:0:0:0:
393,156,85953,1,2,0:0:0:0:
284,211,86068,6,0,B|272:159|218:149|218:149|369:100|414:198|387:206|436:278|520:259,1,440.000013427735,6|0,0:0|0:0,0:0:0:0:
500,128,87376,6,0,P|496:146|489:179,3,42.6666666666667,8|8|4|8,0:0|0:0|0:3|0:3,0:0:0:0:
