osu file format v14

[General]
AudioFilename: full.mp3
AudioLeadIn: 0
PreviewTime: 170288
Countdown: 0
SampleSet: None
StackLeniency: 0.7
Mode: 3
LetterboxInBreaks: 0
SpecialStyle: 0
WidescreenStoryboard: 1

[Editor]
DistanceSpacing: 1
BeatDivisor: 4
GridSize: 4
TimelineZoom: 1.9

[Metadata]
Title:Atlantico Blue
TitleUnicode:Atlantico Blue
Artist:Sasaki Sayaka
ArtistUnicode:佐咲紗花
Creator:Remuring
Version:LN LV.??
Source:
Tags:
BeatmapID:2325162
BeatmapSetID:777736

[Difficulty]
HPDrainRate:7
CircleSize:7
OverallDifficulty:7
ApproachRate:5
SliderMultiplier:1.4
SliderTickRate:1

[Events]
//Background and Video events
0,0,"cache-64750b5e-2a0d-46e7-c6eb-c0b850c17ad9.png",0,0
//Break Periods
//Storyboard Layer 0 (Background)
//Storyboard Layer 1 (Fail)
//Storyboard Layer 2 (Pass)
//Storyboard Layer 3 (Foreground)
//Storyboard Layer 4 (Overlay)
//Storyboard Sound Samples

[TimingPoints]
3170,338.983050847458,4,1,0,0,1,0

[HitObjects]
36,192,3170,128,0,3424:0:0:0:0:
109,192,3170,1,0,0:0:0:0:
256,192,3170,1,0,0:0:0:0:
402,192,3170,1,0,0:0:0:0:
475,192,3170,1,0,0:0:0:0:
182,192,3339,128,0,3424:0:0:0:0:
109,192,3508,128,0,3763:0:0:0:0:
329,192,3508,1,0,0:0:0:0:
475,192,3508,1,0,0:0:0:0:
256,192,3678,128,0,3763:0:0:0:0:
329,192,3678,1,0,0:0:0:0:
182,192,3847,128,0,4102:0:0:0:0:
36,192,3847,1,0,0:0:0:0:
475,192,3847,1,0,0:0:0:0:
329,192,4017,128,0,4102:0:0:0:0:
256,192,4186,128,0,4441:0:0:0:0:
475,192,4186,1,0,0:0:0:0:
36,192,4186,1,0,0:0:0:0:
402,192,4356,128,0,4441:0:0:0:0:
475,192,4525,128,0,4780:0:0:0:0:
256,192,4525,1,0,0:0:0:0:
36,192,4525,1,0,0:0:0:0:
36,192,4695,128,0,4780:0:0:0:0:
402,192,4864,128,0,5119:0:0:0:0:
109,192,4864,1,0,0:0:0:0:
256,192,4864,1,0,0:0:0:0:
109,192,5034,128,0,5119:0:0:0:0:
256,192,5034,1,0,0:0:0:0:
329,192,5203,128,0,5458:0:0:0:0:
182,192,5203,1,0,0:0:0:0:
36,192,5203,1,0,0:0:0:0:
182,192,5373,128,0,5458:0:0:0:0:
256,192,5542,128,0,5797:0:0:0:0:
475,192,5542,1,0,0:0:0:0:
36,192,5542,1,0,0:0:0:0:
475,192,5712,128,0,5797:0:0:0:0:
36,192,5881,128,0,6136:0:0:0:0:
182,192,5881,1,0,0:0:0:0:
329,192,5881,1,0,0:0:0:0:
329,192,6051,128,0,6136:0:0:0:0:
109,192,6220,128,0,6475:0:0:0:0:
256,192,6220,1,0,0:0:0:0:
402,192,6220,1,0,0:0:0:0:
256,192,6390,128,0,6475:0:0:0:0:
329,192,6390,1,0,0:0:0:0:
182,192,6559,128,0,6814:0:0:0:0:
402,192,6559,1,0,0:0:0:0:
36,192,6559,1,0,0:0:0:0:
402,192,6729,128,0,6814:0:0:0:0:
256,192,6898,128,0,7153:0:0:0:0:
109,192,6898,1,0,0:0:0:0:
475,192,6898,1,0,0:0:0:0:
109,192,7068,128,0,7153:0:0:0:0:
402,192,7237,128,0,7492:0:0:0:0:
182,192,7237,1,0,0:0:0:0:
36,192,7237,1,0,0:0:0:0:
475,192,7407,128,0,7492:0:0:0:0:
329,192,7576,128,0,7831:0:0:0:0:
182,192,7576,1,0,0:0:0:0:
36,192,7576,1,0,0:0:0:0:
402,192,7746,128,0,7831:0:0:0:0:
256,192,7915,128,0,8170:0:0:0:0:
36,192,7915,1,0,0:0:0:0:
182,192,7915,1,0,0:0:0:0:
329,192,8085,128,0,8170:0:0:0:0:
182,192,8254,128,0,8508:0:0:0:0:
36,192,8254,128,0,8508:0:0:0:0:
256,192,8254,1,0,0:0:0:0:
329,192,8254,1,0,0:0:0:0:
475,192,8254,1,0,0:0:0:0:
475,192,8424,128,0,8593:0:0:0:0:
329,192,8424,1,0,0:0:0:0:
402,192,8508,128,0,8678:0:0:0:0:
256,192,8508,1,0,0:0:0:0:
36,192,8593,128,0,8847:0:0:0:0:
182,192,8593,128,0,8678:0:0:0:0:
109,192,8593,128,0,8678:0:0:0:0:
329,192,8593,128,0,8847:0:0:0:0:
475,192,8763,128,0,9017:0:0:0:0:
256,192,8932,128,0,9186:0:0:0:0:
329,192,8932,1,0,0:0:0:0:
36,192,8932,1,0,0:0:0:0:
109,192,8932,1,0,0:0:0:0:
182,192,8932,1,0,0:0:0:0:
402,192,9102,128,0,9356:0:0:0:0:
475,192,9102,1,0,0:0:0:0:
182,192,9271,128,0,9525:0:0:0:0:
256,192,9271,1,0,0:0:0:0:
109,192,9271,1,0,0:0:0:0:
36,192,9271,1,0,0:0:0:0:
329,192,9441,128,0,9695:0:0:0:0:
402,192,9441,1,0,0:0:0:0:
109,192,9610,128,0,9864:0:0:0:0:
182,192,9610,1,0,0:0:0:0:
36,192,9610,1,0,0:0:0:0:
475,192,9610,1,0,0:0:0:0:
256,192,9780,128,0,10034:0:0:0:0:
329,192,9780,1,0,0:0:0:0:
402,192,9949,128,0,10034:0:0:0:0:
182,192,9949,128,0,10203:0:0:0:0:
475,192,9949,128,0,10203:0:0:0:0:
329,192,9949,128,0,10034:0:0:0:0:
36,192,10119,128,0,10373:0:0:0:0:
329,192,10288,1,0,0:0:0:0:
256,192,10288,128,0,10542:0:0:0:0:
182,192,10288,1,0,0:0:0:0:
475,192,10288,1,0,0:0:0:0:
402,192,10288,128,0,10542:0:0:0:0:
109,192,10458,128,0,10712:0:0:0:0:
36,192,10458,128,0,10542:0:0:0:0:
329,192,10627,128,0,10881:0:0:0:0:
256,192,10627,1,0,0:0:0:0:
402,192,10627,1,0,0:0:0:0:
475,192,10627,128,0,10881:0:0:0:0:
182,192,10797,128,0,11051:0:0:0:0:
109,192,10797,128,0,10881:0:0:0:0:
36,192,10966,1,0,0:0:0:0:
329,192,10966,1,0,0:0:0:0:
402,192,10966,128,0,11220:0:0:0:0:
475,192,10966,1,0,0:0:0:0:
256,192,11136,1,0,0:0:0:0:
475,192,11136,1,0,0:0:0:0:
36,192,11136,1,0,0:0:0:0:
329,192,11220,1,0,0:0:0:0:
182,192,11220,1,0,0:0:0:0:
109,192,11305,128,0,11644:0:0:0:0:
475,192,11305,1,0,0:0:0:0:
256,192,11305,128,0,11644:0:0:0:0:
402,192,11305,128,0,11644:0:0:0:0:
36,192,11305,1,0,0:0:0:0:
182,192,11475,128,0,11814:0:0:0:0:
329,192,11475,128,0,11814:0:0:0:0:
36,192,11644,128,0,11814:0:0:0:0:
475,192,11644,128,0,11814:0:0:0:0:
109,192,11814,128,0,12153:0:0:0:0:
402,192,11814,128,0,12153:0:0:0:0:
182,192,11983,128,0,12068:0:0:0:0:
36,192,11983,128,0,12068:0:0:0:0:
256,192,11983,128,0,12068:0:0:0:0:
475,192,11983,128,0,12068:0:0:0:0:
329,192,11983,128,0,12068:0:0:0:0:
182,192,12153,128,0,12407:0:0:0:0:
329,192,12153,128,0,12407:0:0:0:0:
36,192,12153,128,0,12407:0:0:0:0:
475,192,12153,128,0,12407:0:0:0:0:
402,192,12322,128,0,12407:0:0:0:0:
256,192,12322,128,0,12407:0:0:0:0:
109,192,12322,128,0,12407:0:0:0:0:
182,192,12492,1,0,0:0:0:0:
109,192,12492,1,0,0:0:0:0:
36,192,12492,1,0,0:0:0:0:
329,192,12492,1,0,0:0:0:0:
402,192,12492,1,0,0:0:0:0:
475,192,12492,1,0,0:0:0:0:
402,192,12661,128,0,12746:0:0:0:0:
182,192,12661,1,0,0:0:0:0:
36,192,12661,1,0,0:0:0:0:
475,192,12746,128,0,12831:0:0:0:0:
256,192,12746,1,0,0:0:0:0:
329,192,12831,128,0,12915:0:0:0:0:
109,192,12831,1,0,0:0:0:0:
402,192,12915,128,0,13000:0:0:0:0:
182,192,12915,1,0,0:0:0:0:
256,192,13000,128,0,13085:0:0:0:0:
36,192,13000,1,0,0:0:0:0:
329,192,13085,128,0,13170:0:0:0:0:
109,192,13085,1,0,0:0:0:0:
182,192,13170,128,0,13254:0:0:0:0:
475,192,13170,1,0,0:0:0:0:
256,192,13254,128,0,13339:0:0:0:0:
402,192,13254,1,0,0:0:0:0:
109,192,13339,128,0,13508:0:0:0:0:
329,192,13339,128,0,13424:0:0:0:0:
36,192,13339,128,0,13424:0:0:0:0:
182,192,13424,128,0,13593:0:0:0:0:
402,192,13424,128,0,13508:0:0:0:0:
256,192,13508,128,0,13678:0:0:0:0:
475,192,13508,128,0,13593:0:0:0:0:
329,192,13593,128,0,13763:0:0:0:0:
36,192,13593,128,0,13932:0:0:0:0:
402,192,13678,128,0,13847:0:0:0:0:
109,192,13678,128,0,13932:0:0:0:0:
475,192,13763,128,0,13932:0:0:0:0:
182,192,13763,128,0,14017:0:0:0:0:
256,192,13847,128,0,14017:0:0:0:0:
329,192,13932,128,0,14102:0:0:0:0:
402,192,14017,128,0,14102:0:0:0:0:
475,192,14017,128,0,14102:0:0:0:0:
109,192,14017,128,0,14271:0:0:0:0:
36,192,14017,128,0,14864:0:0:0:0:
475,192,14186,1,0,0:0:0:0:
329,192,14186,1,0,0:0:0:0:
402,192,14186,1,0,0:0:0:0:
109,192,14356,1,0,0:0:0:0:
256,192,14356,1,0,0:0:0:0:
402,192,14356,1,0,0:0:0:0:
475,192,14356,1,0,0:0:0:0:
182,192,14525,1,0,0:0:0:0:
329,192,14525,1,0,0:0:0:0:
402,192,14610,1,0,0:0:0:0:
475,192,14695,1,0,0:0:0:0:
256,192,14695,1,0,0:0:0:0:
329,192,14864,1,0,0:0:0:0:
402,192,14864,1,0,0:0:0:0:
475,192,14864,1,0,0:0:0:0:
182,192,14949,128,0,15119:0:0:0:0:
36,192,14949,128,0,15119:0:0:0:0:
109,192,15034,1,0,0:0:0:0:
256,192,15034,1,0,0:0:0:0:
402,192,15034,1,0,0:0:0:0:
475,192,15034,1,0,0:0:0:0:
36,192,15203,128,0,15288:0:0:0:0:
182,192,15203,128,0,15288:0:0:0:0:
329,192,15203,1,0,0:0:0:0:
256,192,15288,1,0,0:0:0:0:
475,192,15373,128,0,15881:0:0:0:0:
109,192,15373,128,0,15458:0:0:0:0:
36,192,15373,128,0,15458:0:0:0:0:
182,192,15373,128,0,15458:0:0:0:0:
402,192,15373,128,0,15627:0:0:0:0:
182,192,15542,1,0,0:0:0:0:
109,192,15542,1,0,0:0:0:0:
36,192,15542,1,0,0:0:0:0:
402,192,15712,1,0,0:0:0:0:
109,192,15712,1,0,0:0:0:0:
36,192,15712,1,0,0:0:0:0:
256,192,15712,128,0,16051:0:0:0:0:
329,192,15881,128,0,16051:0:0:0:0:
182,192,15881,1,0,0:0:0:0:
109,192,15966,1,0,0:0:0:0:
36,192,16051,1,0,0:0:0:0:
402,192,16051,1,0,0:0:0:0:
475,192,16051,1,0,0:0:0:0:
475,192,16220,128,0,16559:0:0:0:0:
182,192,16220,128,0,16305:0:0:0:0:
36,192,16220,128,0,16305:0:0:0:0:
402,192,16220,128,0,16475:0:0:0:0:
182,192,16390,1,0,0:0:0:0:
109,192,16390,1,0,0:0:0:0:
36,192,16390,1,0,0:0:0:0:
329,192,16390,1,0,0:0:0:0:
182,192,16559,1,0,0:0:0:0:
36,192,16559,1,0,0:0:0:0:
329,192,16559,128,0,16814:0:0:0:0:
402,192,16644,128,0,16814:0:0:0:0:
109,192,16729,128,0,16983:0:0:0:0:
36,192,16729,128,0,17322:0:0:0:0:
475,192,16729,128,0,16814:0:0:0:0:
256,192,16729,128,0,16814:0:0:0:0:
256,192,16898,1,0,0:0:0:0:
402,192,16898,1,0,0:0:0:0:
475,192,16898,1,0,0:0:0:0:
109,192,17068,1,0,0:0:0:0:
182,192,17068,1,0,0:0:0:0:
329,192,17068,1,0,0:0:0:0:
475,192,17068,1,0,0:0:0:0:
182,192,17237,1,0,0:0:0:0:
402,192,17237,1,0,0:0:0:0:
256,192,17322,1,0,0:0:0:0:
109,192,17407,1,0,0:0:0:0:
36,192,17407,1,0,0:0:0:0:
329,192,17407,128,0,17576:0:0:0:0:
475,192,17407,128,0,17576:0:0:0:0:
182,192,17576,1,0,0:0:0:0:
36,192,17576,1,0,0:0:0:0:
256,192,17661,128,0,17831:0:0:0:0:
402,192,17661,128,0,17831:0:0:0:0:
109,192,17746,1,0,0:0:0:0:
36,192,17746,1,0,0:0:0:0:
329,192,17746,1,0,0:0:0:0:
475,192,17746,1,0,0:0:0:0:
182,192,17915,128,0,18085:0:0:0:0:
329,192,17915,128,0,18085:0:0:0:0:
36,192,17915,1,0,0:0:0:0:
475,192,17915,1,0,0:0:0:0:
475,192,18085,128,0,18593:0:0:0:0:
256,192,18085,1,0,0:0:0:0:
402,192,18085,1,0,0:0:0:0:
109,192,18085,1,0,0:0:0:0:
36,192,18085,128,0,18593:0:0:0:0:
182,192,18254,1,0,0:0:0:0:
256,192,18254,1,0,0:0:0:0:
329,192,18254,1,0,0:0:0:0:
182,192,18424,128,0,18593:0:0:0:0:
329,192,18424,128,0,18593:0:0:0:0:
109,192,18424,1,0,0:0:0:0:
402,192,18424,1,0,0:0:0:0:
109,192,18593,128,0,18763:0:0:0:0:
402,192,18593,128,0,18763:0:0:0:0:
182,192,18678,1,0,0:0:0:0:
329,192,18678,1,0,0:0:0:0:
256,192,18763,1,0,0:0:0:0:
475,192,18763,1,0,0:0:0:0:
36,192,18763,1,0,0:0:0:0:
109,192,18932,1,0,0:0:0:0:
256,192,18932,1,0,0:0:0:0:
402,192,18932,1,0,0:0:0:0:
36,192,18932,128,0,19271:0:0:0:0:
475,192,18932,128,0,19271:0:0:0:0:
109,192,19102,1,0,0:0:0:0:
256,192,19102,1,0,0:0:0:0:
402,192,19102,1,0,0:0:0:0:
329,192,19186,1,0,0:0:0:0:
182,192,19186,1,0,0:0:0:0:
109,192,19271,1,0,0:0:0:0:
256,192,19271,1,0,0:0:0:0:
402,192,19271,1,0,0:0:0:0:
329,192,19356,1,0,0:0:0:0:
182,192,19356,1,0,0:0:0:0:
109,192,19441,128,0,19864:0:0:0:0:
36,192,19441,128,0,19525:0:0:0:0:
256,192,19441,128,0,19525:0:0:0:0:
402,192,19441,128,0,19864:0:0:0:0:
475,192,19441,128,0,19525:0:0:0:0:
182,192,19780,128,0,19864:0:0:0:0:
329,192,19780,128,0,19864:0:0:0:0:
36,192,19780,128,0,19864:0:0:0:0:
256,192,19780,128,0,19864:0:0:0:0:
475,192,19780,128,0,19864:0:0:0:0:
36,192,20119,128,0,20203:0:0:0:0:
182,192,20119,128,0,20542:0:0:0:0:
256,192,20119,128,0,20203:0:0:0:0:
329,192,20119,128,0,20542:0:0:0:0:
475,192,20119,128,0,20203:0:0:0:0:
36,192,20458,128,0,20542:0:0:0:0:
109,192,20458,128,0,20542:0:0:0:0:
256,192,20458,128,0,20542:0:0:0:0:
402,192,20458,128,0,20542:0:0:0:0:
475,192,20458,128,0,20542:0:0:0:0:
36,192,20797,128,0,21220:0:0:0:0:
329,192,20797,128,0,21051:0:0:0:0:
109,192,20797,1,0,0:0:0:0:
182,192,20797,128,0,21051:0:0:0:0:
256,192,20797,1,0,0:0:0:0:
402,192,20797,1,0,0:0:0:0:
475,192,20797,1,0,0:0:0:0:
109,192,21136,128,0,21559:0:0:0:0:
256,192,21136,128,0,21390:0:0:0:0:
402,192,21136,128,0,21390:0:0:0:0:
182,192,21136,1,0,0:0:0:0:
329,192,21136,1,0,0:0:0:0:
475,192,21136,1,0,0:0:0:0:
182,192,21475,128,0,21898:0:0:0:0:
329,192,21475,128,0,21559:0:0:0:0:
475,192,21475,128,0,21559:0:0:0:0:
256,192,21475,1,0,0:0:0:0:
402,192,21475,1,0,0:0:0:0:
36,192,21475,1,0,0:0:0:0:
475,192,21644,1,0,0:0:0:0:
36,192,21644,1,0,0:0:0:0:
256,192,21644,1,0,0:0:0:0:
402,192,21729,1,0,0:0:0:0:
109,192,21729,1,0,0:0:0:0:
329,192,21814,1,0,0:0:0:0:
36,192,21814,1,0,0:0:0:0:
475,192,21814,1,0,0:0:0:0:
109,192,21898,1,0,0:0:0:0:
256,192,21898,1,0,0:0:0:0:
182,192,21983,1,0,0:0:0:0:
329,192,21983,1,0,0:0:0:0:
475,192,21983,1,0,0:0:0:0:
109,192,22068,1,0,0:0:0:0:
256,192,22068,1,0,0:0:0:0:
402,192,22068,1,0,0:0:0:0:
329,192,22153,1,0,0:0:0:0:
182,192,22153,1,0,0:0:0:0:
36,192,22153,128,0,23424:0:0:0:0:
475,192,22153,128,0,23424:0:0:0:0:
182,192,22322,1,0,0:0:0:0:
329,192,22322,1,0,0:0:0:0:
109,192,22492,1,0,0:0:0:0:
182,192,22492,1,0,0:0:0:0:
256,192,22492,1,0,0:0:0:0:
329,192,22492,1,0,0:0:0:0:
402,192,22492,1,0,0:0:0:0:
182,192,22661,1,0,0:0:0:0:
329,192,22661,1,0,0:0:0:0:
182,192,22831,1,0,0:0:0:0:
329,192,22831,1,0,0:0:0:0:
329,192,23000,1,0,0:0:0:0:
182,192,23000,1,0,0:0:0:0:
109,192,23170,1,0,0:0:0:0:
182,192,23170,1,0,0:0:0:0:
256,192,23170,1,0,0:0:0:0:
329,192,23170,1,0,0:0:0:0:
402,192,23170,1,0,0:0:0:0:
182,192,23339,128,0,23508:0:0:0:0:
329,192,23339,128,0,23508:0:0:0:0:
109,192,23424,128,0,23593:0:0:0:0:
402,192,23424,128,0,23593:0:0:0:0:
36,192,23508,1,0,0:0:0:0:
256,192,23508,1,0,0:0:0:0:
475,192,23508,1,0,0:0:0:0:
