osu file format v14

[General]
AudioFilename: audio.mp3
AudioLeadIn: 0
PreviewTime: 59017
Countdown: 0
SampleSet: Normal
StackLeniency: 0.7
Mode: 3
LetterboxInBreaks: 0
SpecialStyle: 0
WidescreenStoryboard: 1

[Editor]
DistanceSpacing: 1
BeatDivisor: 4
GridSize: 4
TimelineZoom: 1.9

[Metadata]
Title:Atlantico Blue
TitleUnicode:Atlantico Blue
Artist:Sasaki Sayaka
ArtistUnicode:佐咲紗花
Creator:Remuring
Version:BMS LV.12 REMUTHER
Source:
Tags:
BeatmapID:2325111
BeatmapSetID:777736

[Difficulty]
HPDrainRate:7
CircleSize:7
OverallDifficulty:7
ApproachRate:5
SliderMultiplier:1.4
SliderTickRate:1

[Events]
//Background and Video events
0,0,"cache-64750b5e-2a0d-46e7-c6eb-c0b850c17ad9.png",0,0
//Break Periods
//Storyboard Layer 0 (Background)
//Storyboard Layer 1 (Fail)
//Storyboard Layer 2 (Pass)
//Storyboard Layer 3 (Foreground)
//Storyboard Layer 4 (Overlay)
//Storyboard Sound Samples

[TimingPoints]
3170,338.983050847458,4,1,0,0,1,0

[HitObjects]
182,192,3170,5,0,0:0:0:0:
329,192,3170,1,0,0:0:0:0:
475,192,3170,1,0,0:0:0:0:
36,192,3339,1,0,0:0:0:0:
182,192,3508,1,0,0:0:0:0:
402,192,3508,1,0,0:0:0:0:
36,192,3678,1,0,0:0:0:0:
182,192,3847,1,0,0:0:0:0:
402,192,3847,1,0,0:0:0:0:
36,192,4017,1,0,0:0:0:0:
182,192,4186,1,0,0:0:0:0:
402,192,4186,1,0,0:0:0:0:
36,192,4356,1,0,0:0:0:0:
329,192,4525,1,0,0:0:0:0:
475,192,4525,1,0,0:0:0:0:
182,192,4695,1,0,0:0:0:0:
329,192,4864,1,0,0:0:0:0:
36,192,4864,1,0,0:0:0:0:
182,192,5034,1,0,0:0:0:0:
329,192,5203,1,0,0:0:0:0:
475,192,5203,1,0,0:0:0:0:
182,192,5373,1,0,0:0:0:0:
329,192,5542,1,0,0:0:0:0:
36,192,5542,1,0,0:0:0:0:
182,192,5712,1,0,0:0:0:0:
475,192,5881,1,0,0:0:0:0:
36,192,5881,1,0,0:0:0:0:
329,192,6051,1,0,0:0:0:0:
475,192,6220,1,0,0:0:0:0:
109,192,6220,1,0,0:0:0:0:
329,192,6390,1,0,0:0:0:0:
475,192,6559,1,0,0:0:0:0:
109,192,6559,1,0,0:0:0:0:
329,192,6729,1,0,0:0:0:0:
475,192,6898,1,0,0:0:0:0:
109,192,6898,1,0,0:0:0:0:
329,192,7068,1,0,0:0:0:0:
109,192,7237,1,0,0:0:0:0:
256,192,7237,1,0,0:0:0:0:
402,192,7407,1,0,0:0:0:0:
109,192,7576,1,0,0:0:0:0:
256,192,7576,1,0,0:0:0:0:
402,192,7746,1,0,0:0:0:0:
109,192,7915,1,0,0:0:0:0:
256,192,7915,1,0,0:0:0:0:
402,192,8085,1,0,0:0:0:0:
109,192,8254,1,0,0:0:0:0:
256,192,8254,1,0,0:0:0:0:
402,192,8424,1,0,0:0:0:0:
182,192,8424,1,0,0:0:0:0:
109,192,8508,1,0,0:0:0:0:
329,192,8508,1,0,0:0:0:0:
256,192,8593,1,0,0:0:0:0:
36,192,8593,1,0,0:0:0:0:
475,192,8593,1,0,0:0:0:0:
182,192,8763,1,0,0:0:0:0:
36,192,8932,1,0,0:0:0:0:
329,192,8932,1,0,0:0:0:0:
475,192,8932,1,0,0:0:0:0:
182,192,9102,1,0,0:0:0:0:
36,192,9271,1,0,0:0:0:0:
329,192,9271,1,0,0:0:0:0:
475,192,9271,1,0,0:0:0:0:
182,192,9441,1,0,0:0:0:0:
36,192,9610,1,0,0:0:0:0:
329,192,9610,1,0,0:0:0:0:
475,192,9610,1,0,0:0:0:0:
182,192,9780,1,0,0:0:0:0:
475,192,9949,1,0,0:0:0:0:
256,192,9949,1,0,0:0:0:0:
36,192,9949,1,0,0:0:0:0:
329,192,10119,1,0,0:0:0:0:
475,192,10288,1,0,0:0:0:0:
182,192,10288,1,0,0:0:0:0:
36,192,10288,1,0,0:0:0:0:
329,192,10458,1,0,0:0:0:0:
475,192,10627,1,0,0:0:0:0:
36,192,10627,1,0,0:0:0:0:
182,192,10627,1,0,0:0:0:0:
329,192,10797,1,0,0:0:0:0:
475,192,10966,1,0,0:0:0:0:
182,192,10966,1,0,0:0:0:0:
109,192,10966,1,0,0:0:0:0:
36,192,10966,1,0,0:0:0:0:
329,192,11136,1,0,0:0:0:0:
256,192,11136,1,0,0:0:0:0:
182,192,11220,1,0,0:0:0:0:
109,192,11220,1,0,0:0:0:0:
36,192,11305,1,0,0:0:0:0:
329,192,11305,1,0,0:0:0:0:
402,192,11305,1,0,0:0:0:0:
475,192,11305,1,0,0:0:0:0:
329,192,11475,1,0,0:0:0:0:
475,192,11475,1,0,0:0:0:0:
109,192,11475,1,0,0:0:0:0:
475,192,11644,1,0,0:0:0:0:
329,192,11644,1,0,0:0:0:0:
182,192,11644,1,0,0:0:0:0:
329,192,11814,1,0,0:0:0:0:
475,192,11814,1,0,0:0:0:0:
109,192,11814,1,0,0:0:0:0:
182,192,11983,1,0,0:0:0:0:
36,192,11983,1,0,0:0:0:0:
475,192,11983,1,0,0:0:0:0:
329,192,11983,1,0,0:0:0:0:
36,192,12153,1,0,0:0:0:0:
182,192,12153,1,0,0:0:0:0:
329,192,12153,1,0,0:0:0:0:
402,192,12153,1,0,0:0:0:0:
36,192,12322,1,0,0:0:0:0:
182,192,12322,1,0,0:0:0:0:
329,192,12322,1,0,0:0:0:0:
475,192,12322,1,0,0:0:0:0:
182,192,12492,1,0,0:0:0:0:
109,192,12492,1,0,0:0:0:0:
36,192,12492,1,0,0:0:0:0:
329,192,12492,1,0,0:0:0:0:
402,192,12492,1,0,0:0:0:0:
475,192,12492,1,0,0:0:0:0:
182,192,12661,1,0,0:0:0:0:
329,192,12661,1,0,0:0:0:0:
109,192,12746,1,0,0:0:0:0:
36,192,12746,1,0,0:0:0:0:
256,192,12831,1,0,0:0:0:0:
402,192,12831,1,0,0:0:0:0:
182,192,12915,1,0,0:0:0:0:
109,192,12915,1,0,0:0:0:0:
475,192,13000,1,0,0:0:0:0:
329,192,13000,1,0,0:0:0:0:
182,192,13085,1,0,0:0:0:0:
256,192,13085,1,0,0:0:0:0:
109,192,13170,1,0,0:0:0:0:
402,192,13170,1,0,0:0:0:0:
329,192,13254,1,0,0:0:0:0:
256,192,13254,1,0,0:0:0:0:
109,192,13339,1,0,0:0:0:0:
402,192,13339,1,0,0:0:0:0:
475,192,13339,1,0,0:0:0:0:
36,192,13339,1,0,0:0:0:0:
182,192,13424,1,0,0:0:0:0:
256,192,13508,1,0,0:0:0:0:
36,192,13508,1,0,0:0:0:0:
109,192,13593,1,0,0:0:0:0:
329,192,13593,1,0,0:0:0:0:
182,192,13678,1,0,0:0:0:0:
402,192,13678,1,0,0:0:0:0:
475,192,13678,1,0,0:0:0:0:
36,192,13678,1,0,0:0:0:0:
109,192,13763,1,0,0:0:0:0:
256,192,13763,1,0,0:0:0:0:
36,192,13847,1,0,0:0:0:0:
402,192,13847,1,0,0:0:0:0:
182,192,13932,1,0,0:0:0:0:
329,192,13932,1,0,0:0:0:0:
256,192,14017,1,0,0:0:0:0:
36,192,14017,1,0,0:0:0:0:
109,192,14017,1,0,0:0:0:0:
402,192,14017,1,0,0:0:0:0:
475,192,14017,128,0,14864:0:0:0:0:
36,192,14186,1,0,0:0:0:0:
256,192,14186,1,0,0:0:0:0:
36,192,14356,1,0,0:0:0:0:
182,192,14356,1,0,0:0:0:0:
402,192,14356,1,0,0:0:0:0:
329,192,14525,1,0,0:0:0:0:
402,192,14610,1,0,0:0:0:0:
256,192,14695,1,0,0:0:0:0:
36,192,14695,1,0,0:0:0:0:
182,192,14864,1,0,0:0:0:0:
329,192,14864,1,0,0:0:0:0:
475,192,14949,128,0,15119:0:0:0:0:
256,192,15034,1,0,0:0:0:0:
109,192,15034,1,0,0:0:0:0:
402,192,15034,1,0,0:0:0:0:
182,192,15203,1,0,0:0:0:0:
329,192,15203,1,0,0:0:0:0:
475,192,15203,1,0,0:0:0:0:
329,192,15373,128,0,15712:0:0:0:0:
109,192,15373,1,0,0:0:0:0:
475,192,15373,1,0,0:0:0:0:
256,192,15373,1,0,0:0:0:0:
36,192,15373,1,0,0:0:0:0:
182,192,15542,1,0,0:0:0:0:
402,192,15542,1,0,0:0:0:0:
36,192,15712,128,0,16051:0:0:0:0:
256,192,15712,1,0,0:0:0:0:
475,192,15712,1,0,0:0:0:0:
109,192,15881,128,0,16051:0:0:0:0:
402,192,15881,1,0,0:0:0:0:
329,192,15966,1,0,0:0:0:0:
182,192,16051,1,0,0:0:0:0:
475,192,16051,1,0,0:0:0:0:
36,192,16220,128,0,16559:0:0:0:0:
256,192,16220,1,0,0:0:0:0:
402,192,16220,1,0,0:0:0:0:
329,192,16390,1,0,0:0:0:0:
475,192,16390,1,0,0:0:0:0:
182,192,16390,1,0,0:0:0:0:
182,192,16559,1,0,0:0:0:0:
402,192,16559,1,0,0:0:0:0:
182,192,16644,1,0,0:0:0:0:
109,192,16729,128,0,17407:0:0:0:0:
329,192,16729,1,0,0:0:0:0:
475,192,16729,1,0,0:0:0:0:
36,192,16729,1,0,0:0:0:0:
256,192,16729,1,0,0:0:0:0:
182,192,16898,1,0,0:0:0:0:
402,192,16898,1,0,0:0:0:0:
256,192,17068,1,0,0:0:0:0:
475,192,17068,1,0,0:0:0:0:
36,192,17068,1,0,0:0:0:0:
329,192,17237,1,0,0:0:0:0:
402,192,17322,1,0,0:0:0:0:
475,192,17407,128,0,17576:0:0:0:0:
256,192,17407,1,0,0:0:0:0:
36,192,17407,1,0,0:0:0:0:
182,192,17576,1,0,0:0:0:0:
329,192,17576,1,0,0:0:0:0:
475,192,17661,128,0,17831:0:0:0:0:
109,192,17746,1,0,0:0:0:0:
256,192,17746,1,0,0:0:0:0:
402,192,17746,1,0,0:0:0:0:
182,192,17915,1,0,0:0:0:0:
329,192,17915,1,0,0:0:0:0:
475,192,17915,1,0,0:0:0:0:
329,192,18085,128,0,18424:0:0:0:0:
109,192,18085,1,0,0:0:0:0:
36,192,18085,1,0,0:0:0:0:
475,192,18085,1,0,0:0:0:0:
256,192,18085,1,0,0:0:0:0:
109,192,18254,1,0,0:0:0:0:
402,192,18254,1,0,0:0:0:0:
36,192,18424,128,0,18763:0:0:0:0:
256,192,18424,1,0,0:0:0:0:
475,192,18424,1,0,0:0:0:0:
109,192,18593,128,0,18763:0:0:0:0:
402,192,18593,1,0,0:0:0:0:
329,192,18678,1,0,0:0:0:0:
256,192,18763,1,0,0:0:0:0:
475,192,18763,1,0,0:0:0:0:
36,192,18932,128,0,19271:0:0:0:0:
109,192,18932,1,0,0:0:0:0:
402,192,18932,1,0,0:0:0:0:
182,192,19102,1,0,0:0:0:0:
329,192,19102,1,0,0:0:0:0:
475,192,19102,1,0,0:0:0:0:
256,192,19186,1,0,0:0:0:0:
402,192,19186,1,0,0:0:0:0:
475,192,19271,1,0,0:0:0:0:
329,192,19271,1,0,0:0:0:0:
182,192,19271,1,0,0:0:0:0:
256,192,19356,1,0,0:0:0:0:
402,192,19356,1,0,0:0:0:0:
109,192,19356,1,0,0:0:0:0:
475,192,19441,1,0,0:0:0:0:
182,192,19441,128,0,19525:0:0:0:0:
36,192,19441,128,0,19525:0:0:0:0:
329,192,19441,128,0,19525:0:0:0:0:
182,192,19610,1,0,0:0:0:0:
36,192,19610,1,0,0:0:0:0:
329,192,19610,1,0,0:0:0:0:
109,192,19780,128,0,19864:0:0:0:0:
256,192,19780,128,0,19864:0:0:0:0:
402,192,19780,128,0,19864:0:0:0:0:
475,192,19780,128,0,19864:0:0:0:0:
36,192,19780,128,0,19864:0:0:0:0:
256,192,20034,1,0,0:0:0:0:
109,192,20034,1,0,0:0:0:0:
182,192,20119,128,0,20203:0:0:0:0:
329,192,20119,128,0,20203:0:0:0:0:
475,192,20119,128,0,20203:0:0:0:0:
36,192,20119,1,0,0:0:0:0:
182,192,20288,1,0,0:0:0:0:
329,192,20288,1,0,0:0:0:0:
475,192,20288,1,0,0:0:0:0:
36,192,20458,128,0,20542:0:0:0:0:
109,192,20458,128,0,20542:0:0:0:0:
256,192,20458,128,0,20542:0:0:0:0:
402,192,20458,128,0,20542:0:0:0:0:
475,192,20458,128,0,20542:0:0:0:0:
182,192,20627,1,0,0:0:0:0:
329,192,20627,1,0,0:0:0:0:
182,192,20797,128,0,20881:0:0:0:0:
36,192,20797,128,0,20881:0:0:0:0:
475,192,20797,128,0,20881:0:0:0:0:
402,192,20797,128,0,20881:0:0:0:0:
182,192,20966,1,0,0:0:0:0:
36,192,20966,1,0,0:0:0:0:
402,192,20966,1,0,0:0:0:0:
36,192,21136,128,0,21220:0:0:0:0:
109,192,21136,128,0,21220:0:0:0:0:
256,192,21136,128,0,21220:0:0:0:0:
402,192,21136,128,0,21220:0:0:0:0:
475,192,21136,128,0,21220:0:0:0:0:
256,192,21390,1,0,0:0:0:0:
402,192,21390,1,0,0:0:0:0:
109,192,21475,128,0,21559:0:0:0:0:
36,192,21475,128,0,21559:0:0:0:0:
329,192,21475,128,0,21559:0:0:0:0:
475,192,21475,128,0,21559:0:0:0:0:
182,192,21644,1,0,0:0:0:0:
402,192,21644,1,0,0:0:0:0:
329,192,21729,1,0,0:0:0:0:
109,192,21729,1,0,0:0:0:0:
36,192,21814,1,0,0:0:0:0:
256,192,21814,1,0,0:0:0:0:
475,192,21814,1,0,0:0:0:0:
329,192,21898,1,0,0:0:0:0:
109,192,21898,1,0,0:0:0:0:
182,192,21983,1,0,0:0:0:0:
402,192,21983,1,0,0:0:0:0:
475,192,21983,1,0,0:0:0:0:
36,192,22068,1,0,0:0:0:0:
329,192,22068,1,0,0:0:0:0:
109,192,22068,1,0,0:0:0:0:
182,192,22153,1,0,0:0:0:0:
256,192,22153,1,0,0:0:0:0:
475,192,22153,1,0,0:0:0:0:
402,192,22153,1,0,0:0:0:0:
109,192,22322,1,0,0:0:0:0:
182,192,22322,1,0,0:0:0:0:
329,192,22322,1,0,0:0:0:0:
402,192,22322,1,0,0:0:0:0:
36,192,22492,1,0,0:0:0:0:
109,192,22492,1,0,0:0:0:0:
256,192,22492,1,0,0:0:0:0:
402,192,22492,1,0,0:0:0:0:
475,192,22492,1,0,0:0:0:0:
109,192,22661,1,0,0:0:0:0:
182,192,22661,1,0,0:0:0:0:
329,192,22661,1,0,0:0:0:0:
402,192,22661,1,0,0:0:0:0:
36,192,22831,1,0,0:0:0:0:
329,192,22831,1,0,0:0:0:0:
256,192,22831,1,0,0:0:0:0:
109,192,22831,1,0,0:0:0:0:
109,192,23000,1,0,0:0:0:0:
182,192,23000,1,0,0:0:0:0:
329,192,23000,1,0,0:0:0:0:
402,192,23000,1,0,0:0:0:0:
402,192,23170,1,0,0:0:0:0:
475,192,23170,1,0,0:0:0:0:
256,192,23170,1,0,0:0:0:0:
109,192,23170,1,0,0:0:0:0:
36,192,23170,1,0,0:0:0:0:
329,192,23339,1,0,0:0:0:0:
402,192,23339,1,0,0:0:0:0:
182,192,23339,1,0,0:0:0:0:
109,192,23339,1,0,0:0:0:0:
256,192,23424,1,0,0:0:0:0:
36,192,23508,1,0,0:0:0:0:
109,192,23508,1,0,0:0:0:0:
402,192,23508,1,0,0:0:0:0:
475,192,23508,1,0,0:0:0:0:
182,192,23508,1,0,0:0:0:0:
329,192,23508,1,0,0:0:0:0:
329,192,23678,1,0,0:0:0:0:
475,192,23678,1,0,0:0:0:0:
182,192,23678,1,0,0:0:0:0:
36,192,23678,1,0,0:0:0:0:
182,192,23847,1,0,0:0:0:0:
36,192,23847,1,0,0:0:0:0:
329,192,23847,1,0,0:0:0:0:
475,192,23847,1,0,0:0:0:0:
36,192,24017,1,0,0:0:0:0:
109,192,24017,1,0,0:0:0:0:
402,192,24017,1,0,0:0:0:0:
475,192,24017,1,0,0:0:0:0:
256,192,24017,1,0,0:0:0:0:
475,192,24186,1,0,0:0:0:0:
329,192,24186,1,0,0:0:0:0:
256,192,24186,1,0,0:0:0:0:
182,192,24186,1,0,0:0:0:0:
36,192,24186,1,0,0:0:0:0:
109,192,24271,1,0,0:0:0:0:
402,192,24271,1,0,0:0:0:0:
182,192,24356,1,0,0:0:0:0:
329,192,24356,1,0,0:0:0:0:
36,192,24441,1,0,0:0:0:0:
475,192,24441,1,0,0:0:0:0:
182,192,24525,1,0,0:0:0:0:
329,192,24525,1,0,0:0:0:0:
256,192,24525,1,0,0:0:0:0:
109,192,24610,1,0,0:0:0:0:
402,192,24610,1,0,0:0:0:0:
36,192,24695,1,0,0:0:0:0:
475,192,24695,1,0,0:0:0:0:
182,192,24780,1,0,0:0:0:0:
329,192,24780,1,0,0:0:0:0:
109,192,24864,1,0,0:0:0:0:
36,192,24864,1,0,0:0:0:0:
256,192,24864,1,0,0:0:0:0:
402,192,24864,1,0,0:0:0:0:
475,192,24864,1,0,0:0:0:0:
182,192,25034,1,0,0:0:0:0:
329,192,25034,1,0,0:0:0:0:
256,192,25203,1,0,0:0:0:0:
402,192,25203,1,0,0:0:0:0:
475,192,25203,1,0,0:0:0:0:
36,192,25203,1,0,0:0:0:0:
109,192,25373,1,0,0:0:0:0:
475,192,25542,1,0,0:0:0:0:
182,192,25542,1,0,0:0:0:0:
329,192,25542,1,0,0:0:0:0:
182,192,25712,1,0,0:0:0:0:
329,192,25712,1,0,0:0:0:0:
475,192,25712,1,0,0:0:0:0:
402,192,25881,1,0,0:0:0:0:
256,192,25881,1,0,0:0:0:0:
109,192,25881,1,0,0:0:0:0:
36,192,25881,1,0,0:0:0:0:
475,192,26051,1,0,0:0:0:0:
36,192,26220,1,0,0:0:0:0:
182,192,26220,1,0,0:0:0:0:
329,192,26220,1,0,0:0:0:0:
36,192,26390,1,0,0:0:0:0:
182,192,26390,1,0,0:0:0:0:
329,192,26390,1,0,0:0:0:0:
109,192,26559,1,0,0:0:0:0:
256,192,26559,1,0,0:0:0:0:
402,192,26559,1,0,0:0:0:0:
475,192,26559,1,0,0:0:0:0:
36,192,26729,1,0,0:0:0:0:
182,192,26898,1,0,0:0:0:0:
329,192,26898,1,0,0:0:0:0:
475,192,26898,1,0,0:0:0:0:
182,192,27068,1,0,0:0:0:0:
329,192,27068,1,0,0:0:0:0:
475,192,27068,1,0,0:0:0:0:
402,192,27237,1,0,0:0:0:0:
256,192,27237,1,0,0:0:0:0:
36,192,27237,1,0,0:0:0:0:
109,192,27237,1,0,0:0:0:0:
329,192,27407,1,0,0:0:0:0:
182,192,27576,1,0,0:0:0:0:
36,192,27576,1,0,0:0:0:0:
475,192,27576,1,0,0:0:0:0:
36,192,27746,1,0,0:0:0:0:
182,192,27746,1,0,0:0:0:0:
475,192,27746,1,0,0:0:0:0:
402,192,27915,1,0,0:0:0:0:
329,192,27915,1,0,0:0:0:0:
256,192,27915,1,0,0:0:0:0:
109,192,27915,1,0,0:0:0:0:
182,192,28085,1,0,0:0:0:0:
475,192,28085,1,0,0:0:0:0:
36,192,28254,1,0,0:0:0:0:
256,192,28254,1,0,0:0:0:0:
402,192,28254,1,0,0:0:0:0:
256,192,28424,1,0,0:0:0:0:
402,192,28424,1,0,0:0:0:0:
36,192,28424,1,0,0:0:0:0:
109,192,28593,1,0,0:0:0:0:
329,192,28593,1,0,0:0:0:0:
475,192,28593,1,0,0:0:0:0:
182,192,28593,1,0,0:0:0:0:
109,192,28763,1,0,0:0:0:0:
402,192,28763,1,0,0:0:0:0:
182,192,28932,1,0,0:0:0:0:
329,192,28932,1,0,0:0:0:0:
475,192,28932,1,0,0:0:0:0:
182,192,29102,1,0,0:0:0:0:
329,192,29102,1,0,0:0:0:0:
475,192,29102,1,0,0:0:0:0:
109,192,29271,1,0,0:0:0:0:
36,192,29271,1,0,0:0:0:0:
256,192,29271,1,0,0:0:0:0:
402,192,29271,1,0,0:0:0:0:
475,192,29441,1,0,0:0:0:0:
182,192,29610,1,0,0:0:0:0:
36,192,29610,1,0,0:0:0:0:
329,192,29610,1,0,0:0:0:0:
36,192,29780,1,0,0:0:0:0:
182,192,29780,1,0,0:0:0:0:
329,192,29780,1,0,0:0:0:0:
109,192,29949,1,0,0:0:0:0:
256,192,29949,1,0,0:0:0:0:
402,192,29949,1,0,0:0:0:0:
475,192,29949,1,0,0:0:0:0:
36,192,30119,1,0,0:0:0:0:
402,192,30288,1,0,0:0:0:0:
475,192,30288,1,0,0:0:0:0:
182,192,30288,1,0,0:0:0:0:
402,192,30458,1,0,0:0:0:0:
475,192,30458,1,0,0:0:0:0:
182,192,30458,1,0,0:0:0:0:
109,192,30627,1,0,0:0:0:0:
329,192,30627,1,0,0:0:0:0:
256,192,30627,1,0,0:0:0:0:
36,192,30627,1,0,0:0:0:0:
475,192,30797,1,0,0:0:0:0:
36,192,30966,1,0,0:0:0:0:
109,192,30966,1,0,0:0:0:0:
329,192,30966,1,0,0:0:0:0:
36,192,31136,1,0,0:0:0:0:
109,192,31136,1,0,0:0:0:0:
329,192,31136,1,0,0:0:0:0:
182,192,31305,1,0,0:0:0:0:
256,192,31305,1,0,0:0:0:0:
402,192,31305,1,0,0:0:0:0:
475,192,31305,1,0,0:0:0:0:
109,192,31475,1,0,0:0:0:0:
36,192,31644,1,0,0:0:0:0:
256,192,31644,1,0,0:0:0:0:
475,192,31644,1,0,0:0:0:0:
36,192,31814,1,0,0:0:0:0:
256,192,31814,1,0,0:0:0:0:
475,192,31814,1,0,0:0:0:0:
402,192,31983,1,0,0:0:0:0:
329,192,31983,1,0,0:0:0:0:
182,192,31983,1,0,0:0:0:0:
109,192,31983,1,0,0:0:0:0:
256,192,32153,1,0,0:0:0:0:
329,192,32322,1,0,0:0:0:0:
475,192,32322,1,0,0:0:0:0:
36,192,32322,1,0,0:0:0:0:
36,192,32492,1,0,0:0:0:0:
329,192,32492,1,0,0:0:0:0:
475,192,32492,1,0,0:0:0:0:
109,192,32661,1,0,0:0:0:0:
182,192,32661,1,0,0:0:0:0:
256,192,32661,1,0,0:0:0:0:
402,192,32661,1,0,0:0:0:0:
36,192,32831,1,0,0:0:0:0:
256,192,33000,1,0,0:0:0:0:
475,192,33000,1,0,0:0:0:0:
109,192,33000,1,0,0:0:0:0:
109,192,33170,1,0,0:0:0:0:
256,192,33170,1,0,0:0:0:0:
475,192,33170,1,0,0:0:0:0:
36,192,33339,1,0,0:0:0:0:
182,192,33339,1,0,0:0:0:0:
329,192,33339,1,0,0:0:0:0:
402,192,33339,1,0,0:0:0:0:
256,192,33508,1,0,0:0:0:0:
36,192,33678,1,0,0:0:0:0:
182,192,33678,1,0,0:0:0:0:
402,192,33678,1,0,0:0:0:0:
36,192,33847,1,0,0:0:0:0:
182,192,33847,1,0,0:0:0:0:
402,192,33847,1,0,0:0:0:0:
256,192,34017,1,0,0:0:0:0:
329,192,34017,1,0,0:0:0:0:
475,192,34017,1,0,0:0:0:0:
109,192,34017,1,0,0:0:0:0:
182,192,34186,1,0,0:0:0:0:
329,192,34356,1,0,0:0:0:0:
36,192,34356,1,0,0:0:0:0:
109,192,34356,1,0,0:0:0:0:
475,192,34356,1,0,0:0:0:0:
182,192,34525,1,0,0:0:0:0:
36,192,34525,1,0,0:0:0:0:
109,192,34695,1,0,0:0:0:0:
256,192,34695,1,0,0:0:0:0:
402,192,34695,1,0,0:0:0:0:
475,192,34695,1,0,0:0:0:0:
182,192,34864,1,0,0:0:0:0:
329,192,34864,1,0,0:0:0:0:
256,192,35034,1,0,0:0:0:0:
475,192,35034,1,0,0:0:0:0:
36,192,35034,1,0,0:0:0:0:
109,192,35034,1,0,0:0:0:0:
402,192,35034,1,0,0:0:0:0:
109,192,35203,1,0,0:0:0:0:
402,192,35203,1,0,0:0:0:0:
182,192,35288,1,0,0:0:0:0:
329,192,35288,1,0,0:0:0:0:
256,192,35373,1,0,0:0:0:0:
475,192,35373,1,0,0:0:0:0:
36,192,35373,1,0,0:0:0:0:
109,192,35373,1,0,0:0:0:0:
402,192,35373,1,0,0:0:0:0:
182,192,35458,1,0,0:0:0:0:
329,192,35458,1,0,0:0:0:0:
36,192,35542,1,0,0:0:0:0:
475,192,35542,1,0,0:0:0:0:
402,192,35627,1,0,0:0:0:0:
109,192,35627,1,0,0:0:0:0:
182,192,35712,1,0,0:0:0:0:
256,192,35712,1,0,0:0:0:0:
329,192,35712,1,0,0:0:0:0:
475,192,35712,1,0,0:0:0:0:
36,192,35712,1,0,0:0:0:0:
109,192,35881,1,0,0:0:0:0:
109,192,36051,1,0,0:0:0:0:
329,192,36051,1,0,0:0:0:0:
475,192,36051,1,0,0:0:0:0:
256,192,36051,1,0,0:0:0:0:
109,192,36220,1,0,0:0:0:0:
109,192,36390,1,0,0:0:0:0:
329,192,36390,1,0,0:0:0:0:
475,192,36390,1,0,0:0:0:0:
109,192,36559,1,0,0:0:0:0:
329,192,36559,1,0,0:0:0:0:
475,192,36559,1,0,0:0:0:0:
109,192,36729,1,0,0:0:0:0:
256,192,36729,1,0,0:0:0:0:
402,192,36729,1,0,0:0:0:0:
475,192,36729,1,0,0:0:0:0:
109,192,36898,1,0,0:0:0:0:
256,192,37068,1,0,0:0:0:0:
36,192,37068,1,0,0:0:0:0:
475,192,37068,1,0,0:0:0:0:
329,192,37068,1,0,0:0:0:0:
402,192,37237,1,0,0:0:0:0:
402,192,37407,1,0,0:0:0:0:
182,192,37407,1,0,0:0:0:0:
36,192,37407,1,0,0:0:0:0:
256,192,37407,1,0,0:0:0:0:
402,192,37576,1,0,0:0:0:0:
402,192,37746,1,0,0:0:0:0:
182,192,37746,1,0,0:0:0:0:
36,192,37746,1,0,0:0:0:0:
402,192,37915,1,0,0:0:0:0:
36,192,37915,1,0,0:0:0:0:
182,192,37915,1,0,0:0:0:0:
402,192,38085,1,0,0:0:0:0:
36,192,38085,1,0,0:0:0:0:
109,192,38085,1,0,0:0:0:0:
256,192,38085,1,0,0:0:0:0:
402,192,38254,1,0,0:0:0:0:
256,192,38424,1,0,0:0:0:0:
475,192,38424,1,0,0:0:0:0:
329,192,38424,1,0,0:0:0:0:
109,192,38424,1,0,0:0:0:0:
36,192,38593,1,0,0:0:0:0:
256,192,38593,1,0,0:0:0:0:
475,192,38593,1,0,0:0:0:0:
36,192,38763,1,0,0:0:0:0:
182,192,38763,1,0,0:0:0:0:
329,192,38763,1,0,0:0:0:0:
402,192,38763,1,0,0:0:0:0:
36,192,38932,1,0,0:0:0:0:
36,192,39102,1,0,0:0:0:0:
256,192,39102,1,0,0:0:0:0:
402,192,39102,1,0,0:0:0:0:
475,192,39102,1,0,0:0:0:0:
36,192,39271,1,0,0:0:0:0:
475,192,39271,1,0,0:0:0:0:
402,192,39271,1,0,0:0:0:0:
36,192,39441,1,0,0:0:0:0:
182,192,39441,1,0,0:0:0:0:
329,192,39441,1,0,0:0:0:0:
475,192,39441,1,0,0:0:0:0:
36,192,39610,1,0,0:0:0:0:
256,192,39780,1,0,0:0:0:0:
109,192,39780,1,0,0:0:0:0:
402,192,39780,1,0,0:0:0:0:
182,192,39780,1,0,0:0:0:0:
475,192,39949,1,0,0:0:0:0:
109,192,39949,1,0,0:0:0:0:
256,192,39949,1,0,0:0:0:0:
475,192,40119,1,0,0:0:0:0:
182,192,40119,1,0,0:0:0:0:
36,192,40119,1,0,0:0:0:0:
329,192,40119,1,0,0:0:0:0:
475,192,40288,1,0,0:0:0:0:
256,192,40288,1,0,0:0:0:0:
475,192,40458,1,0,0:0:0:0:
329,192,40458,1,0,0:0:0:0:
36,192,40458,1,0,0:0:0:0:
329,192,40627,1,0,0:0:0:0:
36,192,40627,1,0,0:0:0:0:
475,192,40627,1,0,0:0:0:0:
475,192,40797,1,0,0:0:0:0:
109,192,40797,1,0,0:0:0:0:
182,192,40797,1,0,0:0:0:0:
256,192,40797,1,0,0:0:0:0:
475,192,40966,1,0,0:0:0:0:
329,192,40966,1,0,0:0:0:0:
256,192,41051,1,0,0:0:0:0:
182,192,41136,1,0,0:0:0:0:
36,192,41136,1,0,0:0:0:0:
402,192,41136,1,0,0:0:0:0:
475,192,41136,1,0,0:0:0:0:
329,192,41305,1,0,0:0:0:0:
109,192,41305,1,0,0:0:0:0:
402,192,41305,1,0,0:0:0:0:
36,192,41475,1,0,0:0:0:0:
256,192,41475,1,0,0:0:0:0:
475,192,41475,1,0,0:0:0:0:
402,192,41475,1,0,0:0:0:0:
182,192,41644,1,0,0:0:0:0:
109,192,41814,1,0,0:0:0:0:
36,192,41814,1,0,0:0:0:0:
329,192,41814,1,0,0:0:0:0:
109,192,41983,1,0,0:0:0:0:
182,192,41983,1,0,0:0:0:0:
402,192,41983,1,0,0:0:0:0:
182,192,42153,1,0,0:0:0:0:
256,192,42153,1,0,0:0:0:0:
475,192,42153,1,0,0:0:0:0:
36,192,42153,1,0,0:0:0:0:
402,192,42322,1,0,0:0:0:0:
109,192,42322,1,0,0:0:0:0:
182,192,42492,1,0,0:0:0:0:
329,192,42492,1,0,0:0:0:0:
475,192,42492,1,0,0:0:0:0:
109,192,42661,1,0,0:0:0:0:
256,192,42661,1,0,0:0:0:0:
402,192,42661,1,0,0:0:0:0:
182,192,42831,1,0,0:0:0:0:
36,192,42831,1,0,0:0:0:0:
329,192,42831,1,0,0:0:0:0:
475,192,42831,1,0,0:0:0:0:
109,192,43000,1,0,0:0:0:0:
256,192,43000,1,0,0:0:0:0:
402,192,43170,1,0,0:0:0:0:
475,192,43170,1,0,0:0:0:0:
182,192,43170,1,0,0:0:0:0:
109,192,43339,1,0,0:0:0:0:
329,192,43339,1,0,0:0:0:0:
402,192,43339,1,0,0:0:0:0:
36,192,43508,1,0,0:0:0:0:
256,192,43508,1,0,0:0:0:0:
329,192,43508,1,0,0:0:0:0:
475,192,43508,1,0,0:0:0:0:
182,192,43678,1,0,0:0:0:0:
402,192,43678,1,0,0:0:0:0:
109,192,43847,1,0,0:0:0:0:
36,192,43847,1,0,0:0:0:0:
256,192,43847,1,0,0:0:0:0:
475,192,43847,1,0,0:0:0:0:
109,192,44017,1,0,0:0:0:0:
182,192,44017,1,0,0:0:0:0:
329,192,44017,1,0,0:0:0:0:
182,192,44186,1,0,0:0:0:0:
256,192,44186,1,0,0:0:0:0:
402,192,44186,1,0,0:0:0:0:
475,192,44186,1,0,0:0:0:0:
329,192,44356,1,0,0:0:0:0:
36,192,44356,1,0,0:0:0:0:
36,192,44525,1,0,0:0:0:0:
109,192,44525,1,0,0:0:0:0:
256,192,44525,1,0,0:0:0:0:
475,192,44525,1,0,0:0:0:0:
402,192,44695,1,0,0:0:0:0:
475,192,44695,1,0,0:0:0:0:
182,192,44695,1,0,0:0:0:0:
329,192,44864,1,0,0:0:0:0:
256,192,44864,1,0,0:0:0:0:
109,192,44864,1,0,0:0:0:0:
36,192,44864,1,0,0:0:0:0:
182,192,45034,1,0,0:0:0:0:
329,192,45034,1,0,0:0:0:0:
402,192,45034,1,0,0:0:0:0:
402,192,45203,1,0,0:0:0:0:
475,192,45203,1,0,0:0:0:0:
256,192,45203,1,0,0:0:0:0:
109,192,45203,1,0,0:0:0:0:
36,192,45203,1,0,0:0:0:0:
182,192,45203,1,0,0:0:0:0:
329,192,45203,1,0,0:0:0:0:
109,192,45373,1,0,0:0:0:0:
182,192,45373,1,0,0:0:0:0:
329,192,45373,1,0,0:0:0:0:
402,192,45373,1,0,0:0:0:0:
182,192,45542,1,0,0:0:0:0:
109,192,45542,1,0,0:0:0:0:
329,192,45542,1,0,0:0:0:0:
402,192,45542,1,0,0:0:0:0:
256,192,45712,1,0,0:0:0:0:
402,192,45712,1,0,0:0:0:0:
36,192,45712,1,0,0:0:0:0:
475,192,45712,1,0,0:0:0:0:
182,192,45712,1,0,0:0:0:0:
329,192,45712,1,0,0:0:0:0:
109,192,45712,1,0,0:0:0:0:
256,192,45881,1,0,0:0:0:0:
256,192,46051,1,0,0:0:0:0:
109,192,46136,1,0,0:0:0:0:
402,192,46136,1,0,0:0:0:0:
182,192,46220,1,0,0:0:0:0:
256,192,46220,1,0,0:0:0:0:
329,192,46220,1,0,0:0:0:0:
475,192,46220,1,0,0:0:0:0:
36,192,46220,1,0,0:0:0:0:
36,192,46559,128,0,47068:0:0:0:0:
329,192,46559,1,0,0:0:0:0:
475,192,46559,1,0,0:0:0:0:
402,192,46729,1,0,0:0:0:0:
256,192,46898,1,0,0:0:0:0:
182,192,47068,128,0,47576:0:0:0:0:
402,192,47068,1,0,0:0:0:0:
36,192,47237,128,0,47576:0:0:0:0:
475,192,47237,1,0,0:0:0:0:
256,192,47237,1,0,0:0:0:0:
402,192,47407,1,0,0:0:0:0:
329,192,47576,128,0,48085:0:0:0:0:
182,192,47746,128,0,48085:0:0:0:0:
402,192,47746,1,0,0:0:0:0:
256,192,47915,1,0,0:0:0:0:
475,192,47915,1,0,0:0:0:0:
36,192,47915,1,0,0:0:0:0:
109,192,47915,1,0,0:0:0:0:
402,192,48085,1,0,0:0:0:0:
475,192,48085,1,0,0:0:0:0:
109,192,48254,1,0,0:0:0:0:
402,192,48424,1,0,0:0:0:0:
256,192,48424,128,0,48847:0:0:0:0:
109,192,48593,128,0,48847:0:0:0:0:
36,192,48593,1,0,0:0:0:0:
182,192,48593,1,0,0:0:0:0:
402,192,48763,1,0,0:0:0:0:
475,192,48763,1,0,0:0:0:0:
329,192,48847,128,0,49271:0:0:0:0:
109,192,48932,1,0,0:0:0:0:
182,192,49102,128,0,49271:0:0:0:0:
256,192,49271,1,0,0:0:0:0:
475,192,49271,1,0,0:0:0:0:
36,192,49271,128,0,49610:0:0:0:0:
402,192,49441,1,0,0:0:0:0:
475,192,49441,1,0,0:0:0:0:
182,192,49610,128,0,49780:0:0:0:0:
329,192,49610,1,0,0:0:0:0:
36,192,49780,128,0,50288:0:0:0:0:
329,192,49780,1,0,0:0:0:0:
109,192,49949,1,0,0:0:0:0:
256,192,49949,1,0,0:0:0:0:
402,192,49949,1,0,0:0:0:0:
182,192,50119,128,0,50627:0:0:0:0:
329,192,50119,1,0,0:0:0:0:
109,192,50288,128,0,50627:0:0:0:0:
402,192,50288,1,0,0:0:0:0:
256,192,50542,1,0,0:0:0:0:
402,192,50542,1,0,0:0:0:0:
475,192,50627,1,0,0:0:0:0:
329,192,50627,1,0,0:0:0:0:
36,192,50627,1,0,0:0:0:0:
256,192,50797,1,0,0:0:0:0:
109,192,50797,1,0,0:0:0:0:
402,192,50797,1,0,0:0:0:0:
109,192,50966,1,0,0:0:0:0:
475,192,50966,1,0,0:0:0:0:
36,192,50966,1,0,0:0:0:0:
402,192,50966,1,0,0:0:0:0:
256,192,51051,1,0,0:0:0:0:
329,192,51136,1,0,0:0:0:0:
182,192,51136,1,0,0:0:0:0:
256,192,51305,1,0,0:0:0:0:
475,192,51305,1,0,0:0:0:0:
36,192,51305,1,0,0:0:0:0:
109,192,51305,1,0,0:0:0:0:
402,192,51305,1,0,0:0:0:0:
256,192,51559,1,0,0:0:0:0:
36,192,51559,1,0,0:0:0:0:
475,192,51559,1,0,0:0:0:0:
256,192,51644,1,0,0:0:0:0:
109,192,51644,1,0,0:0:0:0:
402,192,51644,1,0,0:0:0:0:
182,192,51729,1,0,0:0:0:0:
329,192,51729,1,0,0:0:0:0:
109,192,51814,1,0,0:0:0:0:
402,192,51814,1,0,0:0:0:0:
182,192,51898,1,0,0:0:0:0:
329,192,51898,1,0,0:0:0:0:
36,192,51983,1,0,0:0:0:0:
256,192,51983,1,0,0:0:0:0:
475,192,51983,1,0,0:0:0:0:
182,192,52153,128,0,52237:0:0:0:0:
329,192,52153,1,0,0:0:0:0:
182,192,52322,128,0,52407:0:0:0:0:
256,192,52322,1,0,0:0:0:0:
475,192,52322,1,0,0:0:0:0:
36,192,52322,1,0,0:0:0:0:
329,192,52492,128,0,52576:0:0:0:0:
182,192,52492,1,0,0:0:0:0:
329,192,52661,128,0,52746:0:0:0:0:
36,192,52661,1,0,0:0:0:0:
475,192,52661,1,0,0:0:0:0:
256,192,52661,1,0,0:0:0:0:
182,192,52831,128,0,52915:0:0:0:0:
329,192,52831,1,0,0:0:0:0:
182,192,53000,128,0,53085:0:0:0:0:
36,192,53000,1,0,0:0:0:0:
329,192,53000,1,0,0:0:0:0:
475,192,53000,1,0,0:0:0:0:
329,192,53170,128,0,53254:0:0:0:0:
182,192,53170,1,0,0:0:0:0:
329,192,53339,1,0,0:0:0:0:
182,192,53339,1,0,0:0:0:0:
36,192,53339,128,0,53593:0:0:0:0:
256,192,53339,128,0,53593:0:0:0:0:
475,192,53339,128,0,53593:0:0:0:0:
256,192,53678,1,0,0:0:0:0:
36,192,53678,1,0,0:0:0:0:
475,192,53678,1,0,0:0:0:0:
475,192,54017,1,0,0:0:0:0:
109,192,54017,1,0,0:0:0:0:
36,192,54017,1,0,0:0:0:0:
402,192,54017,1,0,0:0:0:0:
109,192,54271,1,0,0:0:0:0:
402,192,54271,1,0,0:0:0:0:
36,192,54356,1,0,0:0:0:0:
256,192,54356,1,0,0:0:0:0:
475,192,54356,1,0,0:0:0:0:
182,192,54525,1,0,0:0:0:0:
329,192,54525,1,0,0:0:0:0:
36,192,54695,1,0,0:0:0:0:
109,192,54695,1,0,0:0:0:0:
256,192,54695,1,0,0:0:0:0:
402,192,54695,1,0,0:0:0:0:
475,192,54695,1,0,0:0:0:0:
256,192,54864,1,0,0:0:0:0:
256,192,55034,1,0,0:0:0:0:
256,192,55203,1,0,0:0:0:0:
256,192,55373,1,0,0:0:0:0:
402,192,55373,1,0,0:0:0:0:
109,192,55373,1,0,0:0:0:0:
109,192,55542,1,0,0:0:0:0:
256,192,55542,1,0,0:0:0:0:
402,192,55542,1,0,0:0:0:0:
402,192,55712,1,0,0:0:0:0:
256,192,55712,1,0,0:0:0:0:
109,192,55712,1,0,0:0:0:0:
109,192,55881,1,0,0:0:0:0:
256,192,55881,1,0,0:0:0:0:
402,192,55881,1,0,0:0:0:0:
36,192,56051,1,0,0:0:0:0:
182,192,56051,1,0,0:0:0:0:
256,192,56051,1,0,0:0:0:0:
329,192,56051,1,0,0:0:0:0:
475,192,56051,1,0,0:0:0:0:
36,192,56220,1,0,0:0:0:0:
182,192,56220,1,0,0:0:0:0:
329,192,56220,1,0,0:0:0:0:
475,192,56220,1,0,0:0:0:0:
36,192,56390,1,0,0:0:0:0:
109,192,56390,1,0,0:0:0:0:
256,192,56390,1,0,0:0:0:0:
402,192,56390,1,0,0:0:0:0:
475,192,56390,1,0,0:0:0:0:
329,192,56559,1,0,0:0:0:0:
182,192,56559,1,0,0:0:0:0:
36,192,56559,1,0,0:0:0:0:
475,192,56559,1,0,0:0:0:0:
256,192,56729,1,0,0:0:0:0:
36,192,56729,1,0,0:0:0:0:
329,192,56729,1,0,0:0:0:0:
475,192,56729,1,0,0:0:0:0:
182,192,56729,1,0,0:0:0:0:
36,192,56898,1,0,0:0:0:0:
256,192,56898,1,0,0:0:0:0:
475,192,56898,1,0,0:0:0:0:
36,192,57068,1,0,0:0:0:0:
182,192,57068,1,0,0:0:0:0:
475,192,57068,1,0,0:0:0:0:
329,192,57068,1,0,0:0:0:0:
36,192,57237,1,0,0:0:0:0:
256,192,57237,1,0,0:0:0:0:
475,192,57237,1,0,0:0:0:0:
109,192,57322,1,0,0:0:0:0:
402,192,57322,1,0,0:0:0:0:
329,192,57407,1,0,0:0:0:0:
256,192,57407,1,0,0:0:0:0:
182,192,57407,1,0,0:0:0:0:
36,192,57407,1,0,0:0:0:0:
475,192,57407,1,0,0:0:0:0:
182,192,57576,1,0,0:0:0:0:
109,192,57576,1,0,0:0:0:0:
329,192,57576,1,0,0:0:0:0:
402,192,57576,1,0,0:0:0:0:
402,192,57746,1,0,0:0:0:0:
329,192,57746,1,0,0:0:0:0:
182,192,57746,1,0,0:0:0:0:
109,192,57746,1,0,0:0:0:0:
256,192,57915,1,0,0:0:0:0:
36,192,57915,1,0,0:0:0:0:
109,192,57915,1,0,0:0:0:0:
402,192,57915,1,0,0:0:0:0:
475,192,57915,1,0,0:0:0:0:
182,192,58085,1,0,0:0:0:0:
36,192,58085,1,0,0:0:0:0:
329,192,58085,1,0,0:0:0:0:
475,192,58085,1,0,0:0:0:0:
475,192,58254,1,0,0:0:0:0:
329,192,58254,1,0,0:0:0:0:
182,192,58254,1,0,0:0:0:0:
36,192,58254,1,0,0:0:0:0:
36,192,58424,1,0,0:0:0:0:
182,192,58424,1,0,0:0:0:0:
256,192,58424,1,0,0:0:0:0:
329,192,58424,1,0,0:0:0:0:
475,192,58424,1,0,0:0:0:0:
109,192,58593,1,0,0:0:0:0:
402,192,58593,1,0,0:0:0:0:
329,192,58678,1,0,0:0:0:0:
182,192,58678,1,0,0:0:0:0:
256,192,58763,1,0,0:0:0:0:
402,192,58763,1,0,0:0:0:0:
475,192,58763,1,0,0:0:0:0:
36,192,58763,1,0,0:0:0:0:
109,192,58763,1,0,0:0:0:0:
109,192,58932,1,0,0:0:0:0:
329,192,58932,1,0,0:0:0:0:
182,192,59017,1,0,0:0:0:0:
402,192,59017,1,0,0:0:0:0:
256,192,59102,1,0,0:0:0:0:
475,192,59102,1,0,0:0:0:0:
36,192,59102,1,0,0:0:0:0:
109,192,59186,1,0,0:0:0:0:
329,192,59186,1,0,0:0:0:0:
182,192,59271,1,0,0:0:0:0:
402,192,59271,1,0,0:0:0:0:
256,192,59356,1,0,0:0:0:0:
329,192,59441,1,0,0:0:0:0:
475,192,59441,1,0,0:0:0:0:
109,192,59441,1,0,0:0:0:0:
36,192,59441,1,0,0:0:0:0:
182,192,59525,1,0,0:0:0:0:
402,192,59525,1,0,0:0:0:0:
256,192,59610,1,0,0:0:0:0:
475,192,59610,1,0,0:0:0:0:
329,192,59695,1,0,0:0:0:0:
109,192,59695,1,0,0:0:0:0:
182,192,59780,1,0,0:0:0:0:
402,192,59780,1,0,0:0:0:0:
475,192,59780,1,0,0:0:0:0:
36,192,59780,1,0,0:0:0:0:
109,192,59864,1,0,0:0:0:0:
256,192,59864,1,0,0:0:0:0:
182,192,59949,1,0,0:0:0:0:
329,192,59949,1,0,0:0:0:0:
256,192,60034,1,0,0:0:0:0:
402,192,60034,1,0,0:0:0:0:
329,192,60119,1,0,0:0:0:0:
475,192,60119,1,0,0:0:0:0:
182,192,60119,1,0,0:0:0:0:
109,192,60119,1,0,0:0:0:0:
36,192,60119,1,0,0:0:0:0:
256,192,60203,1,0,0:0:0:0:
182,192,60288,1,0,0:0:0:0:
402,192,60288,1,0,0:0:0:0:
109,192,60373,1,0,0:0:0:0:
36,192,60458,1,0,0:0:0:0:
329,192,60458,1,0,0:0:0:0:
475,192,60458,1,0,0:0:0:0:
109,192,60542,1,0,0:0:0:0:
256,192,60542,1,0,0:0:0:0:
182,192,60627,1,0,0:0:0:0:
402,192,60627,1,0,0:0:0:0:
329,192,60712,1,0,0:0:0:0:
475,192,60712,1,0,0:0:0:0:
256,192,60797,1,0,0:0:0:0:
109,192,60797,1,0,0:0:0:0:
36,192,60797,1,0,0:0:0:0:
329,192,60881,1,0,0:0:0:0:
182,192,60966,1,0,0:0:0:0:
402,192,60966,1,0,0:0:0:0:
109,192,61051,1,0,0:0:0:0:
256,192,61051,1,0,0:0:0:0:
329,192,61136,1,0,0:0:0:0:
475,192,61136,1,0,0:0:0:0:
182,192,61136,1,0,0:0:0:0:
36,192,61220,1,0,0:0:0:0:
109,192,61305,1,0,0:0:0:0:
256,192,61305,1,0,0:0:0:0:
402,192,61305,1,0,0:0:0:0:
182,192,61390,1,0,0:0:0:0:
329,192,61475,1,0,0:0:0:0:
475,192,61475,1,0,0:0:0:0:
36,192,61475,1,0,0:0:0:0:
109,192,61475,1,0,0:0:0:0:
256,192,61559,1,0,0:0:0:0:
182,192,61644,1,0,0:0:0:0:
402,192,61644,1,0,0:0:0:0:
329,192,61729,1,0,0:0:0:0:
256,192,61814,1,0,0:0:0:0:
36,192,61814,1,0,0:0:0:0:
475,192,61814,1,0,0:0:0:0:
109,192,61814,1,0,0:0:0:0:
402,192,61898,1,0,0:0:0:0:
329,192,61983,1,0,0:0:0:0:
109,192,61983,1,0,0:0:0:0:
182,192,62068,1,0,0:0:0:0:
36,192,62153,1,0,0:0:0:0:
402,192,62153,1,0,0:0:0:0:
475,192,62153,1,0,0:0:0:0:
256,192,62153,1,0,0:0:0:0:
109,192,62237,1,0,0:0:0:0:
182,192,62322,1,0,0:0:0:0:
402,192,62322,1,0,0:0:0:0:
329,192,62407,1,0,0:0:0:0:
256,192,62492,1,0,0:0:0:0:
36,192,62492,1,0,0:0:0:0:
109,192,62492,1,0,0:0:0:0:
475,192,62492,1,0,0:0:0:0:
402,192,62576,1,0,0:0:0:0:
182,192,62576,1,0,0:0:0:0:
329,192,62661,1,0,0:0:0:0:
36,192,62661,1,0,0:0:0:0:
475,192,62661,1,0,0:0:0:0:
109,192,62746,1,0,0:0:0:0:
256,192,62746,1,0,0:0:0:0:
182,192,62831,1,0,0:0:0:0:
402,192,62831,1,0,0:0:0:0:
475,192,62831,1,0,0:0:0:0:
329,192,62915,1,0,0:0:0:0:
109,192,62915,1,0,0:0:0:0:
36,192,63000,1,0,0:0:0:0:
256,192,63000,1,0,0:0:0:0:
182,192,63085,1,0,0:0:0:0:
109,192,63170,1,0,0:0:0:0:
36,192,63170,1,0,0:0:0:0:
329,192,63170,1,0,0:0:0:0:
402,192,63254,1,0,0:0:0:0:
475,192,63339,1,0,0:0:0:0:
182,192,63339,1,0,0:0:0:0:
256,192,63339,1,0,0:0:0:0:
109,192,63424,1,0,0:0:0:0:
36,192,63508,1,0,0:0:0:0:
329,192,63508,1,0,0:0:0:0:
475,192,63508,1,0,0:0:0:0:
256,192,63593,1,0,0:0:0:0:
182,192,63678,1,0,0:0:0:0:
36,192,63678,1,0,0:0:0:0:
402,192,63678,1,0,0:0:0:0:
475,192,63763,1,0,0:0:0:0:
329,192,63847,1,0,0:0:0:0:
109,192,63847,1,0,0:0:0:0:
36,192,63847,1,0,0:0:0:0:
256,192,63847,1,0,0:0:0:0:
182,192,63932,1,0,0:0:0:0:
109,192,64017,1,0,0:0:0:0:
402,192,64017,1,0,0:0:0:0:
329,192,64102,1,0,0:0:0:0:
182,192,64102,1,0,0:0:0:0:
256,192,64186,1,0,0:0:0:0:
36,192,64186,1,0,0:0:0:0:
475,192,64186,1,0,0:0:0:0:
329,192,64271,1,0,0:0:0:0:
402,192,64356,1,0,0:0:0:0:
109,192,64356,1,0,0:0:0:0:
182,192,64441,1,0,0:0:0:0:
329,192,64441,1,0,0:0:0:0:
256,192,64525,1,0,0:0:0:0:
475,192,64525,1,0,0:0:0:0:
36,192,64525,1,0,0:0:0:0:
109,192,64525,1,0,0:0:0:0:
402,192,64610,1,0,0:0:0:0:
182,192,64610,1,0,0:0:0:0:
109,192,64695,1,0,0:0:0:0:
329,192,64695,1,0,0:0:0:0:
182,192,64780,1,0,0:0:0:0:
402,192,64780,1,0,0:0:0:0:
256,192,64864,1,0,0:0:0:0:
475,192,64864,1,0,0:0:0:0:
36,192,64864,1,0,0:0:0:0:
329,192,64864,1,0,0:0:0:0:
182,192,64949,1,0,0:0:0:0:
109,192,65034,1,0,0:0:0:0:
329,192,65034,1,0,0:0:0:0:
402,192,65119,1,0,0:0:0:0:
475,192,65203,1,0,0:0:0:0:
256,192,65203,1,0,0:0:0:0:
36,192,65203,1,0,0:0:0:0:
182,192,65203,1,0,0:0:0:0:
329,192,65288,1,0,0:0:0:0:
402,192,65373,1,0,0:0:0:0:
182,192,65373,1,0,0:0:0:0:
36,192,65373,1,0,0:0:0:0:
256,192,65458,1,0,0:0:0:0:
329,192,65542,1,0,0:0:0:0:
475,192,65542,1,0,0:0:0:0:
109,192,65542,1,0,0:0:0:0:
182,192,65627,1,0,0:0:0:0:
256,192,65712,1,0,0:0:0:0:
402,192,65712,1,0,0:0:0:0:
109,192,65797,1,0,0:0:0:0:
182,192,65881,1,0,0:0:0:0:
329,192,65881,1,0,0:0:0:0:
36,192,65881,1,0,0:0:0:0:
475,192,65881,1,0,0:0:0:0:
256,192,65966,1,0,0:0:0:0:
109,192,66051,1,0,0:0:0:0:
329,192,66051,1,0,0:0:0:0:
182,192,66136,1,0,0:0:0:0:
402,192,66136,1,0,0:0:0:0:
256,192,66220,1,0,0:0:0:0:
475,192,66220,1,0,0:0:0:0:
36,192,66220,1,0,0:0:0:0:
329,192,66220,1,0,0:0:0:0:
182,192,66305,1,0,0:0:0:0:
402,192,66305,1,0,0:0:0:0:
329,192,66390,1,0,0:0:0:0:
109,192,66390,1,0,0:0:0:0:
182,192,66475,1,0,0:0:0:0:
402,192,66475,1,0,0:0:0:0:
256,192,66559,1,0,0:0:0:0:
475,192,66559,1,0,0:0:0:0:
109,192,66559,1,0,0:0:0:0:
36,192,66559,1,0,0:0:0:0:
329,192,66644,1,0,0:0:0:0:
182,192,66729,1,0,0:0:0:0:
402,192,66729,1,0,0:0:0:0:
475,192,66729,1,0,0:0:0:0:
329,192,66814,1,0,0:0:0:0:
109,192,66814,1,0,0:0:0:0:
36,192,66898,1,0,0:0:0:0:
256,192,66898,1,0,0:0:0:0:
402,192,66898,1,0,0:0:0:0:
475,192,66898,1,0,0:0:0:0:
182,192,66983,1,0,0:0:0:0:
109,192,67068,1,0,0:0:0:0:
329,192,67068,1,0,0:0:0:0:
475,192,67153,1,0,0:0:0:0:
402,192,67237,1,0,0:0:0:0:
256,192,67237,1,0,0:0:0:0:
36,192,67237,1,0,0:0:0:0:
182,192,67237,1,0,0:0:0:0:
109,192,67322,1,0,0:0:0:0:
329,192,67407,1,0,0:0:0:0:
475,192,67407,1,0,0:0:0:0:
256,192,67492,1,0,0:0:0:0:
182,192,67576,1,0,0:0:0:0:
36,192,67576,1,0,0:0:0:0:
402,192,67576,1,0,0:0:0:0:
475,192,67576,1,0,0:0:0:0:
329,192,67661,1,0,0:0:0:0:
109,192,67746,1,0,0:0:0:0:
256,192,67746,1,0,0:0:0:0:
475,192,67746,1,0,0:0:0:0:
402,192,67831,1,0,0:0:0:0:
329,192,67915,1,0,0:0:0:0:
182,192,67915,1,0,0:0:0:0:
36,192,67915,1,0,0:0:0:0:
475,192,67915,1,0,0:0:0:0:
109,192,68000,1,0,0:0:0:0:
182,192,68085,1,0,0:0:0:0:
329,192,68085,1,0,0:0:0:0:
475,192,68085,1,0,0:0:0:0:
36,192,68170,1,0,0:0:0:0:
109,192,68254,1,0,0:0:0:0:
256,192,68254,1,0,0:0:0:0:
402,192,68254,1,0,0:0:0:0:
475,192,68254,1,0,0:0:0:0:
36,192,68339,1,0,0:0:0:0:
182,192,68424,1,0,0:0:0:0:
329,192,68424,1,0,0:0:0:0:
109,192,68508,1,0,0:0:0:0:
256,192,68593,1,0,0:0:0:0:
475,192,68593,1,0,0:0:0:0:
36,192,68593,1,0,0:0:0:0:
402,192,68593,1,0,0:0:0:0:
182,192,68678,1,0,0:0:0:0:
402,192,68763,1,0,0:0:0:0:
109,192,68763,1,0,0:0:0:0:
256,192,68763,1,0,0:0:0:0:
475,192,68847,1,0,0:0:0:0:
329,192,68932,1,0,0:0:0:0:
36,192,68932,1,0,0:0:0:0:
182,192,68932,1,0,0:0:0:0:
402,192,69017,1,0,0:0:0:0:
256,192,69102,1,0,0:0:0:0:
109,192,69102,1,0,0:0:0:0:
36,192,69102,1,0,0:0:0:0:
329,192,69186,1,0,0:0:0:0:
182,192,69271,1,0,0:0:0:0:
402,192,69271,1,0,0:0:0:0:
475,192,69271,1,0,0:0:0:0:
36,192,69271,1,0,0:0:0:0:
329,192,69356,1,0,0:0:0:0:
256,192,69441,1,0,0:0:0:0:
109,192,69441,1,0,0:0:0:0:
475,192,69525,1,0,0:0:0:0:
182,192,69610,1,0,0:0:0:0:
402,192,69610,1,0,0:0:0:0:
36,192,69610,1,0,0:0:0:0:
256,192,69695,1,0,0:0:0:0:
329,192,69780,1,0,0:0:0:0:
109,192,69780,1,0,0:0:0:0:
36,192,69864,1,0,0:0:0:0:
182,192,69949,1,0,0:0:0:0:
402,192,69949,1,0,0:0:0:0:
475,192,69949,1,0,0:0:0:0:
256,192,69949,1,0,0:0:0:0:
109,192,70034,1,0,0:0:0:0:
36,192,70119,1,0,0:0:0:0:
329,192,70119,1,0,0:0:0:0:
475,192,70119,1,0,0:0:0:0:
109,192,70203,1,0,0:0:0:0:
256,192,70203,1,0,0:0:0:0:
182,192,70288,1,0,0:0:0:0:
402,192,70288,1,0,0:0:0:0:
475,192,70288,1,0,0:0:0:0:
329,192,70373,1,0,0:0:0:0:
36,192,70373,1,0,0:0:0:0:
109,192,70458,1,0,0:0:0:0:
256,192,70458,1,0,0:0:0:0:
182,192,70542,1,0,0:0:0:0:
402,192,70542,1,0,0:0:0:0:
256,192,70627,1,0,0:0:0:0:
475,192,70627,1,0,0:0:0:0:
329,192,70627,1,0,0:0:0:0:
36,192,70627,1,0,0:0:0:0:
109,192,70712,1,0,0:0:0:0:
402,192,70712,1,0,0:0:0:0:
182,192,70797,1,0,0:0:0:0:
329,192,70797,1,0,0:0:0:0:
475,192,70797,1,0,0:0:0:0:
256,192,70881,1,0,0:0:0:0:
402,192,70881,1,0,0:0:0:0:
36,192,70966,1,0,0:0:0:0:
109,192,70966,1,0,0:0:0:0:
182,192,70966,1,0,0:0:0:0:
329,192,70966,1,0,0:0:0:0:
475,192,70966,1,0,0:0:0:0:
256,192,71051,1,0,0:0:0:0:
182,192,71136,1,0,0:0:0:0:
329,192,71136,1,0,0:0:0:0:
36,192,71220,1,0,0:0:0:0:
109,192,71305,1,0,0:0:0:0:
256,192,71305,1,0,0:0:0:0:
402,192,71305,1,0,0:0:0:0:
475,192,71305,1,0,0:0:0:0:
36,192,71390,1,0,0:0:0:0:
182,192,71475,1,0,0:0:0:0:
329,192,71475,1,0,0:0:0:0:
475,192,71475,1,0,0:0:0:0:
109,192,71559,1,0,0:0:0:0:
36,192,71644,1,0,0:0:0:0:
256,192,71644,1,0,0:0:0:0:
402,192,71644,1,0,0:0:0:0:
329,192,71729,1,0,0:0:0:0:
109,192,71814,1,0,0:0:0:0:
402,192,71814,1,0,0:0:0:0:
182,192,71898,1,0,0:0:0:0:
256,192,71983,1,0,0:0:0:0:
475,192,71983,1,0,0:0:0:0:
329,192,71983,1,0,0:0:0:0:
36,192,71983,1,0,0:0:0:0:
182,192,72068,1,0,0:0:0:0:
109,192,72153,1,0,0:0:0:0:
329,192,72153,1,0,0:0:0:0:
475,192,72153,1,0,0:0:0:0:
402,192,72237,1,0,0:0:0:0:
182,192,72322,1,0,0:0:0:0:
329,192,72322,1,0,0:0:0:0:
36,192,72322,1,0,0:0:0:0:
475,192,72322,1,0,0:0:0:0:
109,192,72407,1,0,0:0:0:0:
256,192,72407,1,0,0:0:0:0:
329,192,72492,1,0,0:0:0:0:
475,192,72492,1,0,0:0:0:0:
256,192,72576,1,0,0:0:0:0:
109,192,72576,1,0,0:0:0:0:
182,192,72661,1,0,0:0:0:0:
36,192,72661,1,0,0:0:0:0:
402,192,72661,1,0,0:0:0:0:
475,192,72661,1,0,0:0:0:0:
329,192,72746,1,0,0:0:0:0:
256,192,72831,1,0,0:0:0:0:
109,192,72831,1,0,0:0:0:0:
475,192,72831,1,0,0:0:0:0:
402,192,72915,1,0,0:0:0:0:
182,192,73000,1,0,0:0:0:0:
329,192,73000,1,0,0:0:0:0:
36,192,73000,1,0,0:0:0:0:
475,192,73000,1,0,0:0:0:0:
109,192,73085,1,0,0:0:0:0:
256,192,73170,1,0,0:0:0:0:
402,192,73170,1,0,0:0:0:0:
182,192,73254,1,0,0:0:0:0:
36,192,73339,1,0,0:0:0:0:
329,192,73339,1,0,0:0:0:0:
475,192,73339,1,0,0:0:0:0:
256,192,73339,1,0,0:0:0:0:
109,192,73424,1,0,0:0:0:0:
182,192,73508,1,0,0:0:0:0:
36,192,73508,1,0,0:0:0:0:
329,192,73508,1,0,0:0:0:0:
256,192,73593,1,0,0:0:0:0:
109,192,73678,1,0,0:0:0:0:
36,192,73678,1,0,0:0:0:0:
329,192,73678,1,0,0:0:0:0:
475,192,73678,1,0,0:0:0:0:
256,192,73763,1,0,0:0:0:0:
182,192,73847,1,0,0:0:0:0:
402,192,73847,1,0,0:0:0:0:
329,192,73932,1,0,0:0:0:0:
109,192,73932,1,0,0:0:0:0:
36,192,74017,1,0,0:0:0:0:
256,192,74017,1,0,0:0:0:0:
475,192,74017,1,0,0:0:0:0:
402,192,74017,1,0,0:0:0:0:
182,192,74102,1,0,0:0:0:0:
109,192,74186,1,0,0:0:0:0:
329,192,74186,1,0,0:0:0:0:
475,192,74186,1,0,0:0:0:0:
256,192,74271,1,0,0:0:0:0:
36,192,74271,1,0,0:0:0:0:
182,192,74356,1,0,0:0:0:0:
402,192,74356,1,0,0:0:0:0:
475,192,74356,1,0,0:0:0:0:
329,192,74441,1,0,0:0:0:0:
109,192,74441,1,0,0:0:0:0:
475,192,74525,1,0,0:0:0:0:
36,192,74525,1,0,0:0:0:0:
256,192,74525,1,0,0:0:0:0:
109,192,74610,1,0,0:0:0:0:
329,192,74610,1,0,0:0:0:0:
182,192,74695,1,0,0:0:0:0:
402,192,74695,1,0,0:0:0:0:
475,192,74695,1,0,0:0:0:0:
36,192,74695,1,0,0:0:0:0:
109,192,74780,1,0,0:0:0:0:
256,192,74780,1,0,0:0:0:0:
182,192,74864,1,0,0:0:0:0:
329,192,74864,1,0,0:0:0:0:
475,192,74864,1,0,0:0:0:0:
256,192,74949,1,0,0:0:0:0:
402,192,74949,1,0,0:0:0:0:
329,192,75034,1,0,0:0:0:0:
475,192,75034,1,0,0:0:0:0:
36,192,75034,1,0,0:0:0:0:
109,192,75119,1,0,0:0:0:0:
256,192,75119,1,0,0:0:0:0:
182,192,75203,1,0,0:0:0:0:
402,192,75203,1,0,0:0:0:0:
329,192,75288,1,0,0:0:0:0:
475,192,75288,1,0,0:0:0:0:
256,192,75373,1,0,0:0:0:0:
109,192,75373,1,0,0:0:0:0:
36,192,75373,1,0,0:0:0:0:
402,192,75373,1,0,0:0:0:0:
182,192,75458,1,0,0:0:0:0:
329,192,75458,1,0,0:0:0:0:
475,192,75542,1,0,0:0:0:0:
109,192,75542,1,0,0:0:0:0:
182,192,75627,1,0,0:0:0:0:
402,192,75627,1,0,0:0:0:0:
256,192,75712,1,0,0:0:0:0:
329,192,75712,1,0,0:0:0:0:
36,192,75712,1,0,0:0:0:0:
109,192,75712,1,0,0:0:0:0:
182,192,75797,1,0,0:0:0:0:
109,192,75881,1,0,0:0:0:0:
329,192,75881,1,0,0:0:0:0:
402,192,75966,1,0,0:0:0:0:
475,192,76051,1,0,0:0:0:0:
256,192,76051,1,0,0:0:0:0:
182,192,76051,1,0,0:0:0:0:
36,192,76051,1,0,0:0:0:0:
329,192,76136,1,0,0:0:0:0:
402,192,76220,1,0,0:0:0:0:
182,192,76220,1,0,0:0:0:0:
109,192,76220,1,0,0:0:0:0:
109,192,76305,1,0,0:0:0:0:
182,192,76305,1,0,0:0:0:0:
329,192,76305,1,0,0:0:0:0:
256,192,76390,1,0,0:0:0:0:
402,192,76390,1,0,0:0:0:0:
475,192,76390,1,0,0:0:0:0:
36,192,76390,1,0,0:0:0:0:
109,192,76475,1,0,0:0:0:0:
182,192,76559,1,0,0:0:0:0:
329,192,76559,1,0,0:0:0:0:
402,192,76644,1,0,0:0:0:0:
475,192,76729,1,0,0:0:0:0:
256,192,76729,1,0,0:0:0:0:
109,192,76729,1,0,0:0:0:0:
36,192,76729,1,0,0:0:0:0:
402,192,76814,1,0,0:0:0:0:
329,192,76898,1,0,0:0:0:0:
182,192,76898,1,0,0:0:0:0:
256,192,76898,1,0,0:0:0:0:
109,192,76983,1,0,0:0:0:0:
36,192,77068,1,0,0:0:0:0:
256,192,77068,1,0,0:0:0:0:
475,192,77068,1,0,0:0:0:0:
329,192,77153,1,0,0:0:0:0:
402,192,77237,1,0,0:0:0:0:
109,192,77237,1,0,0:0:0:0:
182,192,77237,1,0,0:0:0:0:
256,192,77322,1,0,0:0:0:0:
329,192,77407,1,0,0:0:0:0:
475,192,77407,1,0,0:0:0:0:
109,192,77407,1,0,0:0:0:0:
36,192,77407,1,0,0:0:0:0:
182,192,77492,1,0,0:0:0:0:
256,192,77576,1,0,0:0:0:0:
475,192,77576,1,0,0:0:0:0:
36,192,77576,1,0,0:0:0:0:
109,192,77661,1,0,0:0:0:0:
402,192,77661,1,0,0:0:0:0:
329,192,77661,1,0,0:0:0:0:
256,192,77746,1,0,0:0:0:0:
36,192,77746,1,0,0:0:0:0:
475,192,77746,1,0,0:0:0:0:
182,192,77831,1,0,0:0:0:0:
109,192,77915,1,0,0:0:0:0:
329,192,77915,1,0,0:0:0:0:
402,192,78000,1,0,0:0:0:0:
256,192,78085,1,0,0:0:0:0:
475,192,78085,1,0,0:0:0:0:
182,192,78085,1,0,0:0:0:0:
36,192,78085,1,0,0:0:0:0:
329,192,78170,1,0,0:0:0:0:
402,192,78254,1,0,0:0:0:0:
182,192,78254,1,0,0:0:0:0:
109,192,78254,1,0,0:0:0:0:
256,192,78339,1,0,0:0:0:0:
109,192,78424,1,0,0:0:0:0:
36,192,78424,1,0,0:0:0:0:
329,192,78424,1,0,0:0:0:0:
475,192,78424,1,0,0:0:0:0:
256,192,78508,1,0,0:0:0:0:
182,192,78593,1,0,0:0:0:0:
402,192,78593,1,0,0:0:0:0:
329,192,78678,1,0,0:0:0:0:
256,192,78763,1,0,0:0:0:0:
109,192,78763,1,0,0:0:0:0:
475,192,78763,1,0,0:0:0:0:
36,192,78763,1,0,0:0:0:0:
402,192,78847,1,0,0:0:0:0:
329,192,78932,1,0,0:0:0:0:
182,192,78932,1,0,0:0:0:0:
36,192,78932,1,0,0:0:0:0:
475,192,79017,1,0,0:0:0:0:
402,192,79102,1,0,0:0:0:0:
256,192,79102,1,0,0:0:0:0:
109,192,79102,1,0,0:0:0:0:
36,192,79102,1,0,0:0:0:0:
182,192,79186,1,0,0:0:0:0:
329,192,79271,1,0,0:0:0:0:
475,192,79271,1,0,0:0:0:0:
109,192,79356,1,0,0:0:0:0:
402,192,79441,1,0,0:0:0:0:
36,192,79525,1,0,0:0:0:0:
329,192,79610,1,0,0:0:0:0:
475,192,79610,1,0,0:0:0:0:
256,192,79695,1,0,0:0:0:0:
402,192,79780,1,0,0:0:0:0:
182,192,79864,1,0,0:0:0:0:
329,192,79949,1,0,0:0:0:0:
475,192,79949,1,0,0:0:0:0:
109,192,80034,1,0,0:0:0:0:
256,192,80034,1,0,0:0:0:0:
182,192,80119,1,0,0:0:0:0:
402,192,80119,1,0,0:0:0:0:
475,192,80119,1,0,0:0:0:0:
36,192,80203,1,0,0:0:0:0:
256,192,80203,1,0,0:0:0:0:
182,192,80288,1,0,0:0:0:0:
329,192,80288,1,0,0:0:0:0:
109,192,80373,1,0,0:0:0:0:
402,192,80373,1,0,0:0:0:0:
329,192,80458,1,0,0:0:0:0:
475,192,80458,1,0,0:0:0:0:
182,192,80458,1,0,0:0:0:0:
36,192,80458,1,0,0:0:0:0:
109,192,80542,1,0,0:0:0:0:
256,192,80542,1,0,0:0:0:0:
402,192,80542,1,0,0:0:0:0:
182,192,80627,1,0,0:0:0:0:
329,192,80627,1,0,0:0:0:0:
475,192,80627,1,0,0:0:0:0:
256,192,80712,1,0,0:0:0:0:
36,192,80712,1,0,0:0:0:0:
109,192,80712,1,0,0:0:0:0:
182,192,80797,1,0,0:0:0:0:
402,192,80797,1,0,0:0:0:0:
475,192,80797,1,0,0:0:0:0:
329,192,80881,1,0,0:0:0:0:
256,192,80881,1,0,0:0:0:0:
36,192,80881,1,0,0:0:0:0:
109,192,80966,1,0,0:0:0:0:
402,192,80966,1,0,0:0:0:0:
475,192,80966,1,0,0:0:0:0:
36,192,81051,1,0,0:0:0:0:
182,192,81051,1,0,0:0:0:0:
256,192,81051,1,0,0:0:0:0:
329,192,81136,1,0,0:0:0:0:
475,192,81136,1,0,0:0:0:0:
109,192,81136,1,0,0:0:0:0:
182,192,81220,1,0,0:0:0:0:
402,192,81220,1,0,0:0:0:0:
36,192,81220,1,0,0:0:0:0:
109,192,81305,1,0,0:0:0:0:
256,192,81305,1,0,0:0:0:0:
475,192,81305,1,0,0:0:0:0:
182,192,81390,1,0,0:0:0:0:
329,192,81390,1,0,0:0:0:0:
36,192,81390,1,0,0:0:0:0:
109,192,81475,1,0,0:0:0:0:
475,192,81475,1,0,0:0:0:0:
402,192,81475,1,0,0:0:0:0:
182,192,81559,1,0,0:0:0:0:
256,192,81559,1,0,0:0:0:0:
36,192,81644,1,0,0:0:0:0:
329,192,81644,1,0,0:0:0:0:
402,192,81644,1,0,0:0:0:0:
109,192,81729,1,0,0:0:0:0:
182,192,81729,1,0,0:0:0:0:
256,192,81814,1,0,0:0:0:0:
402,192,81814,1,0,0:0:0:0:
475,192,81814,1,0,0:0:0:0:
329,192,81814,1,0,0:0:0:0:
36,192,81814,1,0,0:0:0:0:
182,192,81898,1,0,0:0:0:0:
329,192,81983,1,0,0:0:0:0:
109,192,81983,1,0,0:0:0:0:
402,192,82068,1,0,0:0:0:0:
475,192,82153,1,0,0:0:0:0:
182,192,82153,1,0,0:0:0:0:
36,192,82153,1,0,0:0:0:0:
402,192,82237,1,0,0:0:0:0:
256,192,82237,1,0,0:0:0:0:
329,192,82322,1,0,0:0:0:0:
109,192,82322,1,0,0:0:0:0:
182,192,82407,1,0,0:0:0:0:
36,192,82407,1,0,0:0:0:0:
256,192,82492,1,0,0:0:0:0:
402,192,82492,1,0,0:0:0:0:
475,192,82492,1,0,0:0:0:0:
182,192,82576,1,0,0:0:0:0:
329,192,82661,1,0,0:0:0:0:
109,192,82661,1,0,0:0:0:0:
402,192,82746,1,0,0:0:0:0:
256,192,82746,1,0,0:0:0:0:
182,192,82831,1,0,0:0:0:0:
36,192,82831,1,0,0:0:0:0:
329,192,82831,1,0,0:0:0:0:
475,192,82915,1,0,0:0:0:0:
402,192,83000,1,0,0:0:0:0:
256,192,83000,1,0,0:0:0:0:
109,192,83000,1,0,0:0:0:0:
329,192,83085,1,0,0:0:0:0:
182,192,83170,1,0,0:0:0:0:
36,192,83170,1,0,0:0:0:0:
475,192,83170,1,0,0:0:0:0:
402,192,83170,1,0,0:0:0:0:
256,192,83254,1,0,0:0:0:0:
329,192,83339,1,0,0:0:0:0:
109,192,83339,1,0,0:0:0:0:
182,192,83424,1,0,0:0:0:0:
256,192,83508,1,0,0:0:0:0:
475,192,83508,1,0,0:0:0:0:
36,192,83508,1,0,0:0:0:0:
402,192,83508,1,0,0:0:0:0:
109,192,83593,1,0,0:0:0:0:
182,192,83678,1,0,0:0:0:0:
402,192,83678,1,0,0:0:0:0:
329,192,83763,1,0,0:0:0:0:
475,192,83847,1,0,0:0:0:0:
109,192,83847,1,0,0:0:0:0:
36,192,83847,1,0,0:0:0:0:
256,192,83847,1,0,0:0:0:0:
402,192,83932,1,0,0:0:0:0:
329,192,84017,1,0,0:0:0:0:
109,192,84017,1,0,0:0:0:0:
182,192,84102,1,0,0:0:0:0:
256,192,84186,1,0,0:0:0:0:
475,192,84186,1,0,0:0:0:0:
402,192,84186,1,0,0:0:0:0:
36,192,84186,1,0,0:0:0:0:
109,192,84271,1,0,0:0:0:0:
329,192,84271,1,0,0:0:0:0:
182,192,84356,1,0,0:0:0:0:
475,192,84356,1,0,0:0:0:0:
36,192,84356,1,0,0:0:0:0:
402,192,84441,1,0,0:0:0:0:
256,192,84441,1,0,0:0:0:0:
329,192,84525,1,0,0:0:0:0:
109,192,84525,1,0,0:0:0:0:
36,192,84525,1,0,0:0:0:0:
182,192,84610,1,0,0:0:0:0:
402,192,84610,1,0,0:0:0:0:
475,192,84695,1,0,0:0:0:0:
256,192,84695,1,0,0:0:0:0:
329,192,84780,1,0,0:0:0:0:
402,192,84864,1,0,0:0:0:0:
475,192,84864,1,0,0:0:0:0:
182,192,84864,1,0,0:0:0:0:
109,192,84949,1,0,0:0:0:0:
36,192,85034,1,0,0:0:0:0:
329,192,85034,1,0,0:0:0:0:
256,192,85034,1,0,0:0:0:0:
402,192,85119,1,0,0:0:0:0:
475,192,85203,1,0,0:0:0:0:
182,192,85203,1,0,0:0:0:0:
36,192,85203,1,0,0:0:0:0:
256,192,85288,1,0,0:0:0:0:
329,192,85373,1,0,0:0:0:0:
475,192,85373,1,0,0:0:0:0:
109,192,85373,1,0,0:0:0:0:
36,192,85458,1,0,0:0:0:0:
182,192,85542,1,0,0:0:0:0:
402,192,85542,1,0,0:0:0:0:
475,192,85542,1,0,0:0:0:0:
256,192,85542,1,0,0:0:0:0:
329,192,85627,1,0,0:0:0:0:
402,192,85712,1,0,0:0:0:0:
109,192,85712,1,0,0:0:0:0:
182,192,85797,1,0,0:0:0:0:
329,192,85797,1,0,0:0:0:0:
256,192,85881,1,0,0:0:0:0:
475,192,85881,1,0,0:0:0:0:
36,192,85881,1,0,0:0:0:0:
182,192,85966,1,0,0:0:0:0:
109,192,86051,1,0,0:0:0:0:
402,192,86051,1,0,0:0:0:0:
329,192,86136,1,0,0:0:0:0:
182,192,86136,1,0,0:0:0:0:
256,192,86220,1,0,0:0:0:0:
36,192,86220,1,0,0:0:0:0:
475,192,86220,1,0,0:0:0:0:
402,192,86220,1,0,0:0:0:0:
109,192,86305,1,0,0:0:0:0:
329,192,86305,1,0,0:0:0:0:
402,192,86390,1,0,0:0:0:0:
182,192,86390,1,0,0:0:0:0:
329,192,86475,1,0,0:0:0:0:
109,192,86475,1,0,0:0:0:0:
256,192,86559,1,0,0:0:0:0:
36,192,86559,1,0,0:0:0:0:
475,192,86559,1,0,0:0:0:0:
182,192,86559,1,0,0:0:0:0:
329,192,86644,1,0,0:0:0:0:
402,192,86729,1,0,0:0:0:0:
182,192,86729,1,0,0:0:0:0:
109,192,86814,1,0,0:0:0:0:
36,192,86898,1,0,0:0:0:0:
256,192,86898,1,0,0:0:0:0:
475,192,86898,1,0,0:0:0:0:
329,192,86898,1,0,0:0:0:0:
182,192,86983,1,0,0:0:0:0:
109,192,87068,1,0,0:0:0:0:
329,192,87068,1,0,0:0:0:0:
475,192,87068,1,0,0:0:0:0:
256,192,87153,1,0,0:0:0:0:
182,192,87237,1,0,0:0:0:0:
36,192,87237,1,0,0:0:0:0:
402,192,87237,1,0,0:0:0:0:
329,192,87322,1,0,0:0:0:0:
256,192,87407,1,0,0:0:0:0:
109,192,87407,1,0,0:0:0:0:
402,192,87492,1,0,0:0:0:0:
329,192,87576,1,0,0:0:0:0:
182,192,87576,1,0,0:0:0:0:
475,192,87576,1,0,0:0:0:0:
36,192,87576,1,0,0:0:0:0:
256,192,87661,1,0,0:0:0:0:
402,192,87746,1,0,0:0:0:0:
182,192,87746,1,0,0:0:0:0:
329,192,87831,1,0,0:0:0:0:
109,192,87831,1,0,0:0:0:0:
256,192,87915,1,0,0:0:0:0:
36,192,87915,1,0,0:0:0:0:
475,192,87915,1,0,0:0:0:0:
182,192,87915,1,0,0:0:0:0:
329,192,88000,1,0,0:0:0:0:
109,192,88000,1,0,0:0:0:0:
182,192,88085,1,0,0:0:0:0:
402,192,88085,1,0,0:0:0:0:
329,192,88170,1,0,0:0:0:0:
109,192,88170,1,0,0:0:0:0:
256,192,88254,1,0,0:0:0:0:
36,192,88254,1,0,0:0:0:0:
402,192,88254,1,0,0:0:0:0:
475,192,88254,1,0,0:0:0:0:
182,192,88339,1,0,0:0:0:0:
329,192,88424,1,0,0:0:0:0:
109,192,88424,1,0,0:0:0:0:
36,192,88424,1,0,0:0:0:0:
182,192,88508,1,0,0:0:0:0:
402,192,88508,1,0,0:0:0:0:
475,192,88593,1,0,0:0:0:0:
256,192,88593,1,0,0:0:0:0:
109,192,88593,1,0,0:0:0:0:
36,192,88593,1,0,0:0:0:0:
329,192,88678,1,0,0:0:0:0:
402,192,88763,1,0,0:0:0:0:
182,192,88763,1,0,0:0:0:0:
36,192,88847,1,0,0:0:0:0:
109,192,88932,1,0,0:0:0:0:
256,192,88932,1,0,0:0:0:0:
475,192,88932,1,0,0:0:0:0:
329,192,88932,1,0,0:0:0:0:
402,192,89017,1,0,0:0:0:0:
182,192,89102,1,0,0:0:0:0:
36,192,89102,1,0,0:0:0:0:
256,192,89186,1,0,0:0:0:0:
329,192,89271,1,0,0:0:0:0:
475,192,89271,1,0,0:0:0:0:
109,192,89271,1,0,0:0:0:0:
36,192,89271,1,0,0:0:0:0:
182,192,89356,1,0,0:0:0:0:
402,192,89441,1,0,0:0:0:0:
256,192,89441,1,0,0:0:0:0:
36,192,89441,1,0,0:0:0:0:
109,192,89525,1,0,0:0:0:0:
182,192,89610,1,0,0:0:0:0:
329,192,89610,1,0,0:0:0:0:
475,192,89610,1,0,0:0:0:0:
36,192,89610,1,0,0:0:0:0:
402,192,89695,1,0,0:0:0:0:
329,192,89780,1,0,0:0:0:0:
182,192,89780,1,0,0:0:0:0:
475,192,89864,1,0,0:0:0:0:
402,192,89949,1,0,0:0:0:0:
256,192,89949,1,0,0:0:0:0:
109,192,89949,1,0,0:0:0:0:
36,192,89949,1,0,0:0:0:0:
475,192,90034,1,0,0:0:0:0:
329,192,90119,1,0,0:0:0:0:
182,192,90119,1,0,0:0:0:0:
402,192,90203,1,0,0:0:0:0:
256,192,90288,1,0,0:0:0:0:
36,192,90288,1,0,0:0:0:0:
475,192,90288,1,0,0:0:0:0:
109,192,90288,1,0,0:0:0:0:
329,192,90373,1,0,0:0:0:0:
109,192,90458,1,0,0:0:0:0:
402,192,90458,1,0,0:0:0:0:
256,192,90458,1,0,0:0:0:0:
36,192,90542,1,0,0:0:0:0:
182,192,90627,1,0,0:0:0:0:
475,192,90627,1,0,0:0:0:0:
329,192,90627,1,0,0:0:0:0:
109,192,90712,1,0,0:0:0:0:
256,192,90797,1,0,0:0:0:0:
402,192,90797,1,0,0:0:0:0:
475,192,90797,1,0,0:0:0:0:
182,192,90881,1,0,0:0:0:0:
329,192,90966,1,0,0:0:0:0:
109,192,90966,1,0,0:0:0:0:
36,192,90966,1,0,0:0:0:0:
475,192,90966,1,0,0:0:0:0:
182,192,91051,1,0,0:0:0:0:
256,192,91136,1,0,0:0:0:0:
402,192,91136,1,0,0:0:0:0:
36,192,91220,1,0,0:0:0:0:
329,192,91305,1,0,0:0:0:0:
109,192,91305,1,0,0:0:0:0:
475,192,91305,1,0,0:0:0:0:
182,192,91305,1,0,0:0:0:0:
36,192,91390,1,0,0:0:0:0:
182,192,91475,1,0,0:0:0:0:
329,192,91475,1,0,0:0:0:0:
475,192,91475,1,0,0:0:0:0:
109,192,91559,1,0,0:0:0:0:
402,192,91559,1,0,0:0:0:0:
256,192,91559,1,0,0:0:0:0:
36,192,91644,1,0,0:0:0:0:
182,192,91644,1,0,0:0:0:0:
329,192,91644,1,0,0:0:0:0:
402,192,91729,1,0,0:0:0:0:
475,192,91729,1,0,0:0:0:0:
329,192,91814,1,0,0:0:0:0:
256,192,91814,1,0,0:0:0:0:
182,192,91814,1,0,0:0:0:0:
109,192,91898,1,0,0:0:0:0:
36,192,91898,1,0,0:0:0:0:
329,192,91983,1,0,0:0:0:0:
402,192,91983,1,0,0:0:0:0:
475,192,91983,1,0,0:0:0:0:
256,192,91983,1,0,0:0:0:0:
182,192,91983,1,0,0:0:0:0:
109,192,92237,1,0,0:0:0:0:
182,192,92237,1,0,0:0:0:0:
256,192,92237,1,0,0:0:0:0:
402,192,92237,1,0,0:0:0:0:
329,192,92237,1,0,0:0:0:0:
36,192,92492,1,0,0:0:0:0:
109,192,92492,1,0,0:0:0:0:
182,192,92492,1,0,0:0:0:0:
256,192,92492,1,0,0:0:0:0:
329,192,92492,1,0,0:0:0:0:
475,192,92661,128,0,93000:0:0:0:0:
329,192,92661,1,0,0:0:0:0:
182,192,92661,1,0,0:0:0:0:
36,192,92661,1,0,0:0:0:0:
109,192,92661,1,0,0:0:0:0:
182,192,92831,1,0,0:0:0:0:
36,192,92831,1,0,0:0:0:0:
329,192,93000,128,0,93339:0:0:0:0:
36,192,93170,1,0,0:0:0:0:
475,192,93170,128,0,93339:0:0:0:0:
182,192,93170,1,0,0:0:0:0:
256,192,93339,1,0,0:0:0:0:
182,192,93339,1,0,0:0:0:0:
109,192,93339,1,0,0:0:0:0:
36,192,93339,1,0,0:0:0:0:
329,192,93508,1,0,0:0:0:0:
475,192,93508,1,0,0:0:0:0:
256,192,93678,128,0,94017:0:0:0:0:
182,192,93847,1,0,0:0:0:0:
109,192,93932,1,0,0:0:0:0:
36,192,94017,128,0,94356:0:0:0:0:
329,192,94017,1,0,0:0:0:0:
402,192,94017,1,0,0:0:0:0:
475,192,94017,1,0,0:0:0:0:
329,192,94186,1,0,0:0:0:0:
475,192,94186,1,0,0:0:0:0:
182,192,94356,128,0,94695:0:0:0:0:
36,192,94525,128,0,94695:0:0:0:0:
329,192,94525,1,0,0:0:0:0:
475,192,94525,1,0,0:0:0:0:
256,192,94695,1,0,0:0:0:0:
329,192,94695,1,0,0:0:0:0:
402,192,94695,1,0,0:0:0:0:
475,192,94695,1,0,0:0:0:0:
182,192,94864,1,0,0:0:0:0:
36,192,94864,1,0,0:0:0:0:
402,192,94864,128,0,95203:0:0:0:0:
256,192,95203,128,0,95373:0:0:0:0:
475,192,95373,128,0,95712:0:0:0:0:
182,192,95373,1,0,0:0:0:0:
109,192,95373,1,0,0:0:0:0:
36,192,95373,1,0,0:0:0:0:
36,192,95542,1,0,0:0:0:0:
182,192,95542,1,0,0:0:0:0:
329,192,95712,128,0,96136:0:0:0:0:
475,192,95881,128,0,96136:0:0:0:0:
182,192,95881,1,0,0:0:0:0:
36,192,95881,1,0,0:0:0:0:
256,192,96051,1,0,0:0:0:0:
182,192,96051,1,0,0:0:0:0:
109,192,96051,1,0,0:0:0:0:
36,192,96051,1,0,0:0:0:0:
329,192,96220,1,0,0:0:0:0:
475,192,96220,1,0,0:0:0:0:
256,192,96390,128,0,96898:0:0:0:0:
109,192,96390,1,0,0:0:0:0:
402,192,96390,1,0,0:0:0:0:
36,192,96559,1,0,0:0:0:0:
475,192,96559,1,0,0:0:0:0:
402,192,96644,1,0,0:0:0:0:
109,192,96644,1,0,0:0:0:0:
182,192,96729,1,0,0:0:0:0:
329,192,96729,1,0,0:0:0:0:
475,192,96729,1,0,0:0:0:0:
36,192,96729,1,0,0:0:0:0:
109,192,96898,1,0,0:0:0:0:
36,192,96898,1,0,0:0:0:0:
402,192,96898,1,0,0:0:0:0:
475,192,96898,1,0,0:0:0:0:
256,192,97068,1,0,0:0:0:0:
402,192,97237,1,0,0:0:0:0:
109,192,97237,1,0,0:0:0:0:
182,192,97407,1,0,0:0:0:0:
329,192,97407,1,0,0:0:0:0:
475,192,97407,1,0,0:0:0:0:
36,192,97407,1,0,0:0:0:0:
256,192,97407,1,0,0:0:0:0:
109,192,97661,1,0,0:0:0:0:
182,192,97661,1,0,0:0:0:0:
256,192,97661,1,0,0:0:0:0:
329,192,97661,1,0,0:0:0:0:
402,192,97661,1,0,0:0:0:0:
36,192,97915,1,0,0:0:0:0:
109,192,97915,1,0,0:0:0:0:
256,192,97915,1,0,0:0:0:0:
475,192,97915,1,0,0:0:0:0:
402,192,97915,1,0,0:0:0:0:
36,192,98085,1,0,0:0:0:0:
329,192,98085,128,0,98763:0:0:0:0:
109,192,98113,1,0,0:0:0:0:
182,192,98141,1,0,0:0:0:0:
36,192,98763,1,0,0:0:0:0:
182,192,98763,1,0,0:0:0:0:
109,192,98932,1,0,0:0:0:0:
256,192,98932,1,0,0:0:0:0:
182,192,99102,1,0,0:0:0:0:
329,192,99102,1,0,0:0:0:0:
256,192,99271,1,0,0:0:0:0:
402,192,99271,1,0,0:0:0:0:
36,192,99441,128,0,100034:0:0:0:0:
329,192,99441,1,0,0:0:0:0:
475,192,99441,1,0,0:0:0:0:
182,192,99780,128,0,100034:0:0:0:0:
329,192,99780,1,0,0:0:0:0:
475,192,99780,1,0,0:0:0:0:
475,192,100119,128,0,100712:0:0:0:0:
182,192,100119,1,0,0:0:0:0:
36,192,100119,1,0,0:0:0:0:
329,192,100458,128,0,100712:0:0:0:0:
182,192,100458,1,0,0:0:0:0:
36,192,100458,1,0,0:0:0:0:
109,192,100627,1,0,0:0:0:0:
36,192,100627,1,0,0:0:0:0:
182,192,100712,1,0,0:0:0:0:
109,192,100797,1,0,0:0:0:0:
36,192,100797,1,0,0:0:0:0:
402,192,100797,1,0,0:0:0:0:
475,192,100797,1,0,0:0:0:0:
256,192,100797,1,0,0:0:0:0:
256,192,100966,1,0,0:0:0:0:
256,192,101136,1,0,0:0:0:0:
109,192,101136,1,0,0:0:0:0:
402,192,101136,1,0,0:0:0:0:
256,192,101305,1,0,0:0:0:0:
182,192,101305,1,0,0:0:0:0:
329,192,101305,1,0,0:0:0:0:
475,192,101305,1,0,0:0:0:0:
36,192,101305,1,0,0:0:0:0:
256,192,101475,1,0,0:0:0:0:
256,192,101644,1,0,0:0:0:0:
109,192,101644,1,0,0:0:0:0:
402,192,101644,1,0,0:0:0:0:
256,192,101814,1,0,0:0:0:0:
182,192,101814,1,0,0:0:0:0:
329,192,101814,1,0,0:0:0:0:
475,192,101814,1,0,0:0:0:0:
36,192,101814,1,0,0:0:0:0:
109,192,101983,1,0,0:0:0:0:
402,192,101983,1,0,0:0:0:0:
256,192,101983,1,0,0:0:0:0:
182,192,102068,1,0,0:0:0:0:
329,192,102068,1,0,0:0:0:0:
256,192,102153,1,0,0:0:0:0:
402,192,102153,1,0,0:0:0:0:
475,192,102153,1,0,0:0:0:0:
109,192,102153,1,0,0:0:0:0:
36,192,102153,1,0,0:0:0:0:
36,192,102322,1,0,0:0:0:0:
109,192,102322,1,0,0:0:0:0:
256,192,102322,1,0,0:0:0:0:
402,192,102322,1,0,0:0:0:0:
475,192,102322,1,0,0:0:0:0:
182,192,103170,1,0,0:0:0:0:
329,192,103254,1,0,0:0:0:0:
182,192,103339,1,0,0:0:0:0:
329,192,103424,1,0,0:0:0:0:
256,192,103508,128,0,105881:0:0:0:0:
36,192,103508,1,0,0:0:0:0:
475,192,103508,1,0,0:0:0:0:
402,192,103508,1,0,0:0:0:0:
109,192,103508,1,0,0:0:0:0:
182,192,103593,1,0,0:0:0:0:
329,192,103678,1,0,0:0:0:0:
109,192,103678,1,0,0:0:0:0:
402,192,103763,1,0,0:0:0:0:
475,192,103847,1,0,0:0:0:0:
329,192,103847,1,0,0:0:0:0:
182,192,103847,1,0,0:0:0:0:
109,192,103932,1,0,0:0:0:0:
36,192,104017,1,0,0:0:0:0:
475,192,104017,1,0,0:0:0:0:
402,192,104102,1,0,0:0:0:0:
329,192,104186,1,0,0:0:0:0:
182,192,104186,1,0,0:0:0:0:
36,192,104186,1,0,0:0:0:0:
402,192,104271,1,0,0:0:0:0:
475,192,104356,1,0,0:0:0:0:
36,192,104356,1,0,0:0:0:0:
109,192,104441,1,0,0:0:0:0:
182,192,104525,1,0,0:0:0:0:
329,192,104525,1,0,0:0:0:0:
475,192,104525,1,0,0:0:0:0:
109,192,104610,1,0,0:0:0:0:
36,192,104695,1,0,0:0:0:0:
329,192,104695,1,0,0:0:0:0:
402,192,104780,1,0,0:0:0:0:
475,192,104864,1,0,0:0:0:0:
109,192,104864,1,0,0:0:0:0:
36,192,104864,1,0,0:0:0:0:
182,192,104949,1,0,0:0:0:0:
329,192,105034,1,0,0:0:0:0:
36,192,105034,1,0,0:0:0:0:
109,192,105119,1,0,0:0:0:0:
182,192,105203,1,0,0:0:0:0:
402,192,105203,1,0,0:0:0:0:
475,192,105203,1,0,0:0:0:0:
329,192,105288,1,0,0:0:0:0:
109,192,105373,1,0,0:0:0:0:
475,192,105373,1,0,0:0:0:0:
182,192,105458,1,0,0:0:0:0:
329,192,105542,1,0,0:0:0:0:
475,192,105542,1,0,0:0:0:0:
36,192,105542,1,0,0:0:0:0:
182,192,105627,1,0,0:0:0:0:
109,192,105712,1,0,0:0:0:0:
402,192,105712,1,0,0:0:0:0:
329,192,105797,1,0,0:0:0:0:
182,192,105881,1,0,0:0:0:0:
36,192,105881,1,0,0:0:0:0:
402,192,105881,1,0,0:0:0:0:
475,192,105881,1,0,0:0:0:0:
109,192,106051,1,0,0:0:0:0:
329,192,106051,1,0,0:0:0:0:
182,192,106136,1,0,0:0:0:0:
402,192,106136,1,0,0:0:0:0:
256,192,106220,1,0,0:0:0:0:
475,192,106220,1,0,0:0:0:0:
36,192,106220,1,0,0:0:0:0:
109,192,106220,1,0,0:0:0:0:
109,192,106390,1,0,0:0:0:0:
182,192,106390,1,0,0:0:0:0:
402,192,106390,1,0,0:0:0:0:
256,192,106559,1,0,0:0:0:0:
329,192,106559,1,0,0:0:0:0:
475,192,106559,1,0,0:0:0:0:
182,192,106559,1,0,0:0:0:0:
36,192,106559,1,0,0:0:0:0:
182,192,106729,1,0,0:0:0:0:
402,192,106729,1,0,0:0:0:0:
329,192,106814,1,0,0:0:0:0:
109,192,106814,1,0,0:0:0:0:
256,192,106898,1,0,0:0:0:0:
36,192,106898,1,0,0:0:0:0:
475,192,106898,1,0,0:0:0:0:
182,192,106983,1,0,0:0:0:0:
402,192,106983,1,0,0:0:0:0:
329,192,107068,1,0,0:0:0:0:
109,192,107068,1,0,0:0:0:0:
36,192,107153,1,0,0:0:0:0:
256,192,107153,1,0,0:0:0:0:
182,192,107237,1,0,0:0:0:0:
402,192,107237,1,0,0:0:0:0:
475,192,107237,1,0,0:0:0:0:
329,192,107237,1,0,0:0:0:0:
36,192,107407,1,0,0:0:0:0:
256,192,107407,1,0,0:0:0:0:
109,192,107492,1,0,0:0:0:0:
329,192,107492,1,0,0:0:0:0:
182,192,107576,1,0,0:0:0:0:
402,192,107576,1,0,0:0:0:0:
475,192,107576,1,0,0:0:0:0:
36,192,107576,1,0,0:0:0:0:
109,192,107746,1,0,0:0:0:0:
256,192,107746,1,0,0:0:0:0:
402,192,107746,1,0,0:0:0:0:
182,192,107831,1,0,0:0:0:0:
329,192,107831,1,0,0:0:0:0:
475,192,107831,1,0,0:0:0:0:
256,192,107915,1,0,0:0:0:0:
402,192,107915,1,0,0:0:0:0:
109,192,107915,1,0,0:0:0:0:
36,192,108000,1,0,0:0:0:0:
182,192,108000,1,0,0:0:0:0:
329,192,108000,1,0,0:0:0:0:
109,192,108085,1,0,0:0:0:0:
256,192,108085,1,0,0:0:0:0:
402,192,108085,1,0,0:0:0:0:
329,192,108170,1,0,0:0:0:0:
475,192,108170,1,0,0:0:0:0:
182,192,108170,1,0,0:0:0:0:
256,192,108254,1,0,0:0:0:0:
109,192,108254,1,0,0:0:0:0:
36,192,108254,1,0,0:0:0:0:
402,192,108254,1,0,0:0:0:0:
182,192,108339,1,0,0:0:0:0:
329,192,108339,1,0,0:0:0:0:
475,192,108339,1,0,0:0:0:0:
402,192,108424,1,0,0:0:0:0:
256,192,108424,1,0,0:0:0:0:
109,192,108424,1,0,0:0:0:0:
36,192,108508,1,0,0:0:0:0:
182,192,108508,1,0,0:0:0:0:
329,192,108508,1,0,0:0:0:0:
256,192,108593,1,0,0:0:0:0:
402,192,108593,1,0,0:0:0:0:
475,192,108593,1,0,0:0:0:0:
109,192,108593,1,0,0:0:0:0:
182,192,108678,1,0,0:0:0:0:
36,192,108678,1,0,0:0:0:0:
329,192,108678,1,0,0:0:0:0:
109,192,108763,1,0,0:0:0:0:
256,192,108763,1,0,0:0:0:0:
402,192,108763,1,0,0:0:0:0:
182,192,108847,1,0,0:0:0:0:
329,192,108847,1,0,0:0:0:0:
475,192,108847,1,0,0:0:0:0:
402,192,108932,1,0,0:0:0:0:
256,192,108932,1,0,0:0:0:0:
109,192,108932,1,0,0:0:0:0:
36,192,108932,1,0,0:0:0:0:
256,192,109102,1,0,0:0:0:0:
36,192,109102,1,0,0:0:0:0:
109,192,109271,1,0,0:0:0:0:
182,192,109271,1,0,0:0:0:0:
329,192,109271,1,0,0:0:0:0:
475,192,109271,1,0,0:0:0:0:
182,192,109441,1,0,0:0:0:0:
329,192,109441,1,0,0:0:0:0:
256,192,109610,1,0,0:0:0:0:
402,192,109610,1,0,0:0:0:0:
475,192,109610,1,0,0:0:0:0:
109,192,109610,1,0,0:0:0:0:
256,192,109780,1,0,0:0:0:0:
475,192,109780,1,0,0:0:0:0:
36,192,109949,1,0,0:0:0:0:
182,192,109949,1,0,0:0:0:0:
329,192,109949,1,0,0:0:0:0:
402,192,109949,1,0,0:0:0:0:
329,192,110119,1,0,0:0:0:0:
182,192,110119,1,0,0:0:0:0:
109,192,110288,1,0,0:0:0:0:
36,192,110288,1,0,0:0:0:0:
256,192,110288,1,0,0:0:0:0:
475,192,110288,1,0,0:0:0:0:
36,192,110458,1,0,0:0:0:0:
256,192,110458,1,0,0:0:0:0:
109,192,110627,1,0,0:0:0:0:
182,192,110627,1,0,0:0:0:0:
329,192,110627,1,0,0:0:0:0:
475,192,110627,1,0,0:0:0:0:
182,192,110797,1,0,0:0:0:0:
329,192,110797,1,0,0:0:0:0:
256,192,110966,1,0,0:0:0:0:
402,192,110966,1,0,0:0:0:0:
475,192,110966,1,0,0:0:0:0:
36,192,110966,1,0,0:0:0:0:
475,192,111136,1,0,0:0:0:0:
256,192,111136,1,0,0:0:0:0:
182,192,111305,1,0,0:0:0:0:
36,192,111305,1,0,0:0:0:0:
329,192,111305,1,0,0:0:0:0:
402,192,111305,1,0,0:0:0:0:
329,192,111475,1,0,0:0:0:0:
182,192,111475,1,0,0:0:0:0:
36,192,111644,1,0,0:0:0:0:
256,192,111644,1,0,0:0:0:0:
402,192,111644,1,0,0:0:0:0:
475,192,111644,1,0,0:0:0:0:
329,192,111644,1,0,0:0:0:0:
36,192,111814,1,0,0:0:0:0:
36,192,111983,1,0,0:0:0:0:
109,192,111983,1,0,0:0:0:0:
36,192,112153,1,0,0:0:0:0:
109,192,112153,1,0,0:0:0:0:
36,192,112322,1,0,0:0:0:0:
109,192,112322,1,0,0:0:0:0:
182,192,112322,1,0,0:0:0:0:
36,192,112492,1,0,0:0:0:0:
109,192,112492,1,0,0:0:0:0:
182,192,112492,1,0,0:0:0:0:
36,192,112661,1,0,0:0:0:0:
109,192,112661,1,0,0:0:0:0:
182,192,112661,1,0,0:0:0:0:
256,192,112661,1,0,0:0:0:0:
36,192,112831,1,0,0:0:0:0:
109,192,112831,1,0,0:0:0:0:
182,192,112831,1,0,0:0:0:0:
256,192,112831,1,0,0:0:0:0:
36,192,113000,1,0,0:0:0:0:
109,192,113000,1,0,0:0:0:0:
182,192,113000,1,0,0:0:0:0:
256,192,113000,1,0,0:0:0:0:
329,192,113000,1,0,0:0:0:0:
36,192,113170,1,0,0:0:0:0:
109,192,113170,1,0,0:0:0:0:
182,192,113170,1,0,0:0:0:0:
256,192,113170,1,0,0:0:0:0:
329,192,113170,1,0,0:0:0:0:
36,192,113339,1,0,0:0:0:0:
109,192,113339,1,0,0:0:0:0:
182,192,113339,1,0,0:0:0:0:
256,192,113339,1,0,0:0:0:0:
329,192,113339,1,0,0:0:0:0:
402,192,113339,1,0,0:0:0:0:
36,192,113508,1,0,0:0:0:0:
109,192,113508,1,0,0:0:0:0:
256,192,113508,1,0,0:0:0:0:
182,192,113508,1,0,0:0:0:0:
329,192,113508,1,0,0:0:0:0:
402,192,113508,1,0,0:0:0:0:
109,192,113678,1,0,0:0:0:0:
36,192,113678,1,0,0:0:0:0:
402,192,113678,1,0,0:0:0:0:
475,192,113678,1,0,0:0:0:0:
182,192,113763,1,0,0:0:0:0:
256,192,113763,1,0,0:0:0:0:
329,192,113763,1,0,0:0:0:0:
109,192,113847,1,0,0:0:0:0:
36,192,113847,1,0,0:0:0:0:
402,192,113847,1,0,0:0:0:0:
475,192,113847,1,0,0:0:0:0:
329,192,113932,1,0,0:0:0:0:
182,192,113932,1,0,0:0:0:0:
256,192,114017,1,0,0:0:0:0:
402,192,114017,1,0,0:0:0:0:
475,192,114017,1,0,0:0:0:0:
36,192,114017,1,0,0:0:0:0:
109,192,114017,1,0,0:0:0:0:
182,192,114102,1,0,0:0:0:0:
329,192,114102,1,0,0:0:0:0:
256,192,114186,1,0,0:0:0:0:
402,192,114186,1,0,0:0:0:0:
475,192,114186,1,0,0:0:0:0:
36,192,114186,1,0,0:0:0:0:
109,192,114186,1,0,0:0:0:0:
182,192,114271,1,0,0:0:0:0:
329,192,114271,1,0,0:0:0:0:
402,192,114356,1,0,0:0:0:0:
109,192,114356,1,0,0:0:0:0:
36,192,114356,128,0,119780:0:0:0:0:
256,192,114356,128,0,117068:0:0:0:0:
475,192,114356,128,0,119780:0:0:0:0:
109,192,114864,1,0,0:0:0:0:
182,192,115373,1,0,0:0:0:0:
329,192,115881,1,0,0:0:0:0:
402,192,116390,1,0,0:0:0:0:
329,192,116729,1,0,0:0:0:0:
109,192,117068,1,0,0:0:0:0:
402,192,117068,1,0,0:0:0:0:
182,192,117576,1,0,0:0:0:0:
329,192,118085,1,0,0:0:0:0:
402,192,118593,1,0,0:0:0:0:
329,192,119271,1,0,0:0:0:0:
256,192,119441,1,0,0:0:0:0:
182,192,119610,1,0,0:0:0:0:
