osu file format v14

[General]
AudioFilename: audio.mp3
AudioLeadIn: 0
PreviewTime: 59029
Countdown: 0
SampleSet: Soft
StackLeniency: 0.7
Mode: 0
LetterboxInBreaks: 0
WidescreenStoryboard: 1

[Editor]
Bookmarks: 46559,54695,60119
DistanceSpacing: 1.4
BeatDivisor: 4
GridSize: 4
TimelineZoom: 1

[Metadata]
Title:Atlantico Blue
TitleUnicode:Atlantico Blue
Artist:Sasaki Sayaka
ArtistUnicode:佐咲紗花
Creator:Elasia
Version:Hard
Source:
Tags:
BeatmapID:1583450
BeatmapSetID:454249

[Difficulty]
HPDrainRate:5
CircleSize:3.5
OverallDifficulty:6
ApproachRate:8
SliderMultiplier:1.4
SliderTickRate:1

[Events]
//Background and Video events
0,0,"image.jpg",0,0
//Break Periods
//Storyboard Layer 0 (Background)
//Storyboard Layer 1 (Fail)
//Storyboard Layer 2 (Pass)
//Storyboard Layer 3 (Foreground)
//Storyboard Layer 4 (Overlay)
//Storyboard Sound Samples

[TimingPoints]
3170,338.983050847458,4,2,1,40,1,0
3170,-111.111111111111,4,2,1,40,0,0
11644,-111.111111111111,4,2,1,45,0,0
11983,-111.111111111111,4,2,1,55,0,0
12322,-111.111111111111,4,2,1,65,0,0
12831,-111.111111111111,4,2,1,45,0,0
13339,-111.111111111111,4,2,1,55,0,0
14017,-100,4,2,1,60,0,0
24864,-100,4,2,1,50,0,0
46559,-111.111111111111,4,2,1,50,0,0
54695,-100,4,2,1,55,0,0
56051,-100,4,2,1,60,0,0
57407,-100,4,2,1,65,0,0
60119,-100,4,2,1,75,0,1
92661,-111.111111111111,4,2,1,60,0,0
98085,-153.846153846154,4,2,1,40,0,0
100797,-100,4,2,1,60,0,0
111644,-100,4,2,1,50,0,0
112322,-100,4,2,1,60,0,0
113000,-100,4,2,1,70,0,0
114441,-100,4,2,1,50,0,0
115712,-100,4,2,1,40,0,0
117068,-100,4,2,1,30,0,0
118424,-100,4,2,1,20,0,0

[HitObjects]
32,208,3170,6,0,P|88:204|132:256,1,125.999996154785
100,336,3678,2,0,L|236:352,1,125.999996154785
296,296,4186,2,0,L|358:288,1,62.9999980773926
424,348,4525,6,0,P|404:288|440:224,1,125.999996154785
496,180,5034,2,0,L|356:168,1,125.999996154785
296,120,5542,2,0,L|233:125,1,62.9999980773926
156,168,5881,6,0,P|152:144|148:104,2,62.9999980773926
228,220,6390,2,0,P|164:216|96:256,1,125.999996154785
48,304,6898,2,0,L|55:366,1,62.9999980773926
4,228,7237,6,0,P|16:180|24:100,1,125.999996154785
176,16,7915,2,0,P|181:78|195:139,1,125.999996154785
260,224,8424,5,0,0:0:0:0:
260,224,8508,1,0,0:0:0:0:
260,224,8593,2,0,L|132:220,1,125.999996154785
108,308,9102,1,0,0:0:0:0:
108,308,9271,2,0,L|176:304,1,62.9999980773926
252,336,9610,2,0,L|320:340,1,62.9999980773926
396,304,9949,6,0,P|401:334|404:368,2,62.9999980773926
324,252,10458,1,0,0:0:0:0:
324,252,10627,2,0,P|329:221|332:188,1,62.9999980773926
260,136,10966,2,0,P|252:100|248:64,1,62.9999980773926
272,44,11220,1,0,0:0:0:0:
272,44,11305,6,0,L|208:40,1,62.9999980773926
140,104,11644,2,0,L|76:108,1,62.9999980773926
4,48,11983,1,0,0:0:0:0:
4,48,12153,1,0,0:0:0:0:
20,184,12322,1,0,0:0:0:0:
20,184,12492,1,0,0:0:0:0:
376,28,13339,6,0,L|372:76,3,31.4999990386963
408,76,13678,2,0,L|412:124,3,31.4999990386963
444,136,14017,6,0,B|368:128|384:164|288:140,1,140
224,92,14525,1,0,0:0:0:0:
224,92,14695,2,0,P|175:73|124:81,2,105
164,168,15373,6,0,L|156:252,1,70
236,296,15712,1,0,0:0:0:0:
236,296,15881,2,0,L|244:380,1,70
332,320,16220,2,0,L|324:236,1,70
268,172,16559,1,0,0:0:0:0:
268,172,16644,1,0,0:0:0:0:
268,172,16729,6,0,P|324:196|408:188,1,140
476,128,17237,1,0,0:0:0:0:
400,68,17407,2,0,P|358:50|295:56,2,105
476,128,18085,6,0,L|464:224,1,70
512,284,18424,1,0,0:0:0:0:
512,284,18593,2,0,L|440:292,1,70
368,228,18932,1,0,0:0:0:0:
304,300,19102,2,0,L|308:340,3,35
336,364,19441,6,0,P|364:368|420:372,1,70
332,216,19780,2,0,P|281:213|238:242,1,105
221,281,20119,2,0,P|173:277|137:273,1,70
28,200,20458,2,0,P|80:202|123:173,1,105
140,136,20797,6,0,P|136:104|136:36,1,70
260,20,21136,2,0,P|312:16|360:44,1,105
380,76,21475,1,0,0:0:0:0:
308,140,21644,2,0,L|268:144,2,35
368,216,21983,1,0,0:0:0:0:
368,216,22068,1,0,0:0:0:0:
368,216,22153,6,0,P|300:244|212:216,1,140
144,200,22661,1,0,0:0:0:0:
144,200,22831,2,0,P|148:232|152:280,2,70
64,144,23339,1,0,0:0:0:0:
64,144,23424,1,0,0:0:0:0:
64,144,23508,6,0,P|136:148|194:115,1,140
248,36,24017,1,0,0:0:0:0:
248,36,24186,2,0,L|324:44,1,70
396,100,24525,2,0,L|434:96,3,35
468,116,24864,6,0,P|504:160|472:248,1,140
412,296,25373,2,0,L|264:312,1,140
216,232,25881,1,0,0:0:0:0:
132,280,26051,1,0,0:0:0:0:
132,280,26220,6,0,P|168:236|136:148,1,140
72,104,26729,2,0,L|-8:112,1,70
28,16,27068,2,0,L|108:8,1,70
172,68,27407,1,0,0:0:0:0:
172,68,27576,6,0,L|332:80,2,140
97,9,28424,1,0,0:0:0:0:
72,104,28593,2,0,L|80:192,1,70
168,208,28932,6,0,L|160:296,1,70
108,360,29271,2,0,P|172:320|256:352,1,140
324,380,29780,1,0,0:0:0:0:
324,380,29949,2,0,L|317:310,1,70
268,228,30288,6,0,P|332:268|416:236,1,140
468,196,30797,2,0,L|480:52,1,140
396,8,31305,1,0,0:0:0:0:
312,56,31475,1,0,0:0:0:0:
312,56,31644,6,0,L|323:195,1,140
372,280,32153,1,0,0:0:0:0:
372,280,32322,2,0,P|337:284|302:286,1,70
216,244,32661,2,0,P|168:240|146:236,1,70
56,184,33000,6,0,P|59:238|68:324,2,140
136,128,33847,1,0,0:0:0:0:
136,128,34017,2,0,L|142:58,1,70
232,20,34356,6,0,L|240:92,1,70
316,160,34695,2,0,L|308:232,1,70
208,268,35034,1,0,0:0:0:0:
292,328,35203,1,0,0:0:0:0:
292,328,35288,1,0,0:0:0:0:
292,328,35373,2,0,L|336:320,3,35
356,352,35712,6,0,L|432:356,1,70
492,284,36051,1,0,0:0:0:0:
492,284,36220,2,0,P|456:236|464:148,1,140
500,72,36729,1,0,0:0:0:0:
412,28,36898,1,0,0:0:0:0:
412,28,37068,6,0,B|336:24|356:68|264:56,1,140
188,20,37576,1,0,0:0:0:0:
148,112,37746,2,0,P|144:136|140:200,2,70
240,160,38254,1,0,0:0:0:0:
240,160,38424,6,0,L|332:168,1,70
396,120,38763,1,0,0:0:0:0:
396,120,38932,2,0,P|356:172|368:264,1,140
424,312,39441,2,0,L|516:304,1,70
348,372,39780,5,0,0:0:0:0:
348,372,39949,1,0,0:0:0:0:
260,328,40119,2,0,P|252:258|246:188,1,140
320,124,40627,1,0,0:0:0:0:
320,124,40797,2,0,P|324:92|327:54,1,70
228,96,41136,6,0,P|188:104|140:108,1,70
80,52,41475,1,0,0:0:0:0:
80,52,41644,2,0,P|112:120|68:196,1,140
24,248,42153,1,0,0:0:0:0:
116,280,42322,1,0,0:0:0:0:
116,280,42492,6,0,P|172:276|204:272,1,70
256,204,42831,1,0,0:0:0:0:
256,204,43000,2,0,P|332:204|372:264,1,140
332,340,43508,2,0,P|364:344|420:348,1,70
496,300,43847,6,0,P|504:336|508:376,2,70
424,220,44356,1,0,0:0:0:0:
424,220,44525,2,0,L|432:144,1,70
472,52,44864,2,0,P|432:60|384:64,1,70
308,24,45203,6,0,P|280:20|232:16,1,70
200,116,45542,2,0,P|234:120|269:123,1,70
112,56,45881,1,0,0:0:0:0:
60,148,46051,1,0,0:0:0:0:
60,148,46136,1,0,0:0:0:0:
60,148,46220,2,0,P|64:196|68:224,1,70
16,304,46559,5,0,0:0:0:0:
16,304,46729,2,0,L|148:316,1,125.999996154785
216,268,47237,2,0,P|256:264|284:260,1,62.9999980773926
348,204,47576,2,0,P|388:208|416:212,1,62.9999980773926
476,272,47915,5,0,0:0:0:0:
476,272,48085,2,0,P|444:324|372:320,1,125.999996154785
304,283,48593,2,0,P|292:329|305:374,2,94.499997116089
348,204,49271,5,0,0:0:0:0:
348,204,49441,2,0,L|336:72,1,125.999996154785
256,40,49949,2,0,P|252:72|249:102,1,62.9999980773926
168,136,50288,2,0,P|165:104|161:73,1,62.9999980773926
96,12,50627,6,0,P|80:12|28:8,1,62.9999980773926
0,100,50966,2,0,P|16:100|68:104,1,62.9999980773926
104,184,51305,1,0,0:0:0:0:
32,240,51475,1,0,0:0:0:0:
32,240,51559,1,0,0:0:0:0:
32,240,51644,2,0,L|24:300,3,31.4999990386963
8,304,51983,6,0,P|36:300|80:296,1,62.9999980773926
140,356,52322,2,0,P|171:360|202:363,1,62.9999980773926
232,268,52661,2,0,P|263:265|294:260,1,62.9999980773926
356,336,53000,2,0,P|387:338|418:343,1,62.9999980773926
500,296,53339,6,0,P|496:268|492:220,1,62.9999980773926
408,192,53678,2,0,P|405:223|400:254,1,62.9999980773926
316,212,54017,2,0,P|312:168|300:96,2,94.499997116089
296,308,54695,6,0,P|233:332|176:296,1,140
200,200,55203,1,0,0:0:0:0:
200,200,55373,2,0,P|165:203|130:209,1,70
88,300,55712,2,0,P|53:296|18:290,1,70
0,192,56051,6,0,P|20:132|100:124,1,140
176,168,56559,1,0,0:0:0:0:
176,168,56729,2,0,P|224:176|268:180,1,70
308,100,57068,2,0,P|356:92|400:88,1,70
468,132,57407,6,0,P|475:97|479:63,2,70
392,204,57915,2,0,P|417:227|446:248,2,70
312,132,58424,2,0,P|300:168|292:220,1,70
340,292,58763,6,0,P|276:256|200:280,1,140
152,344,59271,1,0,0:0:0:0:
64,304,59441,2,0,L|60:256,3,35
88,236,59780,2,0,L|92:188,3,35
76,160,60119,6,0,P|134:195|202:182,1,140
260,104,60627,1,0,0:0:0:0:
216,16,60797,2,0,P|244:12|292:8,1,70
380,40,61136,1,0,0:0:0:0:
380,40,61305,1,0,0:0:0:0:
356,136,61475,6,0,P|348:168|344:208,1,70
440,188,61814,2,0,L|448:260,1,70
416,348,62153,2,0,P|467:351|516:324,2,105
352,276,62831,6,0,P|320:280|272:288,1,70
204,344,63170,1,0,0:0:0:0:
204,344,63339,2,0,P|172:340|124:332,1,70
40,356,63678,2,0,P|32:321|28:287,1,70
96,216,64017,1,0,0:0:0:0:
48,132,64186,6,0,P|112:168|196:148,1,140
252,100,64695,1,0,0:0:0:0:
328,160,64864,2,0,P|324:196|316:236,1,70
236,288,65203,1,0,0:0:0:0:
236,288,65373,1,0,0:0:0:0:
304,364,65542,6,0,P|344:320|432:332,1,140
512,364,66051,1,0,0:0:0:0:
500,268,66220,2,0,P|495:232|492:192,1,70
508,100,66559,1,0,0:0:0:0:
508,100,66729,1,0,0:0:0:0:
416,136,66898,6,0,P|380:144|328:148,1,70
260,96,67237,2,0,P|224:88|172:84,1,70
160,184,67576,2,0,P|208:204|260:201,2,105
64,140,68254,6,0,B|57:184|57:184|73:228|73:228|65:276,1,140
16,364,68763,2,0,P|50:371|84:375,1,70
172,316,69102,1,0,0:0:0:0:
172,316,69271,2,0,P|236:308|280:364,1,140
356,296,69780,5,0,0:0:0:0:
284,228,69949,2,0,P|276:192|272:156,1,70
356,92,70288,2,0,P|404:92|456:124,2,105
272,159,70966,6,0,P|238:167|203:170,1,70
160,80,71305,1,0,0:0:0:0:
72,128,71475,2,0,L|56:268,1,140
132,332,71983,2,0,P|166:324|200:323,1,70
288,368,72322,6,0,P|324:376|368:380,2,70
336,280,72831,1,0,0:0:0:0:
400,204,73000,2,0,P|364:184|284:196,2,105
492,256,73678,6,0,B|488:208|488:208|508:160|508:160|500:96,1,140
440,44,74186,2,0,P|404:52|348:56,1,70
280,16,74525,2,0,P|256:12|210:9,2,70
244,108,75034,6,0,P|248:144|256:192,1,70
340,224,75373,2,0,P|345:189|349:154,1,70
436,112,75712,2,0,L|456:268,1,140
400,332,76220,1,0,0:0:0:0:
400,332,76305,1,0,0:0:0:0:
400,332,76390,6,0,P|348:336|320:340,1,70
244,380,76729,1,0,0:0:0:0:
244,380,76898,2,0,P|188:376|152:372,1,70
88,328,77237,1,0,0:0:0:0:
40,240,77407,2,0,P|76:232|112:228,1,70
204,272,77746,6,0,P|248:228|236:140,1,140
176,80,78254,1,0,0:0:0:0:
272,32,78424,2,0,P|328:44|396:44,2,105
176,80,79102,6,0,P|100:68|36:120,1,140
16,192,79610,1,0,0:0:0:0:
16,192,79695,1,0,0:0:0:0:
16,192,79780,2,0,L|32:336,1,140
124,368,80288,1,0,0:0:0:0:
216,332,80458,6,0,L|260:340,2,35
168,244,80797,2,0,P|216:240|248:232,1,70
312,168,81136,2,0,L|352:172,3,35
372,136,81475,2,0,L|412:132,3,35
440,104,81814,6,0,P|372:112|312:72,1,140
244,4,82322,1,0,0:0:0:0:
156,52,82492,2,0,P|152:84|148:136,1,70
224,188,82831,1,0,0:0:0:0:
224,188,83000,1,0,0:0:0:0:
304,128,83170,6,0,P|340:120|396:124,1,70
444,192,83508,2,0,P|440:232|432:280,1,70
372,340,83847,2,0,P|412:360|480:352,2,105
312,256,84525,6,0,P|268:260|228:268,1,70
176,336,84864,1,0,0:0:0:0:
84,380,85034,2,0,P|80:360|76:310,1,70
144,240,85373,1,0,0:0:0:0:
196,152,85542,2,0,P|152:148|112:140,1,70
56,76,85881,5,0,0:0:0:0:
56,76,86051,1,0,0:0:0:0:
144,32,86220,2,0,P|188:36|228:44,1,70
288,112,86559,2,0,P|344:108|372:104,1,70
436,44,86898,1,0,0:0:0:0:
464,140,87068,1,0,0:0:0:0:
464,140,87237,6,0,P|415:187|433:263,1,140
512,300,87746,1,0,0:0:0:0:
444,380,87915,2,0,L|328:369,2,105
400,288,88593,6,0,P|389:253|388:203,1,70
444,136,88932,1,0,0:0:0:0:
356,88,89102,2,0,B|280:72|304:120|221:108,1,140
124,80,89610,2,0,P|128:116|132:176,1,70
48,212,89949,6,0,P|116:200|160:260,1,140
132,344,90458,2,0,L|212:336,1,70
284,272,90797,1,0,0:0:0:0:
380,316,90966,2,0,P|384:284|388:240,1,70
344,156,91305,5,0,0:0:0:0:
436,116,91475,1,0,0:0:0:0:
436,116,91559,1,0,0:0:0:0:
436,116,91644,2,0,L|432:72,3,35
408,44,91983,2,0,P|452:69|504:68,2,105
324,4,92661,6,0,L|192:20,1,125.999996154785
128,72,93170,1,0,0:0:0:0:
48,36,93339,2,0,P|46:67|42:98,1,62.9999980773926
4,180,93678,2,0,P|8:224|12:252,1,62.9999980773926
88,296,94017,6,0,P|148:260|228:280,1,125.999996154785
260,332,94525,2,0,P|316:336|348:340,1,62.9999980773926
404,376,94864,2,0,P|369:324|376:260,1,125.999996154785
452,208,95373,6,0,L|468:76,1,125.999996154785
408,16,95881,1,0,0:0:0:0:
344,80,96051,2,0,P|314:85|268:88,1,62.9999980773926
204,40,96390,2,0,P|173:33|141:31,1,62.9999980773926
60,68,96729,6,0,P|56:48|52:4,2,62.9999980773926
132,120,97237,1,0,0:0:0:0:
204,172,97407,2,0,L|188:280,2,94.499997116089
256,96,98085,6,0,P|348:88|368:168,1,181.999991668702
280,252,99102,1,0,0:0:0:0:
376,336,99441,2,0,P|368:288|364:236,1,90.9999958343508
480,196,100119,2,0,P|488:148|492:96,1,90.9999958343508
356,72,100797,6,0,P|344:36|336:-4,2,70
444,16,101305,2,0,P|480:20|512:28,2,70
456,120,101814,2,0,P|448:154|437:187,1,70
420,228,102068,1,0,0:0:0:0:
420,228,102153,1,0,0:0:0:0:
476,316,102322,1,0,0:0:0:0:
152,324,103170,6,0,L|196:316,3,35
228,332,103508,6,0,P|181:282|197:217,1,140
276,156,104017,1,0,0:0:0:0:
276,156,104186,2,0,L|388:172,2,105
208,88,104864,6,0,P|168:92|136:96,1,70
48,56,105203,1,0,0:0:0:0:
48,56,105373,2,0,P|40:104|36:132,1,70
108,192,105712,2,0,P|116:240|120:268,1,70
80,356,106051,1,0,0:0:0:0:
80,356,106136,1,0,0:0:0:0:
80,356,106220,6,0,P|120:316|216:332,1,140
276,380,106729,1,0,0:0:0:0:
316,292,106898,2,0,L|304:180,2,105
384,364,107576,6,0,L|468:376,1,70
512,288,107915,2,0,L|428:276,1,70
364,208,108254,2,0,L|312:216,3,35
300,244,108593,2,0,L|248:236,3,35
228,216,108932,6,0,P|256:268|224:344,1,140
132,376,109441,1,0,0:0:0:0:
56,304,109610,2,0,L|64:228,1,70
144,168,109949,2,0,L|136:92,1,70
84,8,110288,6,0,P|128:44|224:20,1,140
304,0,110797,1,0,0:0:0:0:
348,96,110966,2,0,L|336:172,2,70
436,40,111475,1,0,0:0:0:0:
436,40,111559,1,0,0:0:0:0:
436,40,111644,6,0,P|440:76|448:120,1,70
504,188,111983,2,0,L|492:268,1,70
392,232,112322,2,0,L|403:302,1,70
296,184,112661,2,0,P|292:219|289:254,1,70
324,352,113000,5,0,0:0:0:0:
324,352,113170,1,0,0:0:0:0:
188,276,113339,1,0,0:0:0:0:
188,276,113508,1,0,0:0:0:0:
96,368,113678,2,0,L|104:320,3,35
76,300,114017,2,0,L|68:252,3,35
96,232,114356,5,0,0:0:0:0:
256,192,114441,12,0,119780,0:0:0:0:
