osu file format v14

[General]
AudioFilename: audio.mp3
AudioLeadIn: 0
PreviewTime: 59029
Countdown: 0
SampleSet: Soft
StackLeniency: 0.7
Mode: 0
LetterboxInBreaks: 0
WidescreenStoryboard: 0

[Editor]
Bookmarks: 3170,14017,24864,35712,46559,60119,70966,81814,92661,103508,114356
DistanceSpacing: 1.2
BeatDivisor: 4
GridSize: 4
TimelineZoom: 1

[Metadata]
Title:Atlantico Blue
TitleUnicode:Atlantico Blue
Artist:Sasaki Sayaka
ArtistUnicode:佐咲紗花
Creator:Elasia
Version:Extra
Source:
Tags:
BeatmapID:994809
BeatmapSetID:454249

[Difficulty]
HPDrainRate:6
CircleSize:4
OverallDifficulty:8.5
ApproachRate:9.2
SliderMultiplier:1.8
SliderTickRate:1

[Events]
//Background and Video events
0,0,"image.jpg",0,0
//Break Periods
//Storyboard Layer 0 (Background)
//Storyboard Layer 1 (Fail)
//Storyboard Layer 2 (Pass)
//Storyboard Layer 3 (Foreground)
//Storyboard Layer 4 (Overlay)
//Storyboard Sound Samples

[TimingPoints]
3170,338.983050847458,4,2,1,40,1,0
3170,-125,4,2,1,40,0,0
11644,-125,4,2,1,45,0,0
11983,-125,4,2,1,55,0,0
12322,-125,4,2,1,65,0,0
12831,-125,4,2,1,45,0,0
13339,-125,4,2,1,55,0,0
14017,-100,4,2,1,60,0,0
24864,-100,4,2,1,50,0,0
46220,-83.3333333333333,4,2,1,50,0,0
46559,-100,4,2,1,50,0,0
54695,-100,4,2,1,55,0,0
56051,-100,4,2,1,60,0,0
57407,-100,4,2,1,65,0,0
60119,-100,4,2,1,75,0,1
92661,-125,4,2,1,60,0,0
98085,-166.666666666667,4,2,1,40,0,0
100797,-100,4,2,1,60,0,0
111644,-100,4,2,1,50,0,0
112322,-100,4,2,1,60,0,0
113000,-100,4,2,1,70,0,0
114441,-100,4,2,1,50,0,0
115712,-100,4,2,1,40,0,0
117068,-100,4,2,1,30,0,0
118424,-100,4,2,1,20,0,0

[HitObjects]
452,96,3170,6,0,P|402:135|321:130,1,144,4|0,0:0|0:0,0:0:0:0:
216,42,3678,1,2,0:0:0:0:
144,178,3847,2,0,P|138:221|147:276,1,72
310,331,4186,2,0,P|270:314|214:308,1,72,2|0,0:0|0:0,0:0:0:0:
96,357,4525,5,0,0:0:0:0:
220,222,4695,1,0,0:0:0:0:
58,153,4864,2,0,L|68:240,1,72,0|2,0:0|0:0,0:0:0:0:
162,45,5203,1,0,0:0:0:0:
162,45,5373,1,0,0:0:0:0:
328,147,5542,2,0,L|241:137,1,72,2|0,0:0|0:0,0:0:0:0:
120,260,5881,6,0,L|128:188,1,72
240,326,6220,1,0,0:0:0:0:
425,192,6390,2,0,P|373:239|296:244,1,144,2|0,0:0|0:0,0:0:0:0:
328,54,6898,2,0,L|337:135,1,72,2|0,0:0|0:0,0:0:0:0:
214,208,7237,6,0,P|205:169|208:117,1,72
394,239,7576,2,0,L|310:235,1,72
314,15,7915,2,0,P|313:50|304:85,1,72,2|0,0:0|0:0,0:0:0:0:
166,191,8254,2,0,L|175:272,1,72,4|8,0:0|0:0,0:0:0:0:
162,299,8508,1,8,0:1:0:0:
162,299,8593,6,0,L|238:295,1,72,10|0,0:1|0:0,0:0:0:0:
350,167,8932,2,0,L|274:171,1,72,8|2,0:1|0:0,0:0:0:0:
202,375,9271,2,0,L|278:371,1,72,8|0,0:1|0:0,0:0:0:0:
456,236,9610,2,0,L|384:239,1,72,10|0,0:1|0:0,0:0:0:0:
504,364,9949,5,8,0:1:0:0:
504,364,10119,1,0,0:0:0:0:
328,308,10288,1,8,0:1:0:0:
328,308,10458,1,2,0:0:0:0:
440,156,10627,1,8,0:1:0:0:
440,156,10797,1,0,0:0:0:0:
416,368,10966,2,0,P|432:332|432:280,1,72,4|8,0:0|0:0,0:0:0:0:
424,264,11220,1,8,0:0:0:0:
424,264,11305,5,12,0:1:0:0:
232,316,11475,1,0,0:0:0:0:
268,144,11644,1,8,0:1:0:0:
340,332,11814,1,8,0:0:0:0:
392,104,11983,5,8,0:0:0:0:
172,212,12153,1,8,0:0:0:0:
256,28,12322,5,8,0:0:0:0:
32,256,12492,1,8,0:0:0:0:
4,72,12831,5,0,0:0:0:0:
40,64,12915,1,0,0:0:0:0:
76,72,13000,1,0,0:0:0:0:
108,88,13085,1,0,0:0:0:0:
144,96,13170,1,2,0:0:0:0:
180,88,13254,1,0,0:0:0:0:
200,44,13339,5,8,0:1:0:0:
156,24,13424,1,8,0:0:0:0:
108,36,13508,1,8,0:0:0:0:
76,72,13593,1,8,0:0:0:0:
72,120,13678,1,8,0:0:0:0:
92,164,13763,1,8,0:0:0:0:
136,184,13847,1,8,0:0:0:0:
184,176,13932,1,8,0:0:0:0:
232,187,14017,6,0,P|276:179|321:179,1,90,12|8,0:1|0:1,0:0:0:0:
72,268,14356,1,8,0:0:0:0:
280,108,14525,1,0,3:0:0:0:
280,108,14610,1,0,3:0:0:0:
280,108,14695,2,0,P|292:64|296:16,1,90,8|8,0:1|0:1,0:0:0:0:
160,232,15034,1,8,0:0:0:0:
72,48,15203,2,0,P|80:76|76:116,1,45,2|0,3:2|3:0,0:0:0:0:
20,164,15373,6,0,L|116:168,1,90,10|8,0:1|0:1,0:0:0:0:
280,108,15712,1,10,0:0:0:0:
216,312,15881,1,2,3:2:0:0:
216,312,15966,1,0,3:0:0:0:
216,312,16051,2,0,P|208:264|212:224,1,90,8|10,0:1|0:1,0:0:0:0:
344,360,16390,1,8,0:0:0:0:
444,144,16559,1,0,3:0:0:0:
444,144,16644,1,0,3:0:0:0:
444,144,16729,6,0,L|354:147,1,90,10|8,0:1|0:1,0:0:0:0:
420,340,17068,1,8,0:0:0:0:
512,216,17237,1,0,3:0:0:0:
328,284,17407,2,0,P|284:288|228:280,1,90,10|8,0:1|0:1,0:0:0:0:
164,256,17661,1,2,0:0:0:0:
164,256,17746,2,0,P|159:300|162:345,1,90,8|2,0:0|3:2,0:0:0:0:
276,152,18085,5,10,0:1:0:0:
336,312,18254,1,8,0:1:0:0:
424,128,18424,1,10,0:0:0:0:
228,256,18593,1,2,3:2:0:0:
228,256,18678,1,0,3:0:0:0:
228,256,18763,2,0,L|116:248,1,90,8|10,0:1|0:1,0:0:0:0:
24,84,19102,5,8,0:0:0:0:
56,108,19186,1,8,0:0:0:0:
96,116,19271,1,8,0:0:0:0:
136,112,19356,1,8,0:0:0:0:
176,104,19441,6,0,P|224:108|264:124,1,90,10|8,0:1|0:1,0:0:0:0:
460,32,19780,1,4,0:0:0:0:
328,284,19949,1,0,3:0:0:0:
328,284,20034,1,0,3:0:0:0:
328,284,20119,6,0,P|317:328|311:373,1,90,10|8,0:1|0:1,0:0:0:0:
156,128,20458,1,4,0:0:0:0:
480,196,20627,1,0,3:0:0:0:
480,196,20712,1,0,3:0:0:0:
480,196,20797,6,0,L|380:204,1,90,10|8,0:1|0:1,0:0:0:0:
216,48,21136,1,4,0:0:0:0:
152,280,21305,1,0,3:0:0:0:
152,280,21390,1,0,3:0:0:0:
152,280,21475,1,10,0:1:0:0:
68,108,21644,5,8,0:0:0:0:
108,100,21729,1,8,0:0:0:0:
148,104,21814,1,10,0:0:0:0:
184,120,21898,1,8,0:0:0:0:
216,144,21983,1,8,0:0:0:0:
240,176,22068,1,8,0:0:0:0:
260,212,22153,6,0,L|248:316,1,90,10|8,0:1|0:1,0:0:0:0:
416,248,22492,1,8,0:0:0:0:
152,356,22661,1,0,3:0:0:0:
152,356,22746,1,0,3:0:0:0:
152,356,22831,2,0,L|141:266,1,90,8|8,0:1|0:1,0:0:0:0:
312,128,23170,1,8,0:0:0:0:
360,340,23339,1,10,0:1:0:0:
360,340,23424,1,0,3:2:0:0:
360,340,23508,6,0,L|424:348,2,45,10|0|0,0:1|3:0|3:0,0:0:0:0:
160,176,23847,1,8,0:1:0:0:
428,108,24017,1,8,0:0:0:0:
428,108,24102,1,0,3:0:0:0:
428,108,24186,1,8,0:1:0:0:
196,308,24356,5,8,0:0:0:0:
228,284,24441,1,8,0:0:0:0:
264,268,24525,1,8,0:0:0:0:
304,264,24610,1,8,0:0:0:0:
344,268,24695,1,8,0:0:0:0:
384,280,24780,1,8,0:0:0:0:
416,304,24864,6,0,P|404:256|400:200,1,90,12|0,0:1|0:0,0:0:0:0:
464,68,25203,1,8,0:0:0:0:
312,140,25373,1,2,0:0:0:0:
496,232,25542,1,8,0:1:0:0:
496,232,25712,1,8,0:1:0:0:
364,52,25881,1,8,0:0:0:0:
272,220,26051,1,2,0:0:0:0:
99,95,26220,6,0,P|187:96|247:33,1,180,8|8,0:1|0:0,0:0:0:0:
8,40,26729,1,2,0:0:0:0:
204,132,26898,2,0,L|192:221,1,90,8|8,0:1|0:1,0:0:0:0:
312,84,27237,1,8,0:0:0:0:
116,180,27407,1,2,0:0:0:0:
288,264,27576,6,0,B|248:284|216:320|216:320|168:300|120:312,2,180,8|8|8,0:1|0:0|0:1,0:0:0:0:
320,116,28424,1,10,0:1:0:0:
399,299,28593,2,0,P|441:316|485:326,1,90,8|2,0:0|0:0,0:0:0:0:
228,172,28932,5,8,0:1:0:0:
228,172,29102,1,0,0:0:0:0:
400,72,29271,2,0,L|384:188,1,90,8|2,0:0|3:2,0:0:0:0:
384,196,29525,1,0,3:0:0:0:
384,196,29610,1,8,0:1:0:0:
508,140,29780,1,8,0:1:0:0:
348,304,29949,2,0,P|392:308|436:299,1,90,8|2,0:0|0:0,0:0:0:0:
212,136,30288,6,0,L|228:252,1,90,8|0,0:1|0:0,0:0:0:0:
320,72,30627,1,8,0:0:0:0:
136,208,30797,1,2,3:2:0:0:
136,208,30881,1,0,3:0:0:0:
136,208,30966,2,0,P|93:219|49:226,1,90,8|8,0:1|0:1,0:0:0:0:
204,32,31305,1,8,0:0:0:0:
276,164,31475,1,2,0:0:0:0:
72,92,31644,5,8,0:1:0:0:
72,92,31814,1,0,0:0:0:0:
132,264,31983,2,0,P|176:260|224:272,1,90,8|2,0:0|3:2,0:0:0:0:
252,288,32237,1,0,3:0:0:0:
252,288,32322,1,8,0:1:0:0:
72,352,32492,1,8,0:1:0:0:
60,160,32661,2,0,L|45:248,1,90,8|2,0:0|0:0,0:0:0:0:
219,183,33000,6,0,P|305:206|383:167,1,180,8|8,0:1|0:0,0:0:0:0:
200,48,33508,1,2,0:0:0:0:
132,244,33678,1,8,0:1:0:0:
132,244,33847,1,8,0:1:0:0:
320,103,34017,2,0,P|332:60|336:16,1,90,8|2,0:0|0:0,0:0:0:0:
256,224,34356,6,0,L|344:238,1,90,8|0,0:1|0:0,0:0:0:0:
152,124,34695,1,8,0:0:0:0:
176,332,34864,1,2,3:2:0:0:
176,332,34949,1,0,3:0:0:0:
176,332,35034,1,8,0:1:0:0:
404,186,35203,5,8,0:0:0:0:
376,214,35288,1,8,0:0:0:0:
344,238,35373,1,8,0:0:0:0:
304,250,35458,1,8,0:0:0:0:
264,250,35542,1,8,0:0:0:0:
224,238,35627,1,8,0:0:0:0:
188,220,35712,6,0,L|88:228,1,90,12|8,0:1|0:1,0:0:0:0:
24,44,36051,1,8,0:0:0:0:
156,120,36220,1,2,0:0:0:0:
0,188,36390,2,0,P|-8:232|4:280,1,90,8|8,0:1|0:1,0:0:0:0:
184,304,36729,1,8,0:0:0:0:
64,120,36898,1,2,0:0:0:0:
48,356,37068,5,8,0:1:0:0:
48,356,37237,1,8,0:1:0:0:
188,140,37407,1,8,0:0:0:0:
296,320,37576,1,2,3:2:0:0:
296,320,37661,1,0,3:0:0:0:
296,320,37746,2,0,P|253:324|193:324,1,90,8|8,0:1|0:1,0:0:0:0:
392,140,38085,1,8,0:0:0:0:
448,272,38254,1,2,0:0:0:0:
264,200,38424,6,0,P|252:152|248:96,1,90,8|8,0:1|0:1,0:0:0:0:
352,24,38763,1,8,0:0:0:0:
176,68,38932,1,2,0:0:0:0:
364,176,39102,2,0,P|359:220|348:264,1,90,8|8,0:1|0:1,0:0:0:0:
276,80,39441,1,8,0:0:0:0:
444,148,39610,1,2,0:0:0:0:
324,296,39780,5,8,0:1:0:0:
324,296,39949,1,8,0:1:0:0:
372,84,40119,1,8,0:0:0:0:
200,164,40288,1,2,3:2:0:0:
200,164,40373,1,0,3:0:0:0:
200,164,40458,2,0,P|248:168|292:176,1,90,8|8,0:1|0:1,0:0:0:0:
464,236,40797,2,0,P|456:192|452:146,1,90,8|2,0:0|3:2,0:0:0:0:
476,68,41051,1,0,3:0:0:0:
476,68,41136,6,0,P|420:76|368:72,1,90,8|8,0:1|0:1,0:0:0:0:
204,8,41475,1,8,0:0:0:0:
320,188,41644,1,2,0:0:0:0:
360,0,41814,1,8,0:1:0:0:
360,0,41983,1,8,0:1:0:0:
188,164,42153,1,8,0:0:0:0:
116,20,42322,1,2,0:0:0:0:
300,92,42492,6,0,P|344:100|392:104,1,90,8|8,0:1|0:1,0:0:0:0:
236,4,42831,1,8,0:0:0:0:
336,192,43000,1,2,3:2:0:0:
336,192,43085,1,0,3:0:0:0:
336,192,43170,2,0,L|321:280,1,90,8|8,0:1|0:1,0:0:0:0:
424,88,43508,1,8,0:0:0:0:
236,228,43678,1,2,0:0:0:0:
104,104,43847,6,0,L|89:15,1,90,8|8,0:1|0:1,0:0:0:0:
24,176,44186,1,8,0:0:0:0:
208,132,44356,1,2,0:0:0:0:
24,176,44525,2,0,L|38:264,1,90,8|8,0:1|0:1,0:0:0:0:
104,104,44864,1,8,0:0:0:0:
180,264,45034,1,8,0:1:0:0:
180,264,45119,1,0,3:0:0:0:
180,264,45203,5,8,0:0:0:0:
332,80,45373,1,8,0:1:0:0:
208,132,45542,1,8,0:1:0:0:
432,192,45712,1,8,0:0:0:0:
256,328,45881,2,0,L|268:228,1,90,8|0,0:1|3:0,0:0:0:0:
252,156,46136,1,0,3:0:0:0:
252,156,46220,6,0,P|336:192|348:260,1,161.999995056153,8|0,0:0|0:0,0:0:0:0:
296,324,46559,5,12,0:1:0:0:
296,324,46729,2,0,L|112:336,1,180,8|0,0:1|0:0,0:0:0:0:
252,156,47237,2,0,P|259:200|254:244,1,90,8|8,0:0|0:1,0:0:0:0:
176,76,47576,1,2,0:0:0:0:
80,208,47746,1,8,0:1:0:0:
80,208,47831,1,0,3:0:0:0:
80,208,47915,6,0,L|172:202,1,90,8|8,0:1|0:1,0:0:0:0:
232,296,48254,2,0,L|142:290,1,90,0|10,0:0|0:1,0:0:0:0:
307,180,48593,2,0,P|374:168|441:169,2,135,8|2|2,0:0|0:0|0:0,0:0:0:0:
476,264,49271,5,8,0:1:0:0:
476,264,49441,2,0,L|492:84,1,180,8|8,0:1|0:1,0:0:0:0:
300,124,49949,2,0,L|308:214,1,90,8|8,0:0|0:1,0:0:0:0:
384,48,50288,1,2,0:0:0:0:
204,28,50458,1,0,3:0:0:0:
204,28,50542,1,8,0:0:0:0:
204,28,50627,6,0,P|248:37|292:37,1,90,12|8,0:1|0:1,0:0:0:0:
136,112,50966,2,0,P|91:103|46:103,1,90,8|8,0:0|0:1,0:0:0:0:
228,216,51305,1,8,0:1:0:0:
32,308,51475,5,8,0:0:0:0:
60,296,51559,1,8,0:0:0:0:
92,292,51644,1,8,0:0:0:0:
124,296,51729,1,8,0:0:0:0:
152,312,51814,1,8,0:0:0:0:
176,332,51898,1,8,0:0:0:0:
192,360,51983,6,0,L|300:368,1,90,12|2,0:1|0:0,0:0:0:0:
432,256,52322,2,0,L|324:264,1,90,8|2,0:1|0:0,0:0:0:0:
190,134,52661,2,0,P|214:174|230:230,1,90,8|2,0:1|0:0,0:0:0:0:
368,60,53000,2,0,P|344:100|328:156,1,90,8|2,0:1|0:0,0:0:0:0:
392,284,53339,5,8,0:1:0:0:
392,284,53508,1,2,0:0:0:0:
204,328,53678,2,0,P|156:332|104:328,1,90,8|2,0:1|0:0,0:0:0:0:
288,152,54017,2,0,P|300:224|292:292,2,135,8|2|2,0:1|0:0|0:0,0:0:0:0:
160,248,54695,5,8,0:1:0:0:
284,372,54864,1,0,0:0:0:0:
208,168,55034,1,8,0:1:0:0:
128,332,55203,1,2,0:0:0:0:
356,316,55373,5,10,0:1:0:0:
208,168,55542,1,0,0:0:0:0:
244,380,55712,1,8,0:1:0:0:
392,184,55881,1,0,0:0:0:0:
152,288,56051,5,10,0:1:0:0:
108,60,56220,1,0,0:0:0:0:
32,248,56390,1,10,0:1:0:0:
268,120,56559,1,0,0:0:0:0:
304,340,56729,5,10,0:1:0:0:
116,172,56898,1,0,0:0:0:0:
380,96,57068,1,10,0:1:0:0:
184,296,57237,1,10,0:1:0:0:
184,296,57322,1,8,0:1:0:0:
184,296,57407,6,0,L|168:384,1,90,8|8,0:0|0:1,0:0:0:0:
328,192,57746,1,8,0:1:0:0:
108,248,57915,2,0,L|92:336,1,90,8|8,0:0|0:1,0:0:0:0:
252,144,58254,1,8,0:1:0:0:
32,200,58423,2,0,L|16:288,1,90,8|8,0:0|0:1,0:0:0:0:
12,328,58678,1,8,0:1:0:0:
12,328,58763,5,8,0:0:0:0:
188,208,58932,2,0,L|180:164,1,45,8|8,0:0|0:0,0:0:0:0:
256,364,59102,1,10,0:1:0:0:
256,364,59186,1,8,0:0:0:0:
256,364,59271,1,8,0:0:0:0:
408,160,59441,5,10,0:1:0:0:
404,180,59525,1,0,3:0:0:0:
400,200,59610,1,0,3:0:0:0:
396,220,59695,1,0,3:0:0:0:
392,240,59780,5,8,0:0:0:0:
352,220,59864,1,8,0:0:0:0:
308,212,59949,1,8,0:0:0:0:
264,224,60034,1,8,0:0:0:0:
228,252,60119,6,0,P|184:256|132:248,1,90,12|2,0:1|0:0,0:0:0:0:
332,120,60458,1,8,0:0:0:0:
160,84,60627,1,0,3:2:0:0:
160,84,60712,1,0,3:0:0:0:
160,84,60797,2,0,L|177:172,1,90,8|2,0:1|0:0,0:0:0:0:
272,0,61136,1,8,0:0:0:0:
364,172,61305,1,2,3:2:0:0:
364,172,61390,1,0,3:0:0:0:
364,172,61475,6,0,P|407:183|452:188,1,90,8|2,0:1|0:0,0:0:0:0:
228,80,61814,2,0,P|224:124|228:188,1,90,8|0,0:0|3:2,0:0:0:0:
252,204,62068,1,0,3:0:0:0:
252,204,62153,2,0,P|256:252|248:308,1,90,8|0,0:1|3:0,0:0:0:0:
228,328,62407,2,0,L|320:336,1,90,2|0,0:0|0:0,0:0:0:0:
360,340,62661,1,2,0:0:0:0:
143,279,62831,6,0,P|131:323|139:367,1,90,8|2,0:1|0:0,0:0:0:0:
280,244,63170,1,8,0:0:0:0:
108,175,63339,2,0,P|152:179|194:195,1,90,2|8,0:0|0:1,0:0:0:0:
228,328,63678,1,2,0:0:0:0:
20,240,63847,2,0,L|4:136,1,90,8|2,0:0|0:0,0:0:0:0:
168,92,64186,5,8,0:1:0:0:
84,308,64356,1,2,0:0:0:0:
264,212,64525,1,8,0:0:0:0:
68,52,64695,1,0,3:2:0:0:
68,52,64780,1,0,3:0:0:0:
68,52,64864,2,0,P|56:104|52:160,1,90,8|2,0:1|0:0,0:0:0:0:
184,328,65203,2,0,P|179:283|168:239,1,90,8|2,0:0|3:2,0:0:0:0:
156,208,65458,1,0,3:0:0:0:
156,208,65542,5,12,0:1:0:0:
336,128,65712,1,2,0:0:0:0:
272,328,65881,1,8,0:0:0:0:
232,148,66051,1,0,3:2:0:0:
232,148,66136,1,0,3:0:0:0:
232,148,66220,2,0,P|248:92|256:52,1,90,8|2,0:1|0:0,0:0:0:0:
96,8,66559,1,8,0:0:0:0:
136,196,66729,1,2,0:0:0:0:
336,128,66898,6,0,P|380:124|432:120,1,90,8|2,0:1|0:0,0:0:0:0:
284,264,67237,2,0,P|239:260|194:256,1,90,8|0,0:0|3:2,0:0:0:0:
164,276,67492,1,0,3:0:0:0:
164,276,67576,2,0,P|100:308|32:320,2,135,8|2|2,0:1|0:0|0:0,0:0:0:0:
56,92,68254,6,0,P|64:140|68:184,1,90,8|2,0:1|0:0,0:0:0:0:
0,300,68593,1,8,0:0:0:0:
161,176,68763,2,0,P|204:189|247:200,1,90,2|8,0:0|0:1,0:0:0:0:
336,92,69102,1,2,0:0:0:0:
128,48,69271,2,0,B|72:48|36:64|36:64|56:104|60:164,1,180,8|8,0:0|0:1,0:0:0:0:
96,304,69780,5,0,0:0:0:0:
252,112,69949,1,8,0:0:0:0:
296,308,70119,2,0,L|304:368,1,45,2|0,3:2|3:0,0:0:0:0:
144,200,70288,5,8,0:1:0:0:
168,216,70373,1,0,3:0:0:0:
196,224,70458,1,0,3:0:0:0:
224,224,70542,1,0,3:0:0:0:
252,220,70627,5,8,0:0:0:0:
288,192,70712,1,8,0:0:0:0:
332,180,70797,1,8,0:0:0:0:
376,184,70881,1,8,0:0:0:0:
415,204,70966,6,0,P|459:215|504:220,1,90,12|2,0:1|0:0,0:0:0:0:
376,72,71305,1,8,0:0:0:0:
340,276,71475,2,0,B|316:324|276:344|276:344|240:328|176:336,1,180,2|2,0:0|0:0,0:0:0:0:
44,352,71983,1,8,0:0:0:0:
104,132,72153,1,2,0:0:0:0:
256,256,72322,5,8,0:1:0:0:
256,256,72492,1,0,0:0:0:0:
4,208,72661,2,0,P|50:220|98:241,1,90,8|2,0:0|3:1,0:0:0:0:
108,276,72915,1,0,3:0:0:0:
108,276,73000,2,0,P|160:312|240:336,2,135,8|2|2,0:1|0:0|0:0,0:0:0:0:
328,300,73678,6,0,P|336:256|344:188,1,90,8|2,0:1|0:0,0:0:0:0:
276,92,74017,1,8,0:0:0:0:
472,96,74186,2,0,P|424:102|380:112,1,90,2|8,0:0|0:1,0:0:0:0:
240,192,74525,1,2,0:0:0:0:
408,8,74695,1,8,0:0:0:0:
436,200,74864,1,2,0:0:0:0:
276,92,75034,6,0,P|236:72|176:60,1,90,8|0,0:1|0:0,0:0:0:0:
24,156,75373,1,8,0:0:0:0:
84,8,75542,1,2,3:2:0:0:
84,8,75627,1,0,3:0:0:0:
84,8,75712,2,0,P|96:56|104:112,1,90,8|2,0:1|0:0,0:0:0:0:
0,252,76051,2,0,P|44:244|89:241,1,90,8|8,0:0|0:0,0:0:0:0:
156,292,76305,1,8,0:0:0:0:
156,292,76390,6,0,P|200:299|245:302,1,90,8|2,0:1|0:0,0:0:0:0:
412,180,76729,1,8,0:0:0:0:
412,180,76898,1,2,0:0:0:0:
336,360,77068,1,8,0:1:0:0:
272,156,77237,1,2,0:0:0:0:
492,268,77407,2,0,P|444:280|384:276,1,90,8|8,0:0|0:0,0:0:0:0:
332,248,77661,1,8,0:0:0:0:
332,248,77746,6,0,P|287:244|243:251,1,90,8|2,0:1|0:0,0:0:0:0:
420,360,78085,1,8,0:0:0:0:
440,168,78254,1,2,0:0:0:0:
288,328,78424,2,0,P|216:348|152:336,2,135,8|2|2,0:1|0:0|0:0,0:0:0:0:
404,192,79102,6,0,L|415:102,1,90,8|2,0:1|0:0,0:0:0:0:
472,280,79441,1,8,0:0:0:0:
300,160,79610,1,2,3:2:0:0:
300,160,79695,1,0,3:0:0:0:
300,160,79780,2,0,L|311:249,1,90,8|2,0:1|0:0,0:0:0:0:
512,180,80119,1,8,0:0:0:0:
384,288,80288,1,2,0:0:0:0:
452,104,80458,6,0,L|460:52,3,45,8|0|0|0,0:1|3:0|3:0|3:0,0:0:0:0:
328,52,80797,2,0,L|320:0,3,45,8|0|0|0,0:0|3:0|3:0|3:0,0:0:0:0:
224,136,81136,5,8,1:0:0:0:
192,140,81220,1,8,0:0:0:0:
160,132,81305,1,8,0:0:0:0:
132,116,81390,1,8,0:0:0:0:
108,96,81475,5,8,0:0:0:0:
88,136,81559,1,8,0:0:0:0:
68,176,81644,1,8,0:0:0:0:
48,216,81729,1,8,0:0:0:0:
28,256,81814,6,0,L|36:348,1,90,12|2,0:1|0:0,0:0:0:0:
192,188,82153,1,8,0:0:0:0:
16,100,82322,1,0,3:2:0:0:
16,100,82407,1,0,3:0:0:0:
16,100,82492,2,0,P|64:116|120:128,1,90,8|2,0:1|0:0,0:0:0:0:
260,68,82831,1,8,0:0:0:0:
144,4,83000,1,2,0:0:0:0:
212,180,83170,6,0,P|217:224|216:276,1,90,8|2,0:1|0:0,0:0:0:0:
124,368,83508,1,8,0:0:0:0:
332,320,83678,1,0,3:2:0:0:
332,320,83763,1,0,3:0:0:0:
332,320,83847,2,0,P|339:280|344:220,1,90,8|0,0:1|3:0,0:0:0:0:
328,192,84102,2,0,L|424:184,1,90,2|0,0:0|0:0,0:0:0:0:
460,180,84356,1,2,0:0:0:0:
248,264,84525,6,0,L|158:256,1,90,8|2,0:1|0:0,0:0:0:0:
432,308,84864,1,8,0:0:0:0:
356,136,85034,2,0,P|360:188|352:236,1,90,2|8,0:0|0:1,0:0:0:0:
316,356,85373,1,2,0:0:0:0:
184,172,85542,2,0,L|274:180,1,90,8|2,0:0|0:0,0:0:0:0:
444,192,85881,5,8,0:1:0:0:
300,64,86051,1,2,0:0:0:0:
224,264,86220,1,8,0:0:0:0:
392,112,86390,1,0,3:2:0:0:
392,112,86475,1,0,3:0:0:0:
392,112,86559,2,0,P|400:64|404:20,1,90,8|2,0:1|0:0,0:0:0:0:
332,208,86898,1,8,0:0:0:0:
172,76,87068,1,2,0:0:0:0:
112,228,87237,6,0,L|201:220,1,90,8|2,0:1|0:0,0:0:0:0:
312,304,87576,1,8,0:0:0:0:
264,124,87746,1,2,0:0:0:0:
144,316,87915,2,0,P|80:332|8:328,2,135,8|2|2,0:1|0:0|0:0,0:0:0:0:
308,208,88593,6,0,P|356:204|412:204,1,90,8|2,0:1|0:0,0:0:0:0:
496,256,88932,1,8,0:0:0:0:
268,344,89102,2,0,B|220:360|180:336|180:336|148:356|93:348,1,180,2|2,0:0|0:0,0:0:0:0:
372,300,89610,2,0,L|380:204,1,90,8|2,0:0|0:0,0:0:0:0:
180,124,89949,6,0,L|187:213,1,90,8|2,0:1|0:0,0:0:0:0:
312,92,90288,1,8,0:0:0:0:
136,24,90458,2,0,L|46:16,1,90,2|8,0:0|0:1,0:0:0:0:
84,176,90797,1,2,0:0:0:0:
236,20,90966,1,8,0:0:0:0:
288,204,91136,6,0,L|300:268,1,45,2|0,3:2|3:0,0:0:0:0:
124,64,91305,1,8,0:1:0:0:
8,264,91475,1,8,0:0:0:0:
40,248,91559,1,8,0:0:0:0:
76,244,91644,1,8,0:0:0:0:
112,252,91729,1,8,0:0:0:0:
144,268,91814,1,0,3:0:0:0:
172,288,91898,1,0,3:0:0:0:
188,320,91983,6,0,P|232:316|284:312,1,90,8|0,0:0|0:0,0:0:0:0:
340,176,92237,2,0,P|340:220|344:280,1,90,8|0,0:0|0:0,0:0:0:0:
440,348,92492,1,8,0:0:0:0:
248,224,92661,6,0,L|238:76,1,144,12|2,0:1|0:0,0:0:0:0:
328,136,93170,1,8,0:1:0:0:
152,88,93339,2,0,P|104:88|52:100,1,72,8|8,0:0|0:1,0:0:0:0:
32,212,93678,2,0,P|80:212|132:200,1,72,2|8,0:0|0:0,0:0:0:0:
244,148,94017,6,0,P|312:156|316:236,1,144,8|2,0:1|0:0,0:0:0:0:
236,284,94525,1,8,0:1:0:0:
396,356,94695,2,0,L|388:284,1,72,8|8,0:0|0:1,0:0:0:0:
464,152,95034,2,0,L|456:224,1,72,2|0,0:0|3:0,0:0:0:0:
476,264,95288,1,0,3:0:0:0:
476,264,95373,6,0,P|478:295|474:336,2,72,12|8|2,0:1|0:0|0:0,0:0:0:0:
380,144,95881,1,8,0:1:0:0:
320,244,96051,2,0,L|400:236,1,72,12|8,0:0|0:1,0:0:0:0:
476,168,96390,1,2,0:0:0:0:
336,72,96559,1,0,3:0:0:0:
336,72,96644,1,0,3:0:0:0:
336,72,96729,5,12,0:1:0:0:
248,196,96898,2,0,L|240:267,1,72,8|2,0:0|0:0,0:0:0:0:
352,160,97237,1,8,0:1:0:0:
228,64,97407,2,0,P|188:76|144:96,1,72,8|0,0:0|0:0,0:0:0:0:
296,104,97661,2,0,P|305:63|310:15,1,72,8|0,0:0|0:0,0:0:0:0:
228,144,97915,1,8,0:0:0:0:
368,136,98085,6,0,P|412:200|304:244,1,215.999993408203,4|2,0:0|0:0,0:0:0:0:
296,104,99102,1,0,0:0:0:0:
136,216,99441,2,0,P|189:216|243:209,1,107.999996704102,2|0,0:0|0:0,0:0:0:0:
40,164,100119,2,0,P|40:224|48:280,1,107.999996704102,2|0,0:0|0:1,0:0:0:0:
208,324,100627,1,0,3:0:0:0:
208,324,100712,1,0,3:0:0:0:
208,324,100797,6,0,L|118:334,1,90,12|0,0:0|0:0,0:0:0:0:
264,168,101136,1,8,0:1:0:0:
92,64,101305,2,0,L|103:153,1,90,12|0,0:0|0:0,0:0:0:0:
280,12,101644,1,8,0:1:0:0:
224,192,101814,2,0,L|313:180,1,90,12|8,0:0|0:1,0:0:0:0:
348,180,102068,1,0,3:0:0:0:
348,180,102153,5,12,0:0:0:0:
116,104,102322,1,12,0:0:0:0:
116,104,103170,5,8,0:0:0:0:
156,96,103254,1,8,0:0:0:0:
196,100,103339,1,8,0:0:0:0:
228,124,103424,1,8,0:0:0:0:
252,156,103508,6,0,P|292:164|352:160,1,90,12|8,0:1|0:1,0:0:0:0:
472,64,103847,1,8,0:0:0:0:
420,224,104017,1,0,3:0:0:0:
420,224,104102,1,0,3:0:0:0:
420,224,104186,2,0,L|426:313,1,90,8|8,0:1|0:1,0:0:0:0:
300,80,104525,1,8,0:0:0:0:
460,108,104695,1,2,0:0:0:0:
300,248,104864,6,0,P|252:260|196:260,1,90,10|8,0:1|0:1,0:0:0:0:
328,116,105203,1,8,0:0:0:0:
140,72,105373,1,2,3:2:0:0:
140,72,105458,1,0,3:0:0:0:
140,72,105542,1,8,0:1:0:0:
244,184,105712,1,10,0:1:0:0:
224,4,105881,1,8,0:0:0:0:
96,176,106051,1,2,3:2:0:0:
96,176,106136,1,0,3:0:0:0:
96,176,106220,6,0,L|106:265,1,90,10|8,0:1|0:1,0:0:0:0:
292,120,106559,2,0,L|302:30,1,90,8|0,0:0|3:0,0:0:0:0:
188,208,106898,1,10,0:1:0:0:
188,208,106983,1,0,3:0:0:0:
188,208,107068,1,8,0:1:0:0:
428,268,107237,2,0,L|332:280,1,90,8|2,0:0|3:2,0:0:0:0:
304,288,107492,1,0,3:0:0:0:
304,288,107576,5,12,0:1:0:0:
420,116,107746,2,0,P|444:112|476:112,1,45,8|0,0:0|3:0,0:0:0:0:
512,212,107915,1,10,0:1:0:0:
336,172,108085,2,0,P|325:149|317:118,1,45,8|0,0:0|3:0,0:0:0:0:
360,40,108254,5,8,0:1:0:0:
320,52,108339,1,8,0:0:0:0:
280,56,108424,1,8,0:0:0:0:
240,52,108508,1,8,0:0:0:0:
200,44,108593,1,8,0:0:0:0:
160,44,108678,1,8,0:0:0:0:
120,52,108763,1,0,3:0:0:0:
84,72,108847,1,0,3:0:0:0:
51,99,108932,6,0,P|39:56|32:12,1,90,12|2,0:1|0:0,0:0:0:0:
172,208,109271,2,0,P|165:252|152:295,1,90,8|2,0:0|0:0,0:0:0:0:
0,168,109610,5,8,0:0:0:0:
84,352,109780,1,10,0:1:0:0:
236,132,109949,1,8,0:0:0:0:
80,224,110119,1,10,0:1:0:0:
80,224,110203,1,0,3:0:0:0:
80,224,110288,5,8,0:0:0:0:
276,336,110458,1,10,0:1:0:0:
132,124,110627,1,8,0:0:0:0:
48,332,110797,1,10,0:1:0:0:
232,84,110966,5,8,0:0:0:0:
160,304,111136,1,10,0:1:0:0:
24,116,111305,1,8,0:0:0:0:
272,212,111475,1,10,0:1:0:0:
272,212,111559,1,0,3:0:0:0:
272,212,111644,5,8,0:1:0:0:
384,132,111814,1,8,0:1:0:0:
340,316,111983,1,8,0:1:0:0:
292,112,112153,1,10,0:1:0:0:
472,248,112322,5,8,0:1:0:0:
248,300,112492,1,8,0:1:0:0:
408,88,112661,1,10,0:1:0:0:
376,352,112831,1,8,0:1:0:0:
184,160,113000,5,8,0:0:0:0:
460,228,113170,1,8,0:0:0:0:
288,28,113339,1,8,0:0:0:0:
236,320,113508,1,8,0:0:0:0:
40,156,113678,5,8,0:0:0:0:
84,136,113763,1,8,0:0:0:0:
132,128,113847,1,8,0:0:0:0:
180,140,113932,1,8,0:0:0:0:
224,164,114017,1,8,0:0:0:0:
272,172,114102,1,8,0:0:0:0:
320,164,114186,1,8,0:0:0:0:
360,136,114271,1,8,0:0:0:0:
388,96,114356,5,12,0:0:0:0:
256,192,114525,12,0,119780,0:0:0:0:
