osu file format v14

[General]
AudioFilename: audio.mp3
AudioLeadIn: 0
PreviewTime: 59029
Countdown: 0
SampleSet: Soft
StackLeniency: 0.7
Mode: 0
LetterboxInBreaks: 0
WidescreenStoryboard: 0

[Editor]
DistanceSpacing: 1.1
BeatDivisor: 2
GridSize: 4
TimelineZoom: 0.4999999

[Metadata]
Title:Atlantico Blue
TitleUnicode:Atlantico Blue
Artist:Sasaki Sayaka
ArtistUnicode:佐咲紗花
Creator:Elasia
Version:Easy
Source:
Tags:
BeatmapID:1000578
BeatmapSetID:454249

[Difficulty]
HPDrainRate:2
CircleSize:3
OverallDifficulty:2
ApproachRate:3
SliderMultiplier:0.8
SliderTickRate:1

[Events]
//Background and Video events
0,0,"image.jpg",0,0
//Break Periods
//Storyboard Layer 0 (Background)
//Storyboard Layer 1 (Fail)
//Storyboard Layer 2 (Pass)
//Storyboard Layer 3 (Foreground)
//Storyboard Layer 4 (Overlay)
//Storyboard Sound Samples

[TimingPoints]
3170,338.983050847458,4,2,1,40,1,0
11305,-100,4,2,1,45,0,0
14017,-100,4,2,1,60,0,0
24864,-100,4,2,1,50,0,0
54695,-100,4,2,1,55,0,0
56051,-100,4,2,1,60,0,0
57407,-100,4,2,1,65,0,0
60119,-100,4,2,1,75,0,1
92661,-100,4,2,1,60,0,0
98085,-100,4,2,1,40,0,0
100797,-100,4,2,1,60,0,0
111644,-100,4,2,1,50,0,0
112322,-100,4,2,1,60,0,0
113000,-100,4,2,1,70,0,0
114441,-100,4,2,1,50,0,0
115712,-100,4,2,1,40,0,0
117068,-100,4,2,1,30,0,0
118424,-100,4,2,1,20,0,0

[HitObjects]
64,224,3170,6,0,P|128:252|216:240,1,160,4|0,0:0|0:0,0:0:0:0:
288,192,4186,1,2,0:0:0:0:
364,236,4525,2,0,P|368:280|352:368,2,120,0|2|0,0:0|0:0|0:0,0:0:0:0:
400,156,5881,6,0,P|396:112|412:24,2,120,0|2|0,0:0|0:0|0:0,0:0:0:0:
456,224,7237,2,0,P|428:240|356:232,1,80
300,204,7915,2,0,P|260:204|225:222,1,80,2|4,0:0|0:0,0:0:0:0:
172,292,8593,5,10,0:1:0:0:
96,248,8932,2,0,L|88:156,1,80,8|8,0:1|0:1,0:0:0:0:
44,92,9610,1,10,0:1:0:0:
124,56,9949,2,0,P|164:52|204:52,1,80,8|8,0:1|0:1,0:0:0:0:
260,120,10627,2,0,P|300:124|340:124,1,80,8|4,0:1|0:0,0:0:0:0:
428,108,11305,6,0,P|420:152|424:204,1,80,12|8,0:1|0:1,0:0:0:0:
472,260,11983,1,8,0:0:0:0:
384,268,12322,1,8,0:0:0:0:
192,96,14017,6,0,P|144:96|96:88,1,80,12|8,0:1|0:0,0:0:0:0:
36,44,14695,2,0,L|16:144,1,80,8|8,0:1|0:0,0:0:0:0:
68,196,15373,2,0,P|76:256|68:324,2,120,10|2|8,0:1|3:2|0:0,0:0:0:0:
20,122,16729,6,0,P|60:108|96:112,1,80,10|8,0:1|0:0,0:0:0:0:
172,160,17407,2,0,L|260:168,1,80,10|8,0:1|0:0,0:0:0:0:
324,116,18085,2,0,P|380:108|464:124,2,120,10|2|8,0:1|3:2|0:0,0:0:0:0:
340,204,19441,6,0,L|324:304,1,80,10|4,0:1|0:0,0:0:0:0:
248,324,20119,2,0,L|235:245,1,80,10|4,0:1|0:0,0:0:0:0:
156,204,20797,2,0,L|140:304,1,80,10|4,0:1|0:0,0:0:0:0:
64,324,21475,1,10,0:1:0:0:
32,240,21814,1,10,0:0:0:0:
76,164,22153,6,0,P|136:116|224:144,1,160,10|8,0:1|0:1,0:0:0:0:
276,196,23170,1,8,0:0:0:0:
208,252,23508,2,0,P|200:288|196:332,1,80,10|8,0:1|0:1,0:0:0:0:
276,372,24186,1,8,0:1:0:0:
352,324,24525,1,8,0:0:0:0:
320,240,24864,6,0,P|324:168|364:108,2,120,12|2|8,0:1|0:0|0:0,0:0:0:0:
352,324,26220,2,0,P|324:328|240:336,1,80,8|8,0:1|0:0,0:0:0:0:
220,260,26898,2,0,P|192:256|108:248,1,80,8|8,0:1|0:0,0:0:0:0:
80,316,27576,6,0,P|52:240|108:168,1,160,8|8,0:1|0:1,0:0:0:0:
172,140,28593,1,8,0:0:0:0:
256,168,28932,2,0,P|296:180|352:184,1,80,8|8,0:1|0:0,0:0:0:0:
416,152,29610,2,0,L|428:244,1,80,8|8,0:1|0:0,0:0:0:0:
388,312,30288,6,0,P|440:284|504:276,2,120,8|2|8,0:1|0:0|0:0,0:0:0:0:
312,356,31644,2,0,P|268:364|212:368,1,80,8|8,0:1|0:0,0:0:0:0:
156,324,32322,2,0,L|140:245,1,80,8|8,0:1|0:0,0:0:0:0:
56,216,33000,6,0,P|112:160|196:176,1,160,8|8,0:1|0:1,0:0:0:0:
268,208,34017,1,8,0:0:0:0:
352,176,34356,2,0,P|364:136|368:88,1,80,8|8,0:1|0:0,0:0:0:0:
336,16,35034,1,8,0:1:0:0:
260,60,35373,1,8,0:0:0:0:
176,28,35712,6,0,P|120:24|56:32,2,120,12|2|8,0:1|0:0|0:0,0:0:0:0:
144,112,37068,1,8,0:1:0:0:
228,140,37407,2,0,L|320:132,1,80,8|8,0:0|0:1,0:0:0:0:
388,172,38085,1,8,0:0:0:0:
472,144,38424,6,0,P|420:204|432:288,1,160,10|10,0:1|0:1,0:0:0:0:
496,336,39441,1,8,0:0:0:0:
412,368,39780,2,0,L|316:356,1,80,10|8,0:1|0:0,0:0:0:0:
244,372,40458,1,8,0:1:0:0:
276,288,40797,1,8,0:0:0:0:
200,240,41136,6,0,P|172:184|168:104,2,120,8|2|8,0:1|0:0|0:0,0:0:0:0:
280,200,42492,2,0,P|336:172|416:168,2,120,8|2|8,0:1|3:2|0:0,0:0:0:0:
332,272,43847,6,0,P|332:312|320:364,1,80,8|8,0:1|0:0,0:0:0:0:
236,368,44525,1,10,0:1:0:0:
180,300,44864,1,8,0:0:0:0:
232,228,45203,2,0,L|240:148,1,80,8|8,0:0|0:1,0:0:0:0:
272,64,45881,1,10,0:1:0:0:
188,36,46220,1,8,0:0:0:0:
128,100,46559,6,0,B|100:136|60:140|60:140|80:180|64:228,1,160,12|8,0:1|0:0,0:0:0:0:
24,292,47576,1,2,0:0:0:0:
92,348,47915,2,0,P|136:356|180:356,1,80,8|0,0:1|0:0,0:0:0:0:
232,292,48593,2,0,P|276:284|320:284,1,80,8|0,0:0|0:0,0:0:0:0:
396,312,49271,6,0,B|368:276|360:240|360:240|396:212|408:160,1,160,8|8,0:1|0:0,0:0:0:0:
384,88,50288,1,2,0:0:0:0:
312,140,50627,2,0,P|271:146|220:144,1,80,12|8,0:1|0:0,0:0:0:0:
152,104,51305,2,0,P|140:143|116:189,1,80,8|8,0:1|0:0,0:0:0:0:
40,212,51983,5,12,0:1:0:0:
100,276,52322,1,8,0:1:0:0:
184,244,52661,2,0,P|225:237|276:240,1,80,10|8,0:1|0:1,0:0:0:0:
324,304,53339,1,8,0:1:0:0:
388,244,53678,1,8,0:1:0:0:
356,160,54017,2,0,P|352:124|364:60,1,80,10|8,0:1|0:1,0:0:0:0:
424,20,54695,6,0,P|348:32|256:32,1,160,8|10,0:1|0:1,0:0:0:0:
180,12,55712,1,8,0:1:0:0:
144,92,56051,2,0,P|148:136|156:184,1,80,10|10,0:1|0:1,0:0:0:0:
236,208,56729,2,0,P|232:252|224:300,1,80,10|10,0:1|0:1,0:0:0:0:
144,320,57407,6,0,P|88:324|24:288,2,120,8|8|8,0:0|0:0|0:0,0:0:0:0:
226,287,58763,2,0,P|266:291|310:299,1,80,8|10,0:0|0:1,0:0:0:0:
384,256,59441,2,0,P|424:252|468:244,1,80,10|8,0:1|0:0,0:0:0:0:
512,172,60119,5,12,0:1:0:0:
424,156,60458,2,0,P|392:128|372:84,1,80,8|8,0:0|0:1,0:0:0:0:
392,8,61136,1,8,0:0:0:0:
308,36,61475,2,0,P|264:48|216:48,1,80,8|8,0:1|0:0,0:0:0:0:
144,24,62153,2,0,L|132:116,1,80,8|8,0:1|0:0,0:0:0:0:
172,184,62831,6,0,P|172:252|152:324,2,120,8|2|8,0:1|0:0|0:0,0:0:0:0:
133,103,64186,1,8,0:1:0:0:
220,108,64525,2,0,P|264:104|320:88,1,80,8|8,0:0|0:1,0:0:0:0:
376,56,65203,1,8,0:0:0:0:
444,120,65542,5,12,0:1:0:0:
368,172,65881,2,0,P|371:211|378:251,1,80,8|8,0:0|0:1,0:0:0:0:
432,324,66559,1,8,0:0:0:0:
344,336,66898,2,0,P|328:332|252:324,1,80,8|8,0:1|0:0,0:0:0:0:
180,352,67576,2,0,L|168:260,1,80,8|8,0:1|0:0,0:0:0:0:
212,196,68254,6,0,P|224:137|223:77,2,120,8|2|8,0:1|0:0|0:0,0:0:0:0:
124,176,69610,2,0,P|84:180|44:196,1,80,8|8,0:1|0:0,0:0:0:0:
8,276,70288,2,0,P|44:292|92:300,1,80,8|8,0:1|0:0,0:0:0:0:
169,272,70966,6,0,P|233:256|301:264,2,120,12|2|8,0:1|0:0|0:0,0:0:0:0:
84,300,72322,2,0,L|72:216,1,80,8|8,0:1|0:0,0:0:0:0:
152,184,73000,2,0,L|164:100,1,80,8|8,0:1|0:0,0:0:0:0:
216,32,73678,6,0,P|156:44|72:44,2,120,8|2|8,0:1|0:0|0:0,0:0:0:0:
304,16,75034,2,0,P|348:28|392:36,1,80,8|8,0:1|0:0,0:0:0:0:
468,12,75712,2,0,L|480:108,1,80,8|8,0:1|0:0,0:0:0:0:
444,172,76390,5,8,0:1:0:0:
368,128,76729,2,0,P|296:140|284:232,1,160,8|8,0:0|0:0,0:0:0:0:
328,288,77746,2,0,L|308:368,1,80,8|8,0:1|0:0,0:0:0:0:
224,348,78424,2,0,L|204:270,1,80,8|8,0:1|0:0,0:0:0:0:
124,232,79102,6,0,P|196:180|264:204,1,160,8|8,0:1|0:1,0:0:0:0:
316,268,80119,1,8,0:0:0:0:
380,204,80458,2,0,P|392:160|396:112,1,80,8|8,0:1|0:0,0:0:0:0:
356,48,81136,2,0,L|272:64,1,80,8|8,1:0|0:0,0:0:0:0:
196,28,81814,5,12,0:1:0:0:
148,100,82153,2,0,P|144:140|148:184,1,80,8|8,0:0|0:1,0:0:0:0:
212,240,82831,1,8,0:0:0:0:
128,268,83170,2,0,L|40:260,1,80,8|8,0:1|0:0,0:0:0:0:
16,344,83847,2,0,L|104:352,1,80,8|8,0:1|0:0,0:0:0:0:
184,340,84525,6,0,P|244:324|304:324,2,120,8|2|8,0:1|0:0|0:0,0:0:0:0:
96,352,85881,1,8,0:1:0:0:
128,268,86220,2,0,L|116:168,1,80,8|8,0:0|0:1,0:0:0:0:
156,108,86898,1,8,0:0:0:0:
244,128,87237,6,0,P|292:140|352:148,1,80,8|8,0:1|0:0,0:0:0:0:
400,100,87915,2,0,L|416:192,1,80,8|8,0:1|0:0,0:0:0:0:
340,232,88593,2,0,P|328:284|324:380,2,120,8|2|8,0:1|0:0|0:0,0:0:0:0:
322,144,89949,6,0,P|318:84|305:25,2,120,8|2|8,0:1|0:0|0:0,0:0:0:0:
248,196,91305,2,0,P|240:236|236:284,1,80,8|8,0:1|0:0,0:0:0:0:
248,364,91983,2,0,L|160:352,1,80,8|8,0:0|0:1,0:0:0:0:
80,368,92661,6,0,P|104:288|100:208,1,160,12|8,0:1|0:0,0:0:0:0:
80,128,93678,1,2,0:0:0:0:
132,56,94017,2,0,P|76:72|12:68,2,120,8|8|2,0:1|0:1|0:0,0:0:0:0:
216,24,95373,6,0,P|258:27|312:36,1,80,12|2,0:1|0:0,0:0:0:0:
332,116,96051,2,0,P|292:121|252:124,1,80,12|2,0:1|0:0,0:0:0:0:
168,104,96729,1,12,0:1:0:0:
192,188,97068,1,2,0:0:0:0:
144,264,97407,2,0,P|184:272|232:272,1,80,8|0,0:0|0:0,0:0:0:0:
300,228,98085,6,0,P|372:244|356:316,1,160,4|2,0:0|0:0,0:0:0:0:
292,372,99102,1,0,0:0:0:0:
207,350,99441,2,0,P|219:306|223:262,1,80,2|0,0:0|0:0,0:0:0:0:
168,200,100119,2,0,L|256:160,1,80,2|0,0:0|0:0,0:0:0:0:
328,192,100797,6,0,P|384:212|443:220,2,120,12|12|12,0:0|0:0|0:0,0:0:0:0:
304,108,102153,1,12,0:0:0:0:
504,284,103170,1,8,0:0:0:0:
420,308,103508,6,0,P|380:312|340:312,1,80,12|8,0:1|0:0,0:0:0:0:
272,256,104186,2,0,P|232:252|192:252,1,80,8|8,0:1|0:0,0:0:0:0:
116,296,104864,2,0,P|132:244|144:168,2,120,10|2|8,0:1|3:2|0:0,0:0:0:0:
64,368,106220,6,0,L|164:384,1,80,10|8,0:1|0:0,0:0:0:0:
208,320,106898,2,0,L|308:304,1,80,10|8,0:1|0:0,0:0:0:0:
372,332,107576,2,0,P|408:344|464:344,2,80,12|10|8,0:1|0:1|0:1,0:0:0:0:
424,260,108593,1,8,0:0:0:0:
396,176,108932,6,0,P|356:184|312:188,1,80,12|8,0:1|0:0,0:0:0:0:
280,108,109610,2,0,L|196:92,1,80,8|8,0:0|0:0,0:0:0:0:
128,40,110288,2,0,P|116:76|80:124,1,80,8|8,0:0|0:0,0:0:0:0:
12,148,110966,1,8,0:0:0:0:
84,200,111305,1,8,0:0:0:0:
164,164,111644,6,0,P|236:136|328:144,1,160,8|8,0:1|0:1,0:0:0:0:
396,184,112661,1,10,0:1:0:0:
328,244,113000,2,0,L|312:336,1,80,8|8,0:0|0:0,0:0:0:0:
236,368,113678,1,8,0:0:0:0:
148,352,114017,1,8,0:0:0:0:
204,284,114356,5,12,0:0:0:0:
256,192,114525,12,0,119780,0:0:0:0:
