osu file format v14

[General]
AudioFilename: audio.mp3
AudioLeadIn: 0
PreviewTime: 59029
Countdown: 0
SampleSet: Normal
StackLeniency: 0.7
Mode: 1
LetterboxInBreaks: 0
WidescreenStoryboard: 0

[Editor]
Bookmarks: 3170,8593,11305,14017,19441,22153,24864,35712,46559,51983,54695,57407,58763,60119,70966,81814,92661,98085,100797,103508,114356
DistanceSpacing: 1.2
BeatDivisor: 1
GridSize: 4
TimelineZoom: 0.5999999

[Metadata]
Title:Atlantico Blue
TitleUnicode:Atlantico Blue
Artist:Sasaki Sayaka
ArtistUnicode:佐咲紗花
Creator:404 AccNotFound
Version:komasy's Kantan
Source:
Tags:堀江晶太 Horie Shouta kemu komasy iloveyou4ever Charlotte
BeatmapID:1360673
BeatmapSetID:641315

[Difficulty]
HPDrainRate:7
CircleSize:7
OverallDifficulty:3
ApproachRate:10
SliderMultiplier:1.4
SliderTickRate:1

[Events]
//Background and Video events
0,0,"KakaoTalk_20170718_025357819.jpg",0,40
//Break Periods
//Storyboard Layer 0 (Background)
//Storyboard Layer 1 (Fail)
//Storyboard Layer 2 (Pass)
//Storyboard Layer 3 (Foreground)
//Storyboard Sound Samples

[TimingPoints]
3170,338.983050847458,4,1,0,80,1,0
60119,-100,4,1,0,80,0,1
92661,-100,4,1,0,80,0,0
103508,-100,4,1,0,80,0,1
114356,-100,4,1,0,70,0,0

[Colours]
Combo1 : 255,0,0
Combo2 : 24,84,255

[HitObjects]
300,188,3170,5,8,0:0:0:0:
280,172,5881,1,8,0:0:0:0:
280,172,8593,1,0,0:0:0:0:
280,172,9949,1,0,0:0:0:0:
280,172,11305,1,12,0:0:0:0:
436,372,12492,1,12,0:0:0:0:
296,168,14017,1,4,0:0:0:0:
352,144,15373,1,8,0:0:0:0:
352,144,16051,1,8,0:0:0:0:
216,88,16390,1,8,0:0:0:0:
352,144,16729,1,0,0:0:0:0:
352,144,17407,1,8,0:0:0:0:
352,144,18085,1,0,0:0:0:0:
352,144,18424,1,8,0:0:0:0:
352,144,19102,1,8,0:0:0:0:
352,144,19441,1,0,0:0:0:0:
424,84,20119,1,0,0:0:0:0:
424,84,20797,1,8,0:0:0:0:
424,84,21475,1,8,0:0:0:0:
424,84,22153,1,0,0:0:0:0:
424,84,23508,1,8,0:0:0:0:
460,184,24864,1,4,0:0:0:0:
284,100,26220,1,8,0:0:0:0:
284,100,27576,1,0,0:0:0:0:
352,120,28254,1,8,0:0:0:0:
352,120,28932,1,0,0:0:0:0:
388,136,30288,1,8,0:0:0:0:
388,136,31644,1,0,0:0:0:0:
388,136,33000,1,8,0:0:0:0:
388,136,33678,1,0,0:0:0:0:
388,136,34356,1,8,0:0:0:0:
388,136,35712,1,4,0:0:0:0:
396,176,37068,1,8,0:0:0:0:
280,104,38424,1,8,0:0:0:0:
104,28,39102,1,8,0:0:0:0:
400,152,39780,1,0,0:0:0:0:
348,160,41136,1,0,0:0:0:0:
420,188,42492,1,8,0:0:0:0:
420,188,43847,1,0,0:0:0:0:
144,364,44525,1,8,0:0:0:0:
400,196,45203,1,8,0:0:0:0:
340,172,46559,1,4,0:0:0:0:
348,168,47915,1,8,0:0:0:0:
44,284,48593,1,0,0:0:0:0:
348,168,49271,1,8,0:0:0:0:
348,168,50627,1,0,0:0:0:0:
348,168,51305,1,8,0:0:0:0:
348,168,51983,1,0,0:0:0:0:
348,168,53339,1,0,0:0:0:0:
312,248,54017,1,0,0:0:0:0:
320,24,54356,1,8,0:0:0:0:
300,164,54695,1,4,0:0:0:0:
400,120,56051,1,8,0:0:0:0:
240,200,56729,1,8,0:0:0:0:
244,80,57068,1,0,0:0:0:0:
288,196,57407,1,12,0:0:0:0:
288,196,58085,1,0,0:0:0:0:
228,128,58763,1,8,0:0:0:0:
288,196,60119,5,4,0:0:0:0:
216,92,60797,1,8,0:0:0:0:
368,132,61136,1,8,0:0:0:0:
216,92,61475,1,0,0:0:0:0:
216,92,62153,1,8,0:0:0:0:
216,92,62831,1,0,0:0:0:0:
216,92,63508,1,8,0:0:0:0:
316,216,63847,1,0,0:0:0:0:
68,160,64525,1,0,0:0:0:0:
440,324,64864,1,8,0:0:0:0:
260,64,65542,1,0,0:0:0:0:
444,340,66220,1,8,0:0:0:0:
356,208,66559,1,8,0:0:0:0:
280,84,66898,1,0,0:0:0:0:
464,380,67576,1,8,0:0:0:0:
284,92,68254,1,8,0:0:0:0:
312,148,68932,1,0,0:0:0:0:
312,148,69271,1,8,0:0:0:0:
48,80,70288,1,8,0:0:0:0:
384,184,70966,1,4,0:0:0:0:
84,80,71644,1,8,0:0:0:0:
232,124,71983,1,8,0:0:0:0:
232,124,72322,1,0,0:0:0:0:
232,124,73000,1,8,0:0:0:0:
232,124,73678,1,0,0:0:0:0:
232,124,74356,1,8,0:0:0:0:
232,124,74695,1,0,0:0:0:0:
232,124,75034,1,8,0:0:0:0:
272,112,76390,1,0,0:0:0:0:
336,152,77068,1,0,0:0:0:0:
188,100,77407,1,8,0:0:0:0:
336,152,77746,1,0,0:0:0:0:
336,152,78424,1,8,0:0:0:0:
216,48,78763,1,8,0:0:0:0:
344,156,79102,1,0,0:0:0:0:
328,80,79780,1,8,0:0:0:0:
352,216,81136,1,8,0:0:0:0:
288,196,81814,1,4,0:0:0:0:
216,92,82492,1,8,0:0:0:0:
368,132,82831,1,8,0:0:0:0:
216,92,83170,1,0,0:0:0:0:
216,92,83848,1,8,0:0:0:0:
216,92,84526,1,0,0:0:0:0:
216,92,85203,1,8,0:0:0:0:
316,216,85542,1,0,0:0:0:0:
68,160,86220,1,0,0:0:0:0:
440,324,86559,1,8,0:0:0:0:
260,64,87237,1,0,0:0:0:0:
444,340,87915,1,8,0:0:0:0:
356,208,88254,1,0,0:0:0:0:
280,84,88593,1,8,0:0:0:0:
464,380,89271,1,8,0:0:0:0:
284,92,89949,1,0,0:0:0:0:
312,148,90627,1,0,0:0:0:0:
312,148,90966,1,8,0:0:0:0:
184,64,91305,1,8,0:0:0:0:
404,304,91983,1,12,0:0:0:0:
384,184,92661,1,4,0:0:0:0:
84,80,94017,1,0,0:0:0:0:
232,124,94695,1,8,0:0:0:0:
232,124,95373,1,4,0:0:0:0:
232,124,96051,1,4,0:0:0:0:
232,124,96729,1,12,0:0:0:0:
280,116,98085,1,8,0:0:0:0:
280,116,100458,1,8,0:0:0:0:
280,116,100797,1,4,0:0:0:0:
224,116,101475,1,8,0:0:0:0:
316,224,101814,1,8,0:0:0:0:
364,224,102153,1,4,0:0:0:0:
312,140,103508,1,4,0:0:0:0:
4,108,104186,1,0,0:0:0:0:
400,144,104864,1,8,0:0:0:0:
80,172,105542,1,8,0:0:0:0:
284,220,105881,1,8,0:0:0:0:
404,96,106220,1,0,0:0:0:0:
100,164,106898,1,8,0:0:0:0:
416,80,107576,1,0,0:0:0:0:
204,96,108932,1,0,0:0:0:0:
204,96,109610,1,0,0:0:0:0:
204,96,110288,1,8,0:0:0:0:
240,84,110966,1,8,0:0:0:0:
240,84,111644,1,0,0:0:0:0:
476,320,112322,1,0,0:0:0:0:
372,216,112661,1,0,0:0:0:0:
264,72,113000,1,8,0:0:0:0:
268,112,113678,1,8,0:0:0:0:
268,112,114017,1,8,0:0:0:0:
256,192,114356,12,0,119780,0:0:0:0:
