osu file format v14

[General]
AudioFilename: audio.mp3
AudioLeadIn: 0
PreviewTime: 59029
Countdown: 0
SampleSet: Normal
StackLeniency: 0.7
Mode: 1
LetterboxInBreaks: 0
WidescreenStoryboard: 0

[Editor]
Bookmarks: 3170,8593,11305,14017,19441,22153,24864,35712,46559,51983,54695,57407,58763,60119,70966,81814,92661,98085,100797,103508,114356
DistanceSpacing: 1.2
BeatDivisor: 2
GridSize: 4
TimelineZoom: 0.9

[Metadata]
Title:Atlantico Blue
TitleUnicode:Atlantico Blue
Artist:Sasaki Sayaka
ArtistUnicode:佐咲紗花
Creator:404 AccNotFound
Version:Futsuu
Source:
Tags:堀江晶太 Horie Shouta kemu komasy iloveyou4ever Charlotte
BeatmapID:1361324
BeatmapSetID:641315

[Difficulty]
HPDrainRate:6.5
CircleSize:4
OverallDifficulty:4
ApproachRate:9.2
SliderMultiplier:1.4
SliderTickRate:1

[Events]
//Background and Video events
0,0,"KakaoTalk_20170718_025357819.jpg",0,40
//Break Periods
//Storyboard Layer 0 (Background)
//Storyboard Layer 1 (Fail)
//Storyboard Layer 2 (Pass)
//Storyboard Layer 3 (Foreground)
//Storyboard Sound Samples

[TimingPoints]
3170,338.983050847458,4,1,0,80,1,0
60119,-100,4,1,0,80,0,1
92661,-100,4,1,0,80,0,0
103508,-100,4,1,0,80,0,1
114356,-100,4,1,0,70,0,0

[Colours]
Combo1 : 255,0,0
Combo2 : 24,84,255

[HitObjects]
252,256,3170,5,0,0:0:0:0:
252,256,3508,1,0,0:0:0:0:
252,256,3847,1,0,0:0:0:0:
212,148,4525,1,8,0:0:0:0:
212,148,4864,1,8,0:0:0:0:
212,148,5203,1,8,0:0:0:0:
232,184,5881,1,0,0:0:0:0:
232,184,6220,1,0,0:0:0:0:
232,184,6559,1,0,0:0:0:0:
232,184,7237,1,8,0:0:0:0:
232,184,7576,1,8,0:0:0:0:
232,184,7915,1,8,0:0:0:0:
232,184,8593,1,0,0:0:0:0:
132,136,8932,1,0,0:0:0:0:
132,136,9271,1,0,0:0:0:0:
132,136,9610,1,0,0:0:0:0:
132,136,9949,1,8,0:0:0:0:
132,136,10288,1,8,0:0:0:0:
132,136,10627,1,8,0:0:0:0:
132,136,11305,1,8,0:0:0:0:
208,120,11644,1,0,0:0:0:0:
208,120,11983,1,0,0:0:0:0:
208,120,12153,1,0,0:0:0:0:
208,120,12322,1,0,0:0:0:0:
208,120,12492,1,0,0:0:0:0:
180,176,14017,1,4,0:0:0:0:
180,176,14356,1,8,0:0:0:0:
180,176,15034,1,8,0:0:0:0:
180,176,15373,1,0,0:0:0:0:
180,176,15712,1,8,0:0:0:0:
180,176,15881,1,0,0:0:0:0:
296,168,16220,1,0,0:0:0:0:
180,176,16390,1,8,0:0:0:0:
180,176,16729,1,0,0:0:0:0:
180,176,17068,1,8,0:0:0:0:
180,176,17746,1,8,0:0:0:0:
236,164,18085,1,0,0:0:0:0:
236,164,18424,1,8,0:0:0:0:
180,108,18763,1,8,0:0:0:0:
180,108,18932,1,8,0:0:0:0:
180,108,19102,1,8,0:0:0:0:
236,164,19441,1,0,0:0:0:0:
236,164,19780,1,12,0:0:0:0:
236,164,20458,1,12,0:0:0:0:
236,164,21136,1,12,0:0:0:0:
44,200,21475,1,8,0:0:0:0:
44,200,21644,1,8,0:0:0:0:
236,164,21814,1,8,0:0:0:0:
236,164,22153,1,4,0:0:0:0:
148,132,22492,1,8,0:0:0:0:
148,132,23170,1,8,0:0:0:0:
148,132,23508,1,0,0:0:0:0:
148,132,23847,1,0,0:0:0:0:
148,132,24017,1,0,0:0:0:0:
148,132,24186,1,0,0:0:0:0:
148,132,24525,1,8,0:0:0:0:
148,132,24864,1,4,0:0:0:0:
228,148,25203,1,8,0:0:0:0:
228,148,25881,1,8,0:0:0:0:
228,148,26220,1,0,0:0:0:0:
144,136,26559,1,8,0:0:0:0:
144,136,26898,1,0,0:0:0:0:
144,136,27068,1,0,0:0:0:0:
144,136,27237,1,8,0:0:0:0:
144,136,27576,1,0,0:0:0:0:
144,136,27915,1,8,0:0:0:0:
144,136,28424,1,8,0:0:0:0:
144,136,28593,1,8,0:0:0:0:
144,136,28932,1,0,0:0:0:0:
144,136,29271,1,8,0:0:0:0:
144,136,29610,1,0,0:0:0:0:
144,136,29780,1,0,0:0:0:0:
144,136,29949,1,8,0:0:0:0:
144,136,30288,1,0,0:0:0:0:
144,136,30627,1,8,0:0:0:0:
144,136,31305,1,8,0:0:0:0:
144,136,31644,1,0,0:0:0:0:
212,96,31983,1,8,0:0:0:0:
212,96,32322,1,0,0:0:0:0:
212,96,32492,1,0,0:0:0:0:
212,96,32661,1,8,0:0:0:0:
212,96,33000,1,0,0:0:0:0:
212,96,33339,1,8,0:0:0:0:
212,96,33847,1,0,0:0:0:0:
212,96,34017,1,8,0:0:0:0:
212,96,34356,1,0,0:0:0:0:
212,96,34695,1,8,0:0:0:0:
212,96,35034,1,8,0:0:0:0:
212,64,35203,1,8,0:0:0:0:
212,64,35373,1,8,0:0:0:0:
168,184,35712,1,4,0:0:0:0:
92,136,36051,1,8,0:0:0:0:
140,72,36729,1,8,0:0:0:0:
140,72,37068,1,0,0:0:0:0:
140,72,37407,1,8,0:0:0:0:
140,72,37746,1,0,0:0:0:0:
140,72,37915,1,0,0:0:0:0:
140,72,38085,1,8,0:0:0:0:
140,72,38424,1,0,0:0:0:0:
140,72,38763,1,8,0:0:0:0:
140,72,38932,1,8,0:0:0:0:
140,72,39441,1,8,0:0:0:0:
156,56,39780,1,0,0:0:0:0:
160,56,40119,1,8,0:0:0:0:
160,56,40458,1,0,0:0:0:0:
156,56,40627,1,0,0:0:0:0:
156,56,40797,1,8,0:0:0:0:
160,56,41136,1,0,0:0:0:0:
160,56,41475,1,8,0:0:0:0:
160,56,42153,1,8,0:0:0:0:
160,56,42492,1,0,0:0:0:0:
160,56,42831,1,8,0:0:0:0:
160,56,43170,1,0,0:0:0:0:
160,56,43339,1,0,0:0:0:0:
160,56,43508,1,8,0:0:0:0:
160,56,43847,1,0,0:0:0:0:
160,56,44186,1,8,0:0:0:0:
160,56,44525,1,0,0:0:0:0:
160,56,44695,1,0,0:0:0:0:
160,56,44864,1,0,0:0:0:0:
160,56,45203,1,8,0:0:0:0:
160,56,45881,1,0,0:0:0:0:
160,56,46220,1,8,0:0:0:0:
160,56,46559,1,4,0:1:0:0:
240,160,46729,1,4,0:1:0:0:
368,208,47237,1,8,0:1:0:0:
368,208,47915,1,4,0:1:0:0:
240,176,48085,1,4,0:1:0:0:
368,208,49271,1,12,0:0:0:0:
200,132,49441,1,12,0:0:0:0:
368,208,49949,1,0,0:0:0:0:
368,208,50627,1,12,0:0:0:0:
276,184,50797,1,12,0:0:0:0:
368,208,51305,1,8,0:0:0:0:
368,208,51475,1,8,0:0:0:0:
368,208,51644,1,8,0:0:0:0:
368,208,51983,1,0,0:0:0:0:
244,160,52322,1,0,0:0:0:0:
368,208,52661,1,8,0:0:0:0:
212,76,52831,1,8,0:0:0:0:
224,128,53000,1,0,0:0:0:0:
368,208,53339,1,8,0:0:0:0:
248,160,53678,1,0,0:0:0:0:
368,208,54017,1,8,0:0:0:0:
368,208,54695,1,4,0:0:0:0:
368,208,55034,1,0,0:0:0:0:
368,208,55203,1,0,0:0:0:0:
368,208,55373,1,0,0:0:0:0:
368,208,55712,1,0,0:0:0:0:
368,208,56051,1,8,0:0:0:0:
368,208,56390,1,8,0:0:0:0:
368,208,56729,1,0,0:0:0:0:
204,132,57407,1,12,0:0:0:0:
204,132,57915,1,4,0:0:0:0:
204,132,58424,1,4,0:0:0:0:
204,132,58763,1,12,0:0:0:0:
204,132,59102,1,0,0:0:0:0:
204,132,59441,1,0,0:0:0:0:
204,132,59610,1,0,0:0:0:0:
204,132,59780,1,8,0:0:0:0:
204,132,60119,1,4,0:0:0:0:
172,248,60458,1,8,0:0:0:0:
172,248,60797,1,0,0:0:0:0:
144,200,61136,1,8,0:0:0:0:
144,200,61305,1,8,0:0:0:0:
172,248,61475,1,0,0:0:0:0:
172,248,61814,1,8,0:0:0:0:
172,248,62153,1,0,0:0:0:0:
172,248,62831,1,0,0:0:0:0:
172,248,63170,1,8,0:0:0:0:
172,248,63339,1,0,0:0:0:0:
172,248,63678,1,0,0:0:0:0:
172,248,63847,1,8,0:0:0:0:
172,248,64186,1,0,0:0:0:0:
172,248,64525,1,8,0:0:0:0:
172,248,64864,1,8,0:0:0:0:
76,156,65034,1,0,0:0:0:0:
184,68,65203,1,8,0:0:0:0:
172,248,65542,1,4,0:0:0:0:
172,248,65881,1,8,0:0:0:0:
172,248,66220,1,0,0:0:0:0:
160,196,66559,1,8,0:0:0:0:
184,216,66729,1,8,0:0:0:0:
172,248,66898,1,0,0:0:0:0:
172,248,67237,1,8,0:0:0:0:
172,248,67576,1,8,0:0:0:0:
172,248,68254,1,0,0:0:0:0:
172,248,68593,1,8,0:0:0:0:
172,248,68763,1,0,0:0:0:0:
172,248,69102,1,0,0:0:0:0:
172,248,69271,1,8,0:0:0:0:
172,248,69610,1,0,0:0:0:0:
172,248,69949,1,8,0:0:0:0:
172,248,70288,1,8,0:0:0:0:
180,248,70458,1,8,0:0:0:0:
180,248,70627,1,8,0:0:0:0:
180,248,70966,1,4,0:0:0:0:
196,88,71305,1,8,0:0:0:0:
196,88,71475,1,0,0:0:0:0:
196,88,71814,1,0,0:0:0:0:
196,88,71983,1,8,0:0:0:0:
196,88,72322,1,0,0:0:0:0:
196,88,73000,1,0,0:0:0:0:
196,88,73339,1,8,0:0:0:0:
196,88,73678,1,0,0:0:0:0:
196,88,74017,1,8,0:0:0:0:
196,88,74186,1,0,0:0:0:0:
200,88,74525,1,0,0:0:0:0:
200,88,74695,1,8,0:0:0:0:
200,88,75034,1,0,0:0:0:0:
200,88,75712,1,8,0:0:0:0:
200,88,76051,1,8,0:0:0:0:
200,88,76390,1,4,0:0:0:0:
200,88,76729,1,8,0:0:0:0:
200,88,77068,1,0,0:0:0:0:
200,88,77237,1,0,0:0:0:0:
200,88,77407,1,0,0:0:0:0:
200,88,77746,1,12,0:0:0:0:
200,88,78085,1,0,0:0:0:0:
200,88,78424,1,8,0:0:0:0:
200,88,78593,1,8,0:0:0:0:
200,88,78763,1,8,0:0:0:0:
200,88,79102,1,4,0:0:0:0:
324,96,79441,1,0,0:0:0:0:
200,88,79780,1,0,0:0:0:0:
324,96,79949,1,0,0:0:0:0:
324,96,80119,1,0,0:0:0:0:
200,88,80458,1,8,0:0:0:0:
200,88,80797,1,8,0:0:0:0:
200,88,81136,1,0,0:0:0:0:
176,148,81814,1,4,0:0:0:0:
264,172,82153,1,8,0:0:0:0:
264,172,82492,1,0,0:0:0:0:
264,172,82831,1,8,0:0:0:0:
264,172,83000,1,8,0:0:0:0:
264,172,83170,1,0,0:0:0:0:
264,172,83508,1,8,0:0:0:0:
264,172,83847,1,0,0:0:0:0:
264,172,84525,1,0,0:0:0:0:
264,172,84864,1,8,0:0:0:0:
264,172,85034,1,0,0:0:0:0:
264,172,85373,1,0,0:0:0:0:
264,172,85542,1,8,0:0:0:0:
264,172,85881,1,0,0:0:0:0:
60,152,86220,1,8,0:0:0:0:
264,172,86559,1,8,0:0:0:0:
160,148,86729,1,0,0:0:0:0:
264,172,86898,1,8,0:0:0:0:
264,172,87237,1,4,0:0:0:0:
188,88,87576,1,8,0:0:0:0:
272,172,87915,1,0,0:0:0:0:
168,168,88085,1,0,0:0:0:0:
280,144,88254,1,0,0:0:0:0:
116,136,88593,1,12,0:0:0:0:
116,136,88932,1,0,0:0:0:0:
116,136,89271,1,8,0:0:0:0:
116,136,89949,1,4,0:0:0:0:
116,136,90288,1,8,0:0:0:0:
116,136,90458,1,0,0:0:0:0:
116,136,90797,1,0,0:0:0:0:
116,136,90966,1,8,0:0:0:0:
116,136,91305,1,0,0:0:0:0:
116,136,91644,1,8,0:0:0:0:
116,136,91983,1,8,0:0:0:0:
116,136,92661,1,4,0:0:0:0:
264,164,92831,1,4,0:0:0:0:
116,136,93339,1,8,0:0:0:0:
116,136,94017,1,4,0:0:0:0:
264,164,94186,1,4,0:0:0:0:
116,136,95373,1,12,0:0:0:0:
240,136,95542,1,12,0:0:0:0:
116,136,96051,1,4,0:0:0:0:
240,136,96220,1,4,0:0:0:0:
116,136,96729,1,12,0:0:0:0:
240,136,96898,1,12,0:0:0:0:
308,136,97407,1,8,0:0:0:0:
308,136,98085,1,0,0:0:0:0:
96,140,100797,1,4,0:0:0:0:
324,120,101305,1,4,0:0:0:0:
148,120,101814,1,4,0:0:0:0:
148,120,102153,1,12,0:0:0:0:
172,80,102322,1,12,0:0:0:0:
172,80,103170,1,8,0:0:0:0:
172,80,103508,1,4,0:0:0:0:
156,148,103847,1,8,0:0:0:0:
128,116,104186,1,0,0:0:0:0:
156,148,104356,1,0,0:0:0:0:
156,148,104525,1,8,0:0:0:0:
128,116,104864,1,0,0:0:0:0:
128,116,105203,1,8,0:0:0:0:
128,116,105542,1,0,0:0:0:0:
128,116,106220,1,0,0:0:0:0:
128,116,106559,1,8,0:0:0:0:
128,116,106898,1,0,0:0:0:0:
128,116,107068,1,0,0:0:0:0:
128,116,107237,1,0,0:0:0:0:
128,116,107576,1,8,0:0:0:0:
128,116,107915,1,8,0:0:0:0:
180,104,108085,1,8,0:0:0:0:
128,116,108254,1,8,0:0:0:0:
128,116,108593,1,8,0:0:0:0:
128,116,108932,1,0,0:0:0:0:
172,100,109271,1,8,0:0:0:0:
220,80,109610,1,0,0:0:0:0:
212,72,110288,1,8,0:0:0:0:
220,80,110627,1,0,0:0:0:0:
212,80,110966,1,8,0:0:0:0:
212,80,111644,1,0,0:0:0:0:
212,80,111983,1,0,0:0:0:0:
212,80,112153,1,0,0:0:0:0:
212,80,112322,1,0,0:0:0:0:
212,80,112661,1,0,0:0:0:0:
212,80,113000,1,8,0:0:0:0:
112,120,113339,1,0,0:0:0:0:
184,128,113678,1,8,0:0:0:0:
184,128,113847,1,8,0:0:0:0:
184,128,114017,1,8,0:0:0:0:
256,192,114356,12,0,119610,0:0:0:0:
