osu file format v14

[General]
AudioFilename: audio.mp3
AudioLeadIn: 0
PreviewTime: 59017
Countdown: 0
SampleSet: Soft
StackLeniency: 0.3
Mode: 0
LetterboxInBreaks: 0
WidescreenStoryboard: 0

[Editor]
Bookmarks: 3170,14017,24864,35712,46559,60119,81814,103508,119610
DistanceSpacing: 0.9
BeatDivisor: 4
GridSize: 32
TimelineZoom: 1

[Metadata]
Title:Atlantico Blue
TitleUnicode:Atlantico Blue
Artist:Sasaki Sayaka
ArtistUnicode:佐咲紗花
Creator:[C u r i]
Version:Sonnyc's Normal
Source:
Tags:Sonnyc Dailycare Morinaga Left Karia 堀江晶太 Horie Shota
BeatmapID:1474494
BeatmapSetID:690792

[Difficulty]
HPDrainRate:4
CircleSize:3
OverallDifficulty:4
ApproachRate:5.5
SliderMultiplier:1.2
SliderTickRate:1

[Events]
//Background and Video events
0,0,"cache-64750b5e-2a0d-46e7-c6eb-c0b850c17ad9.jpg",0,0
//Break Periods
//Storyboard Layer 0 (Background)
//Storyboard Layer 1 (Fail)
//Storyboard Layer 2 (Pass)
//Storyboard Layer 3 (Foreground)
//Storyboard Sound Samples

[TimingPoints]
3170,338.983050847458,4,2,50,60,1,0
14017,-100,4,2,50,80,0,0
24864,-100,4,2,50,70,0,0
60119,-100,4,2,50,90,0,1
98085,-100,4,2,50,50,0,0
100797,-100,4,2,50,90,0,1
103508,-100,4,2,50,80,0,0
119610,-100,4,2,50,60,0,0

[Colours]
Combo1 : 184,164,253
Combo2 : 255,0,128
Combo3 : 125,64,253
Combo4 : 255,166,255

[HitObjects]
64,218,3170,6,0,P|57:122|114:63,2,180,4|2|0,0:0|0:0|0:0,0:0:0:0:
158,271,4525,2,0,P|78:325|-1:305,2,180,0|2|0,0:0|0:0|0:0,0:0:0:0:
157,163,5881,2,0,P|243:204|266:283,2,180,0|2|0,0:0|0:0|0:0,0:0:0:0:
66,104,7237,6,0,P|48:160|63:217,1,120
154,276,7915,2,0,P|171:219|156:162,1,120,2|2,0:0|0:3,0:0:0:0:
218,73,8593,6,0,B|266:6|376:22|462:82|441:263|268:307|219:170|289:137,1,480,4|4,0:3|0:3,0:0:0:0:
489,221,10627,2,0,L|479:340,1,120,4|8,0:3|0:0,0:0:0:0:
378,301,11305,6,0,B|331:370|193:370|193:301|193:231|55:231|9:301,1,420,4|4,0:0|0:3,0:0:0:0:
9,301,14017,6,0,B|2:240|2:240|37:192,1,120,2|8,0:1|0:0,0:0:0:0:
121,124,14695,2,0,B|115:78|115:78|142:42,2,90,0|2|2,0:0|0:1|0:1,0:0:0:0:
130,177,15373,2,0,B|178:141|178:141|238:148,1,120,2|2,0:1|0:1,0:0:0:0:
291,157,15881,2,0,L|411:170,1,120,2|2,0:1|0:1,0:0:0:0:
394,331,16729,6,0,B|345:366|345:366|155:342,1,240,2|2,0:1|0:1,0:0:0:0:
99,300,17661,2,0,L|88:209,1,90,2|2,0:1|0:1,0:0:0:0:
130,177,18085,2,0,B|178:141|178:141|238:148,1,120,2|2,0:1|0:1,0:0:0:0:
291,157,18593,2,0,L|411:170,1,120,2|2,0:1|0:1,0:0:0:0:
338,24,19441,6,0,L|217:37,1,120,2|4,0:1|0:0,0:0:0:0:
136,107,20119,2,0,B|160:162|160:162|149:224,1,120,4|8,0:3|0:0,0:0:0:0:
51,175,20797,2,0,B|40:234|40:234|64:289,1,120,2|12,0:1|0:0,0:0:0:0:
119,382,21475,2,0,L|238:368,1,120,4|8,0:3|0:0,0:0:0:0:
345,354,22153,6,0,B|327:236|327:236|414:149|414:149|399:31,1,360,2|8,0:1|0:0,0:0:0:0:
293,0,23508,2,0,B|206:87|206:87|221:205,1,240,2|8,0:1|0:0,0:0:0:0:
236,310,24525,1,8,0:0:0:0:
322,245,24864,6,0,P|381:274|467:210,1,180,4|2,0:3|0:0,0:0:0:0:
371,81,25881,1,8,0:0:0:0:
320,101,26051,2,0,P|235:113|146:68,1,180,2|8,0:0|0:0,0:0:0:0:
110,38,26729,2,0,P|64:34|-3:66,1,120,2|0,0:0|0:0,0:0:0:0:
75,141,27407,6,0,B|127:222|139:353|22:340|16:206|227:263,1,360,2|0,0:0|0:0,0:0:0:0:
275,284,28593,2,0,P|308:304|336:332,1,60,8|0,0:0|0:0,0:0:0:0:
468,100,29949,5,8,0:0:0:0:
396,180,30288,2,0,P|337:209|251:145,1,180,2|0,0:0|0:0,0:0:0:0:
134,37,31305,1,8,0:0:0:0:
185,17,31475,2,0,P|270:5|359:50,1,180,2|8,0:0|0:0,0:0:0:0:
408,136,32322,2,0,P|412:182|380:249,1,120,4|8,0:3|0:0,0:0:0:0:
306,169,33000,6,0,B|232:199|123:190|151:97|261:111|184:275,1,300,2|0,0:0|0:0,0:0:0:0:
153,320,34017,1,8,0:0:0:0:
153,320,34186,2,0,B|79:289|-29:298|-1:391|108:377|31:213,1,300,2|8,0:0|0:0,0:0:0:0:
118,75,35542,5,2,0:0:0:0:
167,97,35712,2,0,L|304:84,1,120,4|8,0:0|0:0,0:0:0:0:
339,96,36220,2,0,P|387:130|379:242,1,180,2|8,0:0|0:0,0:0:0:0:
339,277,36898,2,0,P|274:236|177:336,1,240,2|0,0:0|0:0,0:0:0:0:
399,332,38254,5,0,0:0:0:0:
421,283,38424,2,0,L|408:146,1,120,2|8,0:0|0:0,0:0:0:0:
372,124,38932,2,0,P|288:104|227:165,1,180,2|8,0:0|0:0,0:0:0:0:
187,202,39610,2,0,P|103:221|42:160,1,180,2|8,0:0|0:0,0:0:0:0:
135,106,40458,5,0,0:0:0:0:
227,50,40797,1,8,0:0:0:0:
326,91,41136,2,0,P|367:71|439:94,1,120,2|8,0:0|0:0,0:0:0:0:
470,132,41644,2,0,P|382:217|373:332,1,240,2|0,0:0|0:0,0:0:0:0:
327,360,42492,6,0,P|243:380|182:319,1,180,2|2,0:0|0:0,0:0:0:0:
199,212,43339,2,0,L|124:221,1,60,0|8,0:0|0:0,0:0:0:0:
95,250,43678,2,0,P|82:191|202:43,1,240,2|2,0:0|0:0,0:0:0:0:
228,40,44525,2,0,P|256:92|254:151,2,120,2|10|2,0:1|0:0|0:1,0:0:0:0:
431,98,45881,5,2,0:0:0:0:
376,191,46220,1,8,0:0:0:0:
413,292,46559,2,0,B|332:283|332:283|271:322|271:322|185:314,2,240,4|8|2,0:0|0:0|0:0,0:0:0:0:
280,120,48593,2,0,B|216:113|216:113|168:143,1,120,8|0,0:0|0:0,0:0:0:0:
126,242,49271,22,0,B|134:161|134:161|96:100|96:100|104:14,2,240,2|8|2,0:0|0:0|0:0,0:0:0:0:
111,349,50966,1,8,0:0:0:0:
211,310,51305,2,0,B|274:316|274:316|322:286,1,120,2|8,0:0|0:0,0:0:0:0:
456,122,52322,37,8,0:0:0:0:
356,84,52661,2,0,B|292:90|292:90|244:60,1,120,2|8,0:0|0:0,0:0:0:0:
53,157,53678,5,8,0:0:0:0:
136,225,54017,2,0,L|228:214,2,90,4|2|2,0:3|0:0|0:0,0:0:0:0:
96,261,54695,2,0,P|74:313|179:354,1,180,4|2,0:0|0:0,0:0:0:0:
215,350,55373,2,0,P|291:335|462:380,1,240,2|2,0:0|0:0,0:0:0:0:
396,160,56729,5,2,0:0:0:0:
299,209,57068,2,0,L|238:205,1,60,2|0,0:0|0:0,0:0:0:0:
189,182,57407,2,0,P|167:130|272:89,2,180,12|8|8,0:0|0:0|0:0,0:0:0:0:
386,271,59102,5,8,0:0:0:0:
296,330,59441,2,0,L|172:322,1,120,4|8,0:3|0:0,0:0:0:0:
139,362,59949,2,0,P|114:303|188:207,1,180,4|8,0:0|0:0,0:0:0:0:
275,182,60797,2,0,L|399:190,1,120,4|8,0:3|0:0,0:0:0:0:
433,227,61305,2,0,P|458:168|384:72,1,180,2|8,0:0|0:0,0:0:0:0:
295,50,62153,6,0,L|188:56,2,90,2|2|2,0:0|0:0|0:0,0:0:0:0:
316,99,62831,2,0,L|171:107,1,120,2|8,0:0|0:0,0:0:0:0:
176,156,63339,2,0,L|295:149,1,120,2|0,0:0|0:0,0:0:0:0:
349,147,63847,1,10,0:0:0:0:
126,271,64525,5,8,0:0:0:0:
216,331,64864,2,0,L|340:323,1,120,4|8,0:3|0:0,0:0:0:0:
373,362,65372,2,0,P|398:303|324:207,1,180,2|8,0:0|0:0,0:0:0:0:
237,182,66220,2,0,L|113:190,1,120,4|8,0:3|0:0,0:0:0:0:
79,227,66728,2,0,P|54:168|128:72,1,180,2|8,0:0|0:0,0:0:0:0:
217,50,67576,6,0,L|324:56,2,90,2|2|2,0:0|0:0|0:0,0:0:0:0:
196,99,68254,2,0,L|340:107,1,120,2|8,0:0|0:0,0:0:0:0:
336,156,68763,2,0,L|216:149,1,120,2|0,0:0|0:0,0:0:0:0:
163,147,69271,2,0,L|43:140,1,120,10|0,0:0|0:0,0:0:0:0:
140,272,70119,21,0,0:0:0:0:
184,241,70288,2,0,L|273:246,2,90,2|2|2,0:0|0:0|0:0,0:0:0:0:
140,272,70966,2,0,L|20:264,1,120,4|8,0:0|0:0,0:0:0:0:
0,214,71475,2,0,P|-4:151|39:96,2,120,2|2|2,0:0|0:0|0:0,0:0:0:0:
216,149,72831,21,0,0:0:0:0:
172,180,73000,2,0,L|82:174,2,90,2|2|2,0:0|0:0|0:0,0:0:0:0:
216,149,73678,2,0,L|335:156,1,120,2|8,0:0|0:0,0:0:0:0:
357,207,74187,2,0,P|361:270|318:325,1,120,2|0,0:0|0:0,0:0:0:0:
282,339,74695,1,2,0:0:0:0:
282,339,74864,2,0,P|219:343|146:255,1,180,10|8,0:0|0:0,0:0:0:0:
252,236,75712,38,0,L|239:113,1,120,2|8,0:0|0:0,0:0:0:0:
323,48,76390,2,0,P|404:42|432:63,1,120,4|8,0:0|0:0,0:0:0:0:
461,108,76898,2,0,L|448:231,1,120,2|0,0:0|0:0,0:0:0:0:
442,281,77407,2,0,L|435:342,1,60,8|2,0:0|0:0,0:0:0:0:
246,243,78254,5,0,0:0:0:0:
202,274,78423,2,0,L|112:268,2,90,2|2|2,0:0|0:0|0:0,0:0:0:0:
246,243,79102,2,0,L|435:255,1,180,2|2,0:0|0:0,0:0:0:0:
471,224,79780,2,0,P|514:117|438:29,1,240,2|6,0:0|0:0,0:0:0:0:
403,135,80797,5,8,0:0:0:0:
313,75,81136,2,0,L|189:83,1,120,4|8,0:3|0:0,0:0:0:0:
156,44,81644,2,0,P|131:103|205:199,1,180,4|8,0:0|0:0,0:0:0:0:
292,224,82492,2,0,L|416:216,1,120,4|8,0:3|0:0,0:0:0:0:
450,179,83000,2,0,P|475:238|401:334,1,180,2|8,0:0|0:0,0:0:0:0:
312,356,83848,6,0,L|205:350,2,90,2|2|2,0:0|0:0|0:0,0:0:0:0:
333,307,84526,2,0,L|188:298,1,120,2|8,0:0|0:0,0:0:0:0:
193,250,85034,2,0,L|312:256,1,120,2|0,0:0|0:0,0:0:0:0:
366,259,85542,1,8,0:0:0:0:
143,135,86220,5,8,0:0:0:0:
233,75,86559,2,0,L|357:83,1,120,4|8,0:3|0:0,0:0:0:0:
390,44,87067,2,0,P|415:103|341:199,1,180,2|8,0:0|0:0,0:0:0:0:
305,210,87746,1,2,0:0:0:0:
253,224,87915,2,0,L|144:217,2,90,2|2|2,0:0|0:0|0:0,0:0:0:0:
264,276,88593,2,0,P|198:328|144:268,2,180,2|2|8,0:0|0:0|0:0,0:0:0:0:
208,183,89949,6,0,P|200:122|296:115,1,180,2|2,0:0|0:0,0:0:0:0:
403,108,90797,1,2,0:0:0:0:
403,108,90966,2,0,P|371:181|376:225,1,120,8|4,0:0|0:0,0:0:0:0:
190,333,91983,6,0,L|279:338,2,90,8|8|8,0:0|0:0|0:0,0:0:0:0:
145,302,92661,2,0,P|94:326|35:272,1,120,6|0,0:0|0:0,0:0:0:0:
18,247,93170,2,0,P|14:175|92:100,1,180,2|0,0:0|0:0,0:0:0:0:
116,205,94017,2,0,P|167:229|226:175,1,120,2|0,0:0|0:0,0:0:0:0:
246,152,94525,1,2,0:0:0:0:
344,195,94864,2,0,L|464:184,1,120,2|0,0:0|0:0,0:0:0:0:
506,150,95373,6,0,P|480:221|495:287,1,120,6|0,0:0|0:0,0:0:0:0:
441,295,95881,2,0,P|384:299|329:328,1,120,2|0,0:0|0:0,0:0:0:0:
278,348,96390,2,0,P|221:344|166:315,1,120,2|4,0:0|0:0,0:0:0:0:
249,115,97407,6,0,L|243:22,2,90,10|10|10,0:0|0:0|0:0,0:0:0:0:
213,155,98085,2,0,P|287:145|190:249,1,360,2|0,0:0|0:0,0:0:0:0:
111,196,99441,6,0,P|80:256|100:317,1,120,0|2,0:0|0:0,0:0:0:0:
178,370,100119,2,0,P|209:310|189:249,1,120,0|2,0:0|0:0,0:0:0:0:
271,182,100797,2,0,B|353:215|353:215|441:188,2,180,14|8|8,0:0|0:0|0:0,0:0:0:0:
358,117,102153,2,0,L|362:40,1,60,8|8,0:0|0:0,0:0:0:0:
9,83,103508,6,0,B|2:144|2:144|37:192,1,120,2|8,0:1|0:0,0:0:0:0:
121,260,104186,2,0,B|115:306|115:306|142:342,2,90,0|2|2,0:0|0:1|0:1,0:0:0:0:
130,207,104864,2,0,B|178:243|178:243|238:236,1,120,2|2,0:1|0:1,0:0:0:0:
291,227,105373,2,0,L|411:214,1,120,2|2,0:1|0:1,0:0:0:0:
394,53,106220,6,0,B|345:18|345:18|155:42,1,240,2|2,0:1|0:1,0:0:0:0:
99,84,107152,2,0,L|88:175,1,90,2|2,0:1|0:1,0:0:0:0:
130,207,107576,2,0,B|178:243|178:243|238:236,1,120,4|2,0:0|0:1,0:0:0:0:
291,227,108085,2,0,L|411:214,1,120,2|2,0:1|0:1,0:0:0:0:
338,360,108932,6,0,L|217:347,1,120,2|12,0:1|0:0,0:0:0:0:
136,277,109610,2,0,B|160:222|160:222|149:160,1,120,4|8,0:3|0:0,0:0:0:0:
51,209,110288,2,0,B|40:150|40:150|64:95,1,120,2|12,0:1|0:0,0:0:0:0:
119,2,110966,2,0,L|238:16,1,120,2|8,0:1|0:0,0:0:0:0:
345,30,111644,6,0,B|327:148|327:148|414:235|414:235|399:353,1,360,2|8,0:1|0:0,0:0:0:0:
293,384,113000,2,0,B|206:297|206:297|221:179,2,240,2|8|4,0:1|0:0|0:0,0:0:0:0:
256,192,114525,12,2,119610,0:0:0:0:
