osu file format v14

[General]
AudioFilename: audio.mp3
AudioLeadIn: 0
PreviewTime: 59017
Countdown: 0
SampleSet: Soft
StackLeniency: 0.3
Mode: 0
LetterboxInBreaks: 0
WidescreenStoryboard: 0

[Editor]
DistanceSpacing: 0.6
BeatDivisor: 4
GridSize: 4
TimelineZoom: 1

[Metadata]
Title:Atlantico Blue
TitleUnicode:Atlantico Blue
Artist:Sasaki Sayaka
ArtistUnicode:佐咲紗花
Creator:[C u r i]
Version:Left's Insane
Source:
Tags:Sonnyc Dailycare Morinaga Left Karia 堀江晶太 Horie Shota
BeatmapID:1601380
BeatmapSetID:690792

[Difficulty]
HPDrainRate:6
CircleSize:4
OverallDifficulty:7.6
ApproachRate:9
SliderMultiplier:1.68
SliderTickRate:1

[Events]
//Background and Video events
0,0,"cache-64750b5e-2a0d-46e7-c6eb-c0b850c17ad9.jpg",0,0
//Break Periods
2,3370,7824
//Storyboard Layer 0 (Background)
//Storyboard Layer 1 (Fail)
//Storyboard Layer 2 (Pass)
//Storyboard Layer 3 (Foreground)
//Storyboard Sound Samples

[TimingPoints]
3170,338.983050847458,4,2,1,60,1,0
3170,-125,4,2,1,60,0,0
8254,-100,4,2,1,30,0,0
8424,-100,4,2,1,60,0,0
10966,-100,4,2,1,30,0,0
11136,-100,4,2,1,60,0,0
11305,-100,4,2,1,60,0,0
12661,-100,4,2,1,40,0,0
14017,-100,4,2,2,80,0,0
14186,-100,4,2,1,80,0,0
19441,-83.3333333333333,4,2,2,80,0,0
21475,-100,4,2,2,80,0,0
24525,-100,4,2,1,80,0,0
24864,-100,4,2,1,70,0,0
30203,-100,4,2,1,5,0,0
30288,-100,4,2,1,70,0,0
35712,-100,4,2,2,70,0,0
35881,-100,4,2,1,70,0,0
45203,-100,4,2,2,70,0,0
45373,-100,4,2,1,70,0,0
46475,-100,4,2,1,5,0,0
46559,-100,4,2,2,70,0,0
46729,-200,4,2,1,70,0,0
50627,-200,4,2,2,70,0,0
50797,-200,4,2,1,70,0,0
50966,-100,4,2,1,70,0,0
54695,-100,4,2,2,70,0,0
54864,-100,4,2,1,70,0,0
56051,-76.9230769230769,4,2,1,70,0,0
57407,-66.6666666666667,4,2,1,70,0,0
58763,-66.6666666666667,4,2,2,70,0,0
58932,-66.6666666666667,4,2,1,70,0,0
59102,-100,4,2,1,70,0,0
60119,-90.9090909090909,4,2,2,90,0,1
60373,-90.9090909090909,4,2,1,5,0,1
60458,-90.9090909090909,4,2,1,90,0,1
65797,-90.9090909090909,4,2,1,5,0,1
65881,-90.9090909090909,4,2,1,90,0,1
69864,-90.9090909090909,4,2,1,5,0,1
69949,-90.9090909090909,4,2,1,90,0,1
70966,-90.9090909090909,4,2,2,90,0,1
71305,-90.9090909090909,4,2,1,90,0,1
73254,-90.9090909090909,4,2,1,5,0,1
73339,-90.9090909090909,4,2,1,90,0,1
73932,-90.9090909090909,4,2,1,5,0,1
74017,-90.9090909090909,4,2,1,90,0,1
81814,-90.9090909090909,4,2,2,90,0,1
82068,-90.9090909090909,4,2,1,5,0,1
82153,-90.9090909090909,4,2,1,90,0,1
87492,-90.9090909090909,4,2,1,5,0,1
87576,-90.9090909090909,4,2,1,90,0,1
91220,-90.9090909090909,4,2,1,5,0,1
91305,-90.9090909090909,4,2,2,90,0,1
91475,-90.9090909090909,4,2,1,90,0,1
92661,-133.333333333333,4,2,1,90,0,1
93932,-133.333333333333,4,2,1,5,0,1
94017,-133.333333333333,4,2,1,90,0,1
95373,-133.333333333333,4,2,2,90,0,1
95542,-133.333333333333,4,2,1,90,0,1
96729,-133.333333333333,4,2,2,90,0,1
96898,-133.333333333333,4,2,1,90,0,1
98085,-125,4,2,1,80,0,0
99102,-125,4,2,1,50,0,0
100797,-76.9230769230769,4,2,2,90,0,1
103508,-100,4,2,2,80,0,0
103847,-100,4,2,1,80,0,0
108932,-100,4,2,2,80,0,0
109102,-100,4,2,1,80,0,0
110288,-83.3333333333333,4,2,1,90,0,0
111644,-83.3333333333333,4,2,2,80,0,0
111814,-83.3333333333333,4,2,1,80,0,0
114356,-83.3333333333333,4,2,2,80,0,0
119610,-83.3333333333333,4,2,1,60,0,0

[Colours]
Combo1 : 240,240,240
Combo2 : 255,89,255
Combo3 : 168,81,255
Combo4 : 255,193,255
Combo5 : 217,179,255
Combo6 : 192,192,192

[HitObjects]
257,190,3170,37,4,0:3:0:0:
448,277,8424,5,8,0:0:0:0:
448,277,8508,1,2,0:0:0:0:
448,277,8593,1,6,0:3:0:0:
368,262,8932,1,2,0:0:0:0:
289,291,9271,1,2,0:0:0:0:
210,271,9610,1,2,0:0:0:0:
25,130,9949,69,2,0:0:0:0:
122,96,10288,1,2,0:0:0:0:
215,129,10627,1,2,0:0:0:0:
306,93,10966,1,6,0:0:0:0:
278,16,11136,5,8,0:0:0:0:
278,16,11220,1,8,0:0:0:0:
278,16,11305,2,0,L|161:10,1,84,6|0,0:3|0:0,0:0:0:0:
339,169,11644,2,0,L|457:157,1,84,0|0,0:0|0:0,0:0:0:0:
250,296,11983,37,8,0:0:0:0:
169,277,12153,1,8,0:0:0:0:
306,233,12322,1,8,0:0:0:0:
273,378,12492,1,8,0:0:0:0:
273,378,13340,5,6,0:3:0:0:
274,357,13424,1,12,0:3:0:0:
282,337,13509,1,12,0:3:0:0:
295,321,13594,1,0,0:0:0:0:
313,311,13678,1,12,0:3:0:0:
334,306,13763,1,12,0:3:0:0:
355,309,13848,1,12,0:3:0:0:
373,318,13933,1,12,0:3:0:0:
389,331,14017,70,0,L|373:221,1,84,14|2,0:1|0:0,0:0:0:0:
264,147,14356,2,0,L|442:172,1,168,8|2,0:0|0:0,0:0:0:0:
290,239,14864,1,2,0:0:0:0:
290,239,14949,1,4,0:3:0:0:
290,239,15034,1,8,0:0:0:0:
317,84,15203,1,4,0:3:0:0:
317,84,15373,6,0,P|259:109|229:93,1,84,6|2,0:3|0:0,0:0:0:0:
106,67,15712,2,0,P|156:104|157:138,1,84,12|4,0:3|0:3,0:0:0:0:
197,260,16051,1,2,0:0:0:0:
197,260,16220,2,0,P|204:197|233:179,1,84,6|8,0:3|0:0,0:0:0:0:
300,205,16559,1,0,0:0:0:0:
300,205,16644,1,8,0:0:0:0:
300,205,16729,70,0,L|318:375,1,168,6|8,0:3|0:0,0:0:0:0:
393,274,17237,1,0,0:0:0:0:
232,347,17407,2,0,L|100:334,1,126,6|4,0:3|0:3,0:0:0:0:
98,346,17746,1,8,0:0:0:0:
53,234,17915,1,4,0:3:0:0:
53,234,18085,6,0,P|134:243|170:144,1,168,6|12,0:3|0:3,0:0:0:0:
171,91,18593,1,4,0:3:0:0:
171,91,18678,1,8,0:0:0:0:
171,91,18763,2,0,L|266:108,1,84,2|6,0:0|0:3,0:0:0:0:
129,16,19102,1,8,0:0:0:0:
129,16,19186,1,8,0:0:0:0:
129,16,19271,2,0,L|65:24,1,42,12|8,0:3|0:0,0:0:0:0:
41,94,19441,69,6,0:3:0:0:
41,94,19610,1,2,0:3:0:0:
95,256,19780,2,0,L|107:134,1,100.799996923828,6|0,0:0|0:0,0:0:0:0:
127,73,20119,5,6,0:3:0:0:
127,73,20288,1,2,0:3:0:0:
179,238,20458,2,0,L|191:116,1,100.799996923828,6|0,0:0|0:0,0:0:0:0:
213,53,20797,69,6,0:3:0:0:
213,53,20966,1,2,0:3:0:0:
265,218,21136,2,0,L|277:96,1,100.799996923828,6|0,0:0|0:0,0:0:0:0:
298,33,21475,5,6,0:3:0:0:
189,138,21645,1,8,0:0:0:0:
170,147,21729,1,8,0:0:0:0:
149,149,21814,1,14,0:3:0:0:
129,145,21899,1,8,0:0:0:0:
111,134,21983,1,8,0:0:0:0:
98,117,22068,1,8,0:0:0:0:
95,101,22153,70,0,L|114:198,1,84,6|2,0:3|0:3,0:0:0:0:
199,272,22492,2,0,L|47:255,1,126,8|0,0:0|0:0,0:0:0:0:
60,269,22831,1,2,0:3:0:0:
194,189,23000,1,2,0:3:0:0:
194,189,23170,1,8,0:0:0:0:
60,269,23339,2,0,L|130:276,1,42,2|0,0:3|0:0,0:0:0:0:
196,362,23508,6,0,L|178:267,1,84,14|0,0:1|0:0,0:0:0:0:
121,141,23847,1,2,0:3:0:0:
203,113,24017,1,8,0:0:0:0:
263,173,24186,1,2,0:3:0:0:
176,236,24356,69,2,0:3:0:0:
176,236,24441,1,2,0:3:0:0:
176,236,24525,2,0,L|185:195,3,42,10|8|8|8,0:3|0:0|0:0|0:0,0:0:0:0:
99,274,24864,38,0,P|174:255|213:344,1,168,6|8,0:0|0:0,0:0:0:0:
339,367,25373,2,0,L|351:259,1,84,0|2,0:0|0:0,0:0:0:0:
305,214,25712,1,2,0:0:0:0:
426,256,25881,2,0,P|475:250|504:206,1,84,8|0,0:0|0:0,0:0:0:0:
453,112,26220,70,0,L|266:100,1,168,2|8,0:0|0:0,0:0:0:0:
145,46,26729,2,0,P|126:79|143:149,1,84,0|2,0:0|0:0,0:0:0:0:
224,184,27068,1,2,0:0:0:0:
224,184,27237,2,0,L|201:88,1,84,8|0,0:0|0:0,0:0:0:0:
137,230,27576,6,0,P|217:214|267:300,2,168,2|8|2,0:0|0:0|0:0,0:0:0:0:
77,284,28424,2,0,L|101:378,1,84,2|8,0:0|0:0,0:0:0:0:
187,288,28763,1,0,0:0:0:0:
98,366,28932,70,0,L|123:186,1,168,2|8,0:0|0:0,0:0:0:0:
89,43,29441,1,0,0:0:0:0:
45,174,29610,1,2,0:0:0:0:
181,147,29780,1,0,0:0:0:0:
106,121,29949,1,8,0:0:0:0:
106,121,30288,6,0,P|180:128|204:23,1,168,6|8,0:0|0:0,0:0:0:0:
246,183,30797,2,0,L|226:284,1,84,0|2,0:0|0:0,0:0:0:0:
161,210,31136,1,2,0:0:0:0:
316,238,31305,2,0,L|413:226,1,84,8|0,0:0|0:0,0:0:0:0:
207,343,31644,70,0,L|27:324,1,168,2|8,0:0|0:0,0:0:0:0:
275,269,32153,1,0,0:0:0:0:
275,269,32237,1,0,0:0:0:0:
275,269,32322,2,0,L|291:365,1,84,2|2,0:0|0:0,0:0:0:0:
142,203,32661,2,0,L|159:69,1,126,8|0,0:0|0:0,0:0:0:0:
157,78,33000,6,0,P|212:143|308:104,2,168,2|8|2,0:0|0:0|0:0,0:0:0:0:
238,67,33847,1,2,0:0:0:0:
123,177,34017,2,0,L|19:167,1,84,8|0,0:0|0:0,0:0:0:0:
181,119,34356,69,2,0:0:0:0:
181,119,34525,1,2,0:0:0:0:
294,219,34695,2,0,L|464:209,1,168,8|2,0:0|0:0,0:0:0:0:
427,45,35203,1,8,0:0:0:0:
424,58,35287,1,8,0:0:0:0:
422,72,35372,1,10,0:0:0:0:
420,86,35457,1,8,0:0:0:0:
418,100,35541,1,8,0:0:0:0:
416,114,35626,1,8,0:0:0:0:
413,128,35712,6,0,P|350:65|269:105,1,168,6|8,0:0|0:0,0:0:0:0:
195,111,36220,2,0,L|213:8,1,84,0|6,0:0|0:3,0:0:0:0:
262,170,36559,1,2,0:0:0:0:
112,135,36729,2,0,P|60:138|27:176,1,84,8|0,0:0|0:0,0:0:0:0:
79,300,37068,70,0,L|266:314,1,168,6|8,0:3|0:0,0:0:0:0:
337,292,37576,1,0,0:0:0:0:
337,292,37661,1,0,0:0:0:0:
337,292,37746,2,0,L|313:395,1,84,6|2,0:3|0:0,0:0:0:0:
268,228,38085,1,8,0:0:0:0:
423,262,38254,1,0,0:0:0:0:
423,262,38424,6,0,L|399:76,1,168,6|8,0:3|0:0,0:0:0:0:
262,50,38932,2,0,P|237:90|239:135,1,84,0|6,0:0|0:3,0:0:0:0:
320,113,39271,1,2,0:0:0:0:
158,64,39441,2,0,L|72:75,1,84,8|0,0:0|0:0,0:0:0:0:
129,155,39780,69,6,0:3:0:0:
245,56,39949,1,2,0:0:0:0:
275,213,40119,1,8,0:0:0:0:
275,213,40458,5,2,0:0:0:0:
216,141,40627,1,2,0:0:0:0:
184,226,40797,1,8,0:0:0:0:
304,128,40966,69,0,0:0:0:0:
304,128,41051,1,8,0:0:0:0:
304,128,41136,2,0,P|384:114|422:192,1,168,6|8,0:3|0:0,0:0:0:0:
375,255,41644,1,0,0:0:0:0:
503,221,41814,1,2,0:0:0:0:
503,221,41983,1,2,0:0:0:0:
375,255,42153,2,0,L|275:243,1,84,8|0,0:0|0:0,0:0:0:0:
189,135,42492,6,0,L|218:313,1,168,6|8,0:3|0:0,0:0:0:0:
280,158,43000,1,0,0:0:0:0:
280,158,43085,1,0,0:0:0:0:
280,158,43170,1,2,0:0:0:0:
121,243,43339,1,2,0:0:0:0:
121,243,43508,2,0,P|67:239|35:192,1,84,8|0,0:0|0:0,0:0:0:0:
77,84,43847,70,0,L|266:73,1,168,6|8,0:3|0:0,0:0:0:0:
316,156,44356,1,0,0:0:0:0:
316,156,44525,2,0,L|334:51,1,84,6|2,0:3|0:0,0:0:0:0:
194,231,44864,2,0,L|212:336,1,84,12|2,0:3|0:0,0:0:0:0:
399,354,45203,5,6,0:0:0:0:
450,287,45373,1,2,0:0:0:0:
418,209,45542,1,2,0:0:0:0:
315,341,45712,69,12,0:3:0:0:
283,263,45881,1,6,0:3:0:0:
336,197,46051,1,2,0:0:0:0:
365,277,46220,6,0,L|420:287,2,42,12|0|0,0:3|0:0|0:0,0:0:0:0:
396,88,46559,37,14,0:1:0:0:
396,88,46729,2,0,L|254:74,1,126,2|8,0:0|0:0,0:0:0:0:
253,329,47915,5,6,0:3:0:0:
253,329,48085,2,0,L|395:343,1,126,2|12,0:0|0:3,0:0:0:0:
390,210,49271,5,6,0:3:0:0:
390,210,49441,2,0,L|248:196,1,126,2|12,0:0|0:3,0:0:0:0:
264,197,50627,5,6,0:0:0:0:
264,197,50797,1,2,0:0:0:0:
407,168,50966,2,0,P|371:143|311:165,1,84,8|2,0:0|0:0,0:0:0:0:
161,102,51305,2,0,P|266:97|284:25,1,168,6|10,0:3|0:0,0:0:0:0:
436,28,51814,5,8,0:0:0:0:
436,28,51898,1,8,0:0:0:0:
436,28,51983,1,6,0:0:0:0:
387,98,52322,1,2,0:0:0:0:
377,182,52661,1,6,0:3:0:0:
403,263,53000,1,6,0:3:0:0:
241,375,53339,5,6,0:3:0:0:
184,294,53678,1,2,0:0:0:0:
172,199,54017,1,6,0:3:0:0:
205,109,54356,1,0,0:0:0:0:
138,57,54525,37,4,0:3:0:0:
138,57,54610,1,0,0:0:0:0:
138,57,54695,2,0,P|94:62|47:86,1,84,14|2,0:1|0:0,0:0:0:0:
204,152,55034,2,0,P|160:141|108:148,1,84,2|6,0:0|0:3,0:0:0:0:
230,263,55373,2,0,P|193:238|141:226,1,84,6|2,0:3|0:0,0:0:0:0:
217,375,55712,2,0,P|190:339|146:310,1,84,2|2,0:0|0:0,0:0:0:0:
47,377,56051,6,0,P|72:323|72:247,1,109.199995001221,6|2,0:3|0:0,0:0:0:0:
162,299,56390,2,0,P|156:239|118:173,1,109.199995001221,6|2,0:3|0:0,0:0:0:0:
224,175,56729,2,0,P|189:126|123:88,1,109.199995001221,6|2,0:3|0:0,0:0:0:0:
224,43,57068,2,0,P|170:18|94:18,1,109.199995001221,6|2,0:3|0:0,0:0:0:0:
69,126,57322,1,2,0:0:0:0:
74,141,57407,37,14,0:3:0:0:
158,133,57576,1,2,0:0:0:0:
240,126,57746,1,2,0:0:0:0:
121,209,57915,5,12,0:3:0:0:
205,201,58084,1,2,0:0:0:0:
287,194,58254,1,2,0:0:0:0:
169,277,58424,69,8,0:0:0:0:
253,269,58593,1,2,0:0:0:0:
335,262,58763,1,6,0:0:0:0:
381,108,58932,5,8,0:0:0:0:
381,108,59017,1,8,0:0:0:0:
381,108,59102,2,0,L|370:215,1,84,14|8,0:3|0:0,0:0:0:0:
411,370,59441,69,6,0:3:0:0:
407,349,59525,1,0,0:0:0:0:
398,330,59610,1,8,0:0:0:0:
384,315,59695,1,8,0:0:0:0:
366,304,59779,1,12,0:3:0:0:
346,298,59864,1,8,0:0:0:0:
325,299,59949,1,8,0:0:0:0:
305,305,60034,1,8,0:0:0:0:
288,318,60119,6,0,L|261:194,1,92.4000028198243,14|0,0:1|0:0,0:0:0:0:
204,133,60458,2,0,L|325:151,1,92.4000028198243,8|0,0:0|0:0,0:0:0:0:
460,177,60797,2,0,P|421:162|363:261,1,138.600004229736,6|0,0:3|0:0,0:0:0:0:
365,232,61136,1,8,0:0:0:0:
409,55,61305,1,0,0:0:0:0:
409,55,61475,70,0,P|465:85|504:72,1,92.4000028198243,6|0,0:3|0:0,0:0:0:0:
512,163,61814,2,0,L|308:183,1,184.800005639649,8|6,0:0|0:3,0:0:0:0:
233,235,62322,1,0,0:0:0:0:
233,235,62407,1,4,0:3:0:0:
233,235,62492,2,0,L|247:166,1,46.2000014099122,8|0,0:0|0:0,0:0:0:0:
273,109,62661,1,4,0:3:0:0:
242,189,62831,6,0,L|262:360,1,138.600004229736,6|0,0:3|0:0,0:0:0:0:
249,342,63170,1,8,0:0:0:0:
89,296,63339,2,0,P|134:258|184:260,1,92.4000028198243,4|2,0:3|0:0,0:0:0:0:
162,339,63677,1,0,0:0:0:0:
90,185,63847,2,0,L|103:89,1,92.4000028198243,8|0,0:0|0:0,0:0:0:0:
179,44,64186,70,0,P|240:113|332:70,2,184.800005639649,2|8|2,0:0|0:0|0:0,0:0:0:0:
136,143,65034,1,0,0:0:0:0:
259,32,65203,1,12,0:3:0:0:
301,192,65373,1,0,0:0:0:0:
301,192,65458,1,0,0:0:0:0:
301,192,65542,6,0,L|405:181,1,92.4000028198243,6|0,0:3|0:0,0:0:0:0:
490,132,65881,2,0,L|468:235,1,92.4000028198243,8|0,0:0|0:0,0:0:0:0:
439,335,66220,2,0,P|389:277|324:294,1,138.600004229736,6|0,0:3|0:0,0:0:0:0:
323,302,66559,1,8,0:0:0:0:
188,206,66729,1,0,0:0:0:0:
188,206,66898,70,0,L|311:184,1,92.4000028198243,6|0,0:3|0:0,0:0:0:0:
323,302,67237,2,0,L|103:285,1,184.800005639649,8|6,0:0|0:3,0:0:0:0:
45,240,67746,1,0,0:0:0:0:
45,240,67831,1,4,0:3:0:0:
45,240,67915,2,0,L|60:309,1,46.2000014099122,8|0,0:0|0:0,0:0:0:0:
79,365,68085,1,4,0:3:0:0:
54,285,68254,6,0,L|74:144,1,138.600004229736,6|0,0:3|0:0,0:0:0:0:
68,132,68593,1,8,0:0:0:0:
207,37,68763,2,0,L|222:139,1,92.4000028198243,0|6,0:0|0:3,0:0:0:0:
147,178,69102,1,0,0:0:0:0:
306,151,69271,2,0,P|350:147|394:192,1,92.4000028198243,8|0,0:0|0:0,0:0:0:0:
251,310,69610,70,0,L|216:108,1,184.800005639649,6|8,0:3|0:0,0:0:0:0:
277,66,70119,1,0,0:0:0:0:
220,270,70288,2,0,L|205:170,1,92.4000028198243,6|8,0:3|0:0,0:0:0:0:
206,178,70542,1,8,0:0:0:0:
206,178,70627,1,10,0:0:0:0:
133,237,70797,1,8,0:0:0:0:
298,207,70966,6,0,P|377:215|413:308,1,184.800005639649,14|8,0:1|0:0,0:0:0:0:
501,305,71475,2,0,L|516:188,1,92.4000028198243,0|2,0:0|0:0,0:0:0:0:
415,89,71814,1,0,0:0:0:0:
415,89,71983,2,0,L|437:214,1,92.4000028198243,8|0,0:0|0:0,0:0:0:0:
341,154,72322,69,6,0:3:0:0:
505,124,72492,1,0,0:0:0:0:
341,154,72661,2,0,P|290:152|251:111,1,92.4000028198243,8|0,0:0|0:0,0:0:0:0:
164,205,73000,2,0,L|187:46,1,138.600004229736,6|0,0:3|0:0,0:0:0:0:
173,53,73339,1,12,0:3:0:0:
249,232,73508,1,0,0:0:0:0:
249,232,73678,6,0,L|266:347,1,92.4000028198243,6|0,0:3|0:0,0:0:0:0:
189,373,74017,1,8,0:0:0:0:
346,339,74186,2,0,L|464:359,1,92.4000028198243,0|2,0:0|0:0,0:0:0:0:
314,174,74525,1,0,0:0:0:0:
262,323,74695,2,0,L|249:232,1,92.4000028198243,8|0,0:0|0:0,0:0:0:0:
325,66,75034,70,0,P|378:119|448:78,1,138.600004229736,6|0,0:3|0:0,0:0:0:0:
431,102,75373,2,0,L|420:208,1,92.4000028198243,8|0,0:0|0:0,0:0:0:0:
342,236,75712,1,6,0:3:0:0:
485,253,75881,1,0,0:0:0:0:
342,236,76051,1,8,0:0:0:0:
431,102,76220,5,8,0:0:0:0:
431,102,76305,1,8,0:0:0:0:
431,102,76390,2,0,L|236:115,1,184.800005639649,6|8,0:3|0:0,0:0:0:0:
158,148,76898,2,0,L|171:57,1,92.4000028198243,0|2,0:0|0:0,0:0:0:0:
83,93,77237,1,0,0:0:0:0:
233,203,77407,2,0,L|220:294,1,92.4000028198243,12|12,0:3|0:3,0:0:0:0:
144,328,77661,1,8,0:0:0:0:
144,328,77746,70,0,P|192:305|281:398,1,184.800005639649,6|8,0:3|0:0,0:0:0:0:
309,219,78254,1,0,0:0:0:0:
366,364,78424,2,0,L|376:259,1,92.4000028198243,6|0,0:3|0:0,0:0:0:0:
374,272,78678,1,4,0:3:0:0:
374,272,78763,1,8,0:0:0:0:
447,125,78932,1,4,0:3:0:0:
470,206,79102,5,6,0:3:0:0:
388,187,79271,1,0,0:0:0:0:
309,219,79441,1,8,0:0:0:0:
267,292,79610,1,0,0:0:0:0:
191,328,79780,1,6,0:3:0:0:
109,312,79949,1,0,0:0:0:0:
58,241,80119,1,8,0:0:0:0:
64,158,80288,1,0,0:0:0:0:
125,101,80458,70,0,P|148:104|183:121,3,46.2000014099122,6|0|2|0,0:3|0:0|0:0|0:0,0:0:0:0:
211,42,80797,2,0,P|229:56|251:88,3,46.2000014099122,8|8|8|8,0:0|0:0|0:0|0:0,0:0:0:0:
316,31,81136,2,0,P|324:52|327:91,3,46.2000014099122,14|0|4|0,0:3|0:0|0:3|0:0,0:0:0:0:
413,74,81475,2,0,P|409:97|392:132,1,46.2000014099122,10|8,0:0|0:0,0:0:0:0:
325,161,81644,5,8,0:0:0:0:
325,161,81729,1,8,0:0:0:0:
325,161,81814,2,0,L|346:289,1,92.4000028198243,14|0,0:1|0:0,0:0:0:0:
386,344,82153,2,0,L|276:327,1,92.4000028198243,8|0,0:0|0:0,0:0:0:0:
251,251,82492,2,0,P|179:249|151:329,1,138.600004229736,6|0,0:3|0:0,0:0:0:0:
159,316,82831,1,8,0:0:0:0:
77,197,83000,1,0,0:0:0:0:
77,197,83170,70,0,L|182:207,1,92.4000028198243,6|0,0:3|0:0,0:0:0:0:
203,93,83508,2,0,L|-10:117,1,184.800005639649,8|6,0:0|0:3,0:0:0:0:
281,135,84017,1,0,0:0:0:0:
281,135,84102,1,4,0:3:0:0:
281,135,84186,2,0,L|293:64,1,46.2000014099122,8|0,0:0|0:0,0:0:0:0:
304,9,84356,1,4,0:3:0:0:
288,89,84525,6,0,L|311:256,1,138.600004229736,6|0,0:3|0:0,0:0:0:0:
298,239,84864,1,8,0:0:0:0:
393,208,85034,2,0,L|380:323,1,92.4000028198243,4|2,0:3|0:0,0:0:0:0:
475,262,85373,1,4,0:3:0:0:
298,239,85542,2,0,P|248:241|213:288,1,92.4000028198243,8|0,0:0|0:0,0:0:0:0:
73,370,85881,70,0,P|139:303|100:213,2,184.800005639649,2|8|6,0:0|0:0|0:3,0:0:0:0:
54,284,86729,1,0,0:0:0:0:
176,165,86898,1,8,0:0:0:0:
14,120,87068,1,0,0:0:0:0:
14,120,87153,1,0,0:0:0:0:
14,120,87237,6,0,L|120:109,1,92.4000028198243,6|0,0:3|0:0,0:0:0:0:
198,62,87576,2,0,L|173:186,1,92.4000028198243,8|0,0:0|0:0,0:0:0:0:
160,238,87915,2,0,L|322:222,1,138.600004229736,6|4,0:3|0:3,0:0:0:0:
311,239,88254,1,8,0:0:0:0:
124,320,88424,1,4,0:3:0:0:
124,320,88593,70,0,P|74:265|124:153,1,184.800005639649,6|8,0:3|0:0,0:0:0:0:
199,33,89102,2,0,L|188:125,1,92.4000028198243,0|6,0:0|0:3,0:0:0:0:
110,71,89441,1,0,0:0:0:0:
278,92,89610,2,0,L|399:76,1,92.4000028198243,8|0,0:0|0:0,0:0:0:0:
477,231,89949,6,0,P|408:162|325:203,1,184.800005639649,6|8,0:3|0:0,0:0:0:0:
275,299,90458,1,0,0:0:0:0:
275,299,90627,1,6,0:3:0:0:
253,209,90797,1,0,0:0:0:0:
365,339,90966,2,0,L|166:326,1,184.800005639649,8|14,0:0|0:1,0:0:0:0:
108,380,91475,69,8,0:0:0:0:
100,358,91559,1,8,0:0:0:0:
85,340,91644,1,8,0:0:0:0:
66,328,91729,1,8,0:0:0:0:
44,322,91813,1,8,0:0:0:0:
21,324,91898,1,8,0:0:0:0:
1,334,91983,5,6,0:3:0:0:
288,270,92237,1,12,0:3:0:0:
84,66,92492,1,4,0:3:0:0:
110,149,92661,69,6,0:3:0:0:
110,149,92831,2,0,L|262:138,1,126.000004806519,2|2,0:0|0:0,0:0:0:0:
168,62,93339,1,12,0:3:0:0:
143,164,93508,2,0,L|224:156,1,63.0000024032594,0|0,0:0|0:0,0:0:0:0:
375,307,94017,5,6,0:3:0:0:
375,307,94186,2,0,P|328:265|257:288,1,126.000004806519,2|2,0:0|0:0,0:0:0:0:
354,185,94695,1,8,0:0:0:0:
356,299,94864,2,0,P|325:282|287:288,1,63.0000024032594,2|0,0:0|0:0,0:0:0:0:
134,346,95203,69,2,0:0:0:0:
80,272,95373,1,14,0:1:0:0:
80,272,95542,2,0,L|91:130,1,126.000004806519,8|2,0:0|0:0,0:0:0:0:
167,216,96051,1,12,0:3:0:0:
63,235,96220,2,0,L|70:155,1,63.0000024032594,2|0,0:0|0:3,0:0:0:0:
42,88,96559,5,2,0:0:0:0:
42,88,96644,1,2,0:0:0:0:
42,88,96729,1,6,0:0:0:0:
125,107,96898,1,8,0:0:0:0:
125,107,97068,2,0,L|212:98,1,63.0000024032594,0|2,0:0|0:0,0:0:0:0:
260,53,97407,69,8,0:0:0:0:
115,246,97661,1,8,0:0:0:0:
352,284,97915,1,8,0:0:0:0:
287,236,98085,37,4,0:3:0:0:
383,129,100288,69,8,0:3:0:0:
383,129,100373,1,8,0:3:0:0:
383,129,100458,2,0,L|374:43,1,67.2,2|2,0:0|0:0,0:0:0:0:
468,189,100797,53,6,0:0:0:0:
287,165,100966,1,0,0:0:0:0:
287,165,101136,1,2,0:3:0:0:
447,274,101305,5,8,0:0:0:0:
265,247,101474,1,0,0:0:0:0:
265,247,101644,1,2,0:3:0:0:
427,357,101814,69,8,0:0:0:0:
246,334,101983,1,2,0:3:0:0:
246,334,102068,1,2,0:3:0:0:
246,334,102153,1,8,0:0:0:0:
363,180,102322,1,8,0:0:0:0:
363,180,103170,5,8,0:0:0:0:
360,166,103254,1,8,0:0:0:0:
358,153,103339,1,8,0:0:0:0:
355,139,103424,1,8,0:0:0:0:
353,127,103508,70,0,L|453:143,1,84,14|0,0:1|0:0,0:0:0:0:
275,260,103847,2,0,L|245:68,1,168,8|2,0:0|0:0,0:0:0:0:
326,58,104356,1,2,0:0:0:0:
326,58,104441,1,4,0:3:0:0:
326,58,104525,1,8,0:0:0:0:
227,182,104695,1,4,0:3:0:0:
227,182,104864,6,0,P|183:185|146:151,1,84,6|2,0:3|0:0,0:0:0:0:
51,64,105203,2,0,P|75:100|64:149,1,84,12|4,0:3|0:3,0:0:0:0:
36,275,105542,1,2,0:0:0:0:
36,275,105712,2,0,P|55:235|103:220,1,84,6|8,0:3|0:0,0:0:0:0:
168,260,106051,1,4,0:3:0:0:
168,260,106136,1,8,0:0:0:0:
168,260,106220,70,0,L|353:246,1,168,6|8,0:3|0:0,0:0:0:0:
377,170,106729,1,2,0:0:0:0:
409,329,106898,1,6,0:3:0:0:
409,329,106983,1,0,0:0:0:0:
409,329,107068,2,0,L|423:239,1,84,2|8,0:0|0:0,0:0:0:0:
369,128,107407,2,0,L|383:208,1,42,6|2,0:3|0:0,0:0:0:0:
439,53,107576,6,0,L|324:35,1,84,14|8,0:3|0:0,0:0:0:0:
286,96,107915,1,14,0:3:0:0:
451,140,108085,69,8,0:0:0:0:
451,140,108170,1,8,0:0:0:0:
451,140,108254,2,0,L|336:122,1,84,12|12,0:3|0:3,0:0:0:0:
300,183,108593,1,12,0:3:0:0:
463,227,108763,5,8,0:0:0:0:
463,227,108848,1,8,0:0:0:0:
463,227,108932,2,0,L|348:209,1,84,14|2,0:1|0:0,0:0:0:0:
387,122,109271,2,0,L|278:163,1,84,12|2,0:3|0:0,0:0:0:0:
271,68,109610,2,0,L|197:158,1,84,12|2,0:3|0:0,0:0:0:0:
142,79,109949,2,0,L|123:194,1,84,12|2,0:3|0:0,0:0:0:0:
39,270,110288,70,0,P|97:248|140:251,1,100.799996923828,12|2,0:3|0:0,0:0:0:0:
129,161,110627,2,0,P|187:181|218:211,1,100.799996923828,12|2,0:3|0:0,0:0:0:0:
267,136,110966,2,0,P|298:189|303:232,1,100.799996923828,12|2,0:3|0:0,0:0:0:0:
390,200,111305,2,0,P|380:261|355:296,1,100.799996923828,12|2,0:3|0:0,0:0:0:0:
272,374,111559,1,0,0:0:0:0:
255,366,111644,5,14,0:1:0:0:
248,285,111814,1,0,0:0:0:0:
243,205,111983,1,2,0:0:0:0:
110,296,112153,69,4,0:3:0:0:
183,330,112323,1,2,0:0:0:0:
255,366,112492,1,2,0:0:0:0:
243,205,112661,5,6,0:3:0:0:
177,251,112831,1,2,0:0:0:0:
109,295,113000,69,12,0:3:0:0:
110,296,113170,1,8,0:0:0:0:
279,274,113339,1,8,0:0:0:0:
279,274,113508,1,8,0:0:0:0:
212,329,113678,5,8,0:0:0:0:
204,319,113762,1,8,0:0:0:0:
198,308,113847,1,8,0:0:0:0:
193,296,113932,1,8,0:0:0:0:
191,283,114016,1,8,0:0:0:0:
191,271,114101,1,8,0:0:0:0:
192,258,114186,1,8,0:0:0:0:
195,246,114271,1,8,0:0:0:0:
201,235,114355,1,14,0:1:0:0:
256,192,114441,12,4,119610,0:3:0:0:
