osu file format v14

[General]
AudioFilename: audio.mp3
AudioLeadIn: 0
PreviewTime: 59017
Countdown: 0
SampleSet: Soft
StackLeniency: 0.4
Mode: 0
LetterboxInBreaks: 0
WidescreenStoryboard: 0

[Editor]
Bookmarks: 3170,8593,11305,14017,24864,30288,35712,41136,46559,51983,114441,119610
DistanceSpacing: 1.3
BeatDivisor: 4
GridSize: 32
TimelineZoom: 1

[Metadata]
Title:Atlantico Blue
TitleUnicode:Atlantico Blue
Artist:Sasaki Sayaka
ArtistUnicode:佐咲紗花
Creator:[C u r i]
Version:Karia's Extra
Source:
Tags:Sonnyc Dailycare Morinaga Left Karia 堀江晶太 Horie Shota
BeatmapID:1476890
BeatmapSetID:690792

[Difficulty]
HPDrainRate:6
CircleSize:4
OverallDifficulty:8
ApproachRate:9.2
SliderMultiplier:1.8
SliderTickRate:1

[Events]
//Background and Video events
0,0,"cache-64750b5e-2a0d-46e7-c6eb-c0b850c17ad9.jpg",0,0
//Break Periods
//Storyboard Layer 0 (Background)
//Storyboard Layer 1 (Fail)
//Storyboard Layer 2 (Pass)
//Storyboard Layer 3 (Foreground)
//Storyboard Sound Samples

[TimingPoints]
3170,338.983050847458,4,2,50,60,1,0
3170,-133.333333333333,4,2,50,60,0,0
8424,-133.333333333333,4,2,50,80,0,0
9271,-125,4,2,50,65,0,0
9949,-117.647058823529,4,2,50,70,0,0
10627,-111.111111111111,4,2,50,75,0,0
11475,-111.111111111111,4,2,50,56,0,0
11644,-111.111111111111,4,2,50,60,0,0
11814,-111.111111111111,4,2,50,64,0,0
11983,-111.111111111111,4,2,50,68,0,0
12153,-111.111111111111,4,2,50,72,0,0
12322,-111.111111111111,4,2,50,76,0,0
12492,-111.111111111111,4,2,50,80,0,0
12661,-111.111111111111,4,2,50,60,0,0
13000,-111.111111111111,4,2,50,70,0,0
13339,-100,4,2,50,70,0,0
13678,-100,4,2,50,72,0,0
13763,-100,4,2,50,74,0,0
13847,-100,4,2,50,76,0,0
13932,-100,4,2,50,78,0,0
14017,-100,4,2,50,80,0,0
19441,-133.333333333333,4,2,50,80,0,0
19695,-133.333333333333,4,2,50,5,0,0
19780,-76.9230769230769,4,2,50,80,0,0
20034,-76.9230769230769,4,2,50,5,0,0
20119,-133.333333333333,4,2,50,80,0,0
20373,-133.333333333333,4,2,50,5,0,0
20458,-76.9230769230769,4,2,50,80,0,0
20712,-76.9230769230769,4,2,50,5,0,0
20797,-100,4,2,50,80,0,0
21390,-100,4,2,50,5,0,0
21475,-100,4,2,50,80,0,0
30203,-100,4,2,50,5,0,0
30288,-100,4,2,50,80,0,0
32237,-100,4,2,50,5,0,0
32322,-100,4,2,50,80,0,0
37322,-100,4,2,50,5,0,0
37407,-100,4,2,50,80,0,0
40373,-100,4,2,50,5,0,0
40458,-100,4,2,50,80,0,0
44864,-76.9230769230769,4,2,50,80,0,0
45119,-76.9230769230769,4,2,50,5,0,0
45203,-100,4,2,50,80,0,0
46220,-66.6666666666667,4,2,50,80,0,0
46475,-66.6666666666667,4,2,50,5,0,0
46559,-125,4,2,50,80,0,0
47237,-90.9090909090909,4,2,50,80,0,0
47576,-66.6666666666667,4,2,50,80,0,0
47915,-125,4,2,50,80,0,0
49949,-76.9230769230769,4,2,50,80,0,0
50288,-125,4,2,50,80,0,0
50966,-90.9090909090909,4,2,50,80,0,0
51305,-76.9230769230769,4,2,50,80,0,0
51644,-100,4,2,50,80,0,0
52661,-76.9230769230769,4,2,50,80,0,0
52915,-76.9230769230769,4,2,50,5,0,0
53000,-100,4,2,50,80,0,0
53339,-125,4,2,50,80,0,0
53593,-125,4,2,50,5,0,0
53678,-100,4,2,50,80,0,0
53932,-100,4,2,50,5,0,0
54017,-83.3333333333333,4,2,50,80,0,0
54271,-83.3333333333333,4,2,50,5,0,0
54356,-100,4,2,50,80,0,0
54695,-100,4,2,50,60,0,0
55203,-100,4,2,50,62,0,0
55373,-100,4,2,50,64,0,0
55542,-100,4,2,50,66,0,0
55712,-100,4,2,50,68,0,0
55881,-100,4,2,50,70,0,0
56051,-100,4,2,50,72,0,0
56390,-100,4,2,50,74,0,0
56729,-100,4,2,50,76,0,0
57068,-100,4,2,50,78,0,0
57407,-100,4,2,50,80,0,0
58847,-100,4,2,50,5,0,0
58932,-90.9090909090909,4,2,50,80,0,0
59441,-83.3333333333333,4,2,50,80,0,0
59780,-76.9230769230769,4,2,50,80,0,0
60119,-90.9090909090909,4,2,50,80,0,1
62322,-90.9090909090909,4,2,50,5,0,1
62407,-90.9090909090909,4,2,50,80,0,1
62576,-90.9090909090909,4,2,50,5,0,1
62661,-90.9090909090909,4,2,50,80,0,1
62746,-90.9090909090909,4,2,50,5,0,1
62831,-90.9090909090909,4,2,50,80,0,1
63085,-90.9090909090909,4,2,50,5,0,1
63170,-90.9090909090909,4,2,50,80,0,1
64102,-90.9090909090909,4,2,50,5,0,1
64186,-90.9090909090909,4,2,50,80,0,1
67746,-90.9090909090909,4,2,50,5,0,1
67831,-90.9090909090909,4,2,50,80,0,1
68000,-90.9090909090909,4,2,50,5,0,1
68085,-90.9090909090909,4,2,50,80,0,1
68170,-90.9090909090909,4,2,50,5,0,1
68254,-90.9090909090909,4,2,50,80,0,1
68508,-90.9090909090909,4,2,50,5,0,1
68593,-90.9090909090909,4,2,50,80,0,1
69525,-90.9090909090909,4,2,50,5,0,1
69610,-90.9090909090909,4,2,50,80,0,1
71220,-90.9090909090909,4,2,50,5,0,1
71305,-90.9090909090909,4,2,50,80,0,1
73932,-90.9090909090909,4,2,50,5,0,1
74017,-90.9090909090909,4,2,50,80,0,1
75288,-90.9090909090909,4,2,50,5,0,1
75373,-90.9090909090909,4,2,50,80,0,1
76644,-90.9090909090909,4,2,50,5,0,1
76729,-90.9090909090909,4,2,50,80,0,1
84017,-90.9090909090909,4,2,50,5,0,1
84102,-90.9090909090909,4,2,50,80,0,1
84271,-90.9090909090909,4,2,50,5,0,1
84356,-90.9090909090909,4,2,50,80,0,1
84441,-90.9090909090909,4,2,50,5,0,1
84525,-90.9090909090909,4,2,50,80,0,1
84780,-90.9090909090909,4,2,50,5,0,1
84864,-90.9090909090909,4,2,50,80,0,1
85797,-90.9090909090909,4,2,50,5,0,1
85881,-90.9090909090909,4,2,50,80,0,1
86814,-90.9090909090909,4,2,50,5,0,1
86898,-90.9090909090909,4,2,50,80,0,1
88085,-90.9090909090909,4,2,50,5,0,1
88170,-90.9090909090909,4,2,50,80,0,1
88339,-90.9090909090909,4,2,50,5,0,1
88424,-90.9090909090909,4,2,50,80,0,1
88508,-90.9090909090909,4,2,50,5,0,1
88593,-90.9090909090909,4,2,50,80,0,1
91220,-90.9090909090909,4,2,50,5,0,1
91305,-90.9090909090909,4,2,50,80,0,1
91983,-76.9230769230769,4,2,50,80,0,1
92153,-76.9230769230769,4,2,50,5,0,1
92237,-76.9230769230769,4,2,50,80,0,1
92407,-76.9230769230769,4,2,50,5,0,1
92492,-76.9230769230769,4,2,50,80,0,1
92576,-76.9230769230769,4,2,50,5,0,1
92661,-125,4,2,50,80,0,1
95288,-125,4,2,50,5,0,1
95373,-125,4,2,50,80,0,1
97576,-125,4,2,50,5,0,1
97661,-125,4,2,50,80,0,1
97831,-125,4,2,50,5,0,1
97915,-125,4,2,50,80,0,1
98000,-125,4,2,50,5,0,1
98085,-125,4,2,50,60,0,0
100458,-83.3333333333333,4,2,50,80,0,0
100712,-83.3333333333333,4,2,50,5,0,0
100797,-90.9090909090909,4,2,50,80,0,1
103508,-100,4,2,50,80,0,0
111814,-100,4,2,50,58,0,0
111983,-100,4,2,50,60,0,0
112153,-100,4,2,50,62,0,0
112322,-100,4,2,50,64,0,0
112492,-100,4,2,50,66,0,0
112661,-100,4,2,50,68,0,0
112831,-100,4,2,50,70,0,0
113000,-100,4,2,50,72,0,0
113170,-100,4,2,50,74,0,0
113339,-100,4,2,50,76,0,0
113508,-100,4,2,50,78,0,0
113678,-100,4,2,50,80,0,0
117068,-100,4,2,50,70,0,0
118424,-100,4,2,50,60,0,0
119610,-100,4,2,50,50,0,0

[Colours]
Combo1 : 140,108,251
Combo2 : 255,89,255
Combo3 : 168,81,255
Combo4 : 255,128,255

[HitObjects]
78,144,3170,5,6,0:0:0:0:
63,58,3339,1,0,0:0:0:0:
184,145,3508,5,2,0:0:0:0:
199,59,3678,1,0,0:0:0:0:
83,135,3847,6,0,P|76:98|68:65,1,67.5000025749208,2|0,0:0|0:0,0:0:0:0:
179,136,4186,2,0,P|185:99|194:66,1,67.5000025749208,2|0,0:0|0:0,0:0:0:0:
241,204,4525,6,0,P|277:196|311:194,1,67.5000025749208,2|0,0:0|0:0,0:0:0:0:
189,273,4864,1,2,0:0:0:0:
215,357,5034,1,0,0:0:0:0:
341,280,5203,6,0,P|326:329|318:369,1,67.5000025749208,2|0,0:0|0:0,0:0:0:0:
203,279,5542,2,0,P|217:328|225:368,1,67.5000025749208,2|0,0:0|0:0,0:0:0:0:
81,316,5881,6,0,P|46:267|76:200,1,135.000005149842,2|2,0:0|0:0,0:0:0:0:
155,173,6390,1,0,0:0:0:0:
52,76,6559,2,0,P|92:82|127:86,1,67.5000025749208,2|0,0:0|0:0,0:0:0:0:
221,162,6898,2,0,P|188:166|155:173,1,67.5000025749208,2|0,0:0|0:0,0:0:0:0:
275,86,7237,6,0,P|315:92|350:96,1,67.5000025749208,2|0,0:0|0:0,0:0:0:0:
460,156,7576,2,0,P|420:162|385:166,1,67.5000025749208,2|0,0:0|0:0,0:0:0:0:
318,263,7915,2,0,P|314:231|306:182,1,67.5000025749208,2|0,0:0|0:0,0:0:0:0:
389,354,8254,2,0,P|395:314|402:279,1,67.5000025749208,2|8,0:0|0:0,0:0:0:0:
382,361,8508,1,4,0:3:0:0:
377,368,8593,6,0,P|340:361|289:356,1,67.5000025749208,4|0,0:3|0:0,0:0:0:0:
443,358,8932,2,0,P|410:361|377:368,1,67.5000025749208,4|0,0:3|0:0,0:0:0:0:
238,367,9271,6,0,P|271:362|312:357,1,72,4|0,0:3|0:0,0:0:0:0:
166,357,9610,2,0,P|202:363|238:367,1,72,4|0,0:3|0:0,0:0:0:0:
405,273,9949,6,0,P|371:277|326:286,1,76.5000014591217,4|0,0:3|0:0,0:0:0:0:
488,280,10288,2,0,P|450:272|412:267,1,76.5000014591217,4|0,0:3|0:0,0:0:0:0:
243,268,10627,6,0,P|276:272|324:280,1,80.9999975280763,4|0,0:3|0:0,0:0:0:0:
155,276,10966,2,0,P|194:269|235:264,1,80.9999975280763,4|8,0:3|0:0,0:0:0:0:
239,266,11220,1,8,0:0:0:0:
243,268,11305,5,4,0:0:0:0:
268,154,11475,1,4,0:3:0:0:
155,276,11644,5,4,0:3:0:0:
169,121,11814,1,4,0:3:0:0:
69,296,11983,5,8,0:0:0:0:
26,124,12153,1,8,0:0:0:0:
195,199,12322,5,8,0:0:0:0:
5,246,12492,1,8,0:0:0:0:
110,164,12661,6,0,L|105:216,3,40.4999987640381,2|2|2|2,0:0|0:0|0:0|0:0,0:0:0:0:
22,83,13000,2,0,L|27:135,3,40.4999987640381,2|2|2|2,0:0|0:0|0:0|0:0,0:0:0:0:
81,22,13339,5,4,0:3:0:0:
95,14,13424,1,4,0:3:0:0:
117,12,13508,1,8,0:0:0:0:
142,18,13593,1,8,0:0:0:0:
168,35,13678,5,8,0:0:0:0:
187,65,13763,1,8,0:0:0:0:
226,74,13847,1,8,0:0:0:0:
269,64,13932,1,8,0:0:0:0:
296,22,14017,6,0,L|290:64|281:127,1,90,6|4,0:0|0:3,0:0:0:0:
198,271,14356,1,8,0:0:0:0:
355,234,14525,1,0,0:0:0:0:
354,225,14610,1,0,0:0:0:0:
353,215,14695,2,0,P|313:194|260:207,1,90,4|4,0:3|0:3,0:0:0:0:
172,354,15034,1,8,0:0:0:0:
100,200,15203,2,0,L|109:260,1,45,2|0,0:0|0:0,0:0:0:0:
172,354,15373,6,0,L|186:266,1,90,2|4,0:0|0:3,0:0:0:0:
3,312,15712,1,10,0:0:0:0:
106,155,15881,2,0,L|97:215,1,45,10|8,0:0|0:0,0:0:0:0:
83,280,16051,1,4,0:3:0:0:
25,120,16220,1,2,0:0:0:0:
196,178,16390,1,8,0:0:0:0:
115,26,16559,1,2,0:0:0:0:
108,31,16644,1,0,0:0:0:0:
101,37,16729,6,0,P|107:86|115:151,1,90,2|4,0:0|0:3,0:0:0:0:
283,42,17068,2,0,P|243:21|188:35,1,90,8|0,0:0|0:0,0:0:0:0:
263,126,17322,1,0,0:0:0:0:
270,132,17407,2,0,P|314:124|368:117,1,90,2|4,0:0|0:3,0:0:0:0:
426,71,17661,1,2,0:0:0:0:
425,80,17746,1,8,0:0:0:0:
337,243,17915,2,0,L|331:190,1,45,2|0,0:0|0:0,0:0:0:0:
438,169,18085,6,0,P|430:215|421:272,1,90,2|0,0:0|0:0,0:0:0:0:
277,379,18424,1,10,0:0:0:0:
166,228,18593,2,0,L|171:272,1,45,10|8,0:0|0:0,0:0:0:0:
182,355,18763,1,4,0:3:0:0:
255,193,18932,1,2,0:0:0:0:
61,231,19102,1,8,0:0:0:0:
27,209,19186,1,8,0:0:0:0:
14,170,19271,1,10,0:0:0:0:
24,130,19356,1,8,0:0:0:0:
56,105,19441,6,0,L|157:124,1,101.250003862381,2|0,0:0|0:0,0:0:0:0:
56,105,19780,6,0,B|35:66|35:66|168:44,1,175.499991966248,10|0,0:0|0:0,0:0:0:0:
366,65,20119,6,0,P|315:66|285:23,1,101.250003862381,2|0,0:0|0:0,0:0:0:0:
366,65,20458,6,0,P|329:124|231:88,1,175.499991966248,10|0,0:0|0:0,0:0:0:0:
186,41,20797,5,2,0:0:0:0:
186,41,20966,1,4,0:3:0:0:
222,235,21136,2,0,L|241:79,1,135,10|0,0:0|0:0,0:0:0:0:
186,41,21475,5,2,0:0:0:0:
222,235,21644,1,8,0:0:0:0:
205,272,21729,1,8,0:0:0:0:
172,295,21814,1,10,0:0:0:0:
132,303,21898,1,8,0:0:0:0:
92,294,21983,1,8,0:0:0:0:
64,264,22068,1,0,0:0:0:0:
49,226,22153,6,0,L|39:127,1,90,2|4,0:0|0:3,0:0:0:0:
222,235,22492,1,8,0:0:0:0:
154,51,22661,1,0,0:0:0:0:
159,58,22746,1,0,0:0:0:0:
163,65,22831,2,0,L|153:154,1,90,4|4,0:3|0:3,0:0:0:0:
351,88,23170,1,8,0:0:0:0:
304,269,23339,2,0,L|297:215,1,45,2|2,0:0|0:0,0:0:0:0:
285,136,23508,5,10,0:0:0:0:
285,136,23678,1,0,0:0:0:0:
417,265,23847,1,4,0:3:0:0:
211,331,24017,1,8,0:0:0:0:
347,168,24186,5,8,0:0:0:0:
345,176,24271,1,4,0:3:0:0:
344,184,24356,1,4,0:3:0:0:
343,192,24441,1,4,0:3:0:0:
341,200,24525,5,8,0:0:0:0:
311,227,24610,1,8,0:0:0:0:
271,234,24695,1,8,0:0:0:0:
231,223,24780,1,8,0:0:0:0:
206,192,24864,6,0,P|199:144|192:95,1,90,6|4,0:0|0:3,0:0:0:0:
125,261,25203,1,10,0:0:0:0:
193,102,25373,2,0,P|151:84|106:97,1,90,2|4,0:0|0:3,0:0:0:0:
34,171,25712,1,4,0:3:0:0:
137,2,25881,1,10,0:0:0:0:
285,136,26051,1,2,0:0:0:0:
411,7,26220,6,0,P|403:56|396:104,1,90,4|4,0:3|0:3,0:0:0:0:
293,257,26559,1,10,0:0:0:0:
482,225,26729,2,0,P|438:213|394:203,1,90,2|4,0:0|0:3,0:0:0:0:
258,62,27068,1,2,0:0:0:0:
293,257,27237,1,8,0:0:0:0:
396,105,27407,1,2,0:0:0:0:
227,203,27576,5,4,0:3:0:0:
227,203,27746,1,4,0:3:0:0:
85,66,27915,2,0,B|126:146|50:157|97:250,1,180,8|4,0:0|0:3,0:0:0:0:
256,340,28424,1,2,0:0:0:0:
244,133,28593,1,10,0:0:0:0:
156,321,28763,1,2,0:0:0:0:
310,229,28932,5,4,0:3:0:0:
310,229,29102,1,4,0:3:0:0:
474,324,29271,2,0,P|416:333|372:342,1,90,8|0,0:0|0:0,0:0:0:0:
226,254,29610,5,4,0:3:0:0:
226,254,29780,1,4,0:3:0:0:
402,127,29949,2,0,P|392:181|380:272,1,135,10|0,0:0|0:0,0:0:0:0:
286,134,30288,6,0,P|297:187|305:235,1,90,2|4,0:0|0:3,0:0:0:0:
482,133,30627,1,10,0:0:0:0:
331,52,30797,1,2,0:0:0:0:
386,215,30966,2,0,P|392:171|402:127,1,90,4|4,0:3|0:3,0:0:0:0:
210,204,31305,1,10,0:0:0:0:
402,127,31475,1,2,0:0:0:0:
244,40,31644,6,0,P|255:93|263:141,1,90,4|4,0:3|0:3,0:0:0:0:
142,289,31983,2,0,P|103:238|135:165,1,135,10|0,0:0|0:0,0:0:0:0:
181,120,32322,1,2,0:0:0:0:
9,170,32492,1,4,0:3:0:0:
181,120,32661,2,0,P|137:95|83:107,1,90,10|0,0:0|0:0,0:0:0:0:
248,231,33000,6,0,P|255:186|265:142,1,90,2|4,0:0|0:3,0:0:0:0:
431,37,33339,2,0,P|363:88|291:43,1,180,8|4,0:0|0:3,0:0:0:0:
429,164,33847,1,2,0:0:0:0:
247,248,34017,1,10,0:0:0:0:
396,376,34186,1,2,0:0:0:0:
346,203,34356,6,0,P|353:255|330:318,1,90,4|4,0:3|0:3,0:0:0:0:
157,358,34695,2,0,P|148:314|155:269,1,90,8|0,0:0|0:0,0:0:0:0:
223,125,35034,1,4,0:3:0:0:
25,182,35203,1,8,0:0:0:0:
36,195,35288,1,8,0:0:0:0:
54,207,35373,1,8,0:0:0:0:
79,216,35458,1,8,0:0:0:0:
109,215,35542,1,10,0:0:0:0:
141,197,35627,1,8,0:0:0:0:
163,163,35712,6,0,P|201:147|256:167,1,90,6|4,0:0|0:3,0:0:0:0:
382,304,36051,1,10,0:0:0:0:
466,126,36220,1,2,0:0:0:0:
307,212,36390,2,0,P|345:228|400:208,1,90,4|4,0:3|0:3,0:0:0:0:
504,41,36729,1,10,0:0:0:0:
301,9,36898,1,2,0:0:0:0:
292,13,36983,1,0,0:0:0:0:
283,17,37068,6,0,B|256:47|256:47|268:153,1,135,4|0,0:3|0:0,0:0:0:0:
307,212,37407,1,10,0:0:0:0:
402,39,37576,1,2,0:0:0:0:
503,188,37746,2,0,P|454:176|399:166,1,90,4|4,0:3|0:3,0:0:0:0:
212,244,38085,1,8,0:0:0:0:
161,45,38254,1,2,0:0:0:0:
49,221,38424,6,0,P|29:186|45:120,1,90,2|4,0:0|0:3,0:0:0:0:
212,244,38763,1,10,0:0:0:0:
18,314,38932,2,0,P|69:321|112:328,1,90,2|4,0:0|0:3,0:0:0:0:
212,244,39271,1,4,0:3:0:0:
18,314,39441,1,10,0:0:0:0:
213,378,39610,1,2,0:0:0:0:
137,195,39780,6,0,B|120:237|120:237|137:297,1,90,4|4,0:3|0:3,0:0:0:0:
256,103,40119,2,0,P|211:64|116:100,1,135,8|0,0:0|0:0,0:0:0:0:
85,133,40458,1,2,0:0:0:0:
85,133,40627,1,4,0:3:0:0:
279,203,40797,1,10,0:0:0:0:
368,8,40966,1,0,0:0:0:0:
375,13,41051,1,0,0:0:0:0:
382,18,41136,6,0,P|375:58|365:128,1,90,2|4,0:0|0:3,0:0:0:0:
439,292,41475,1,10,0:0:0:0:
512,109,41644,1,2,0:0:0:0:
361,210,41814,2,0,P|408:203|453:197,1,90,4|4,0:3|0:3,0:0:0:0:
271,109,42153,1,8,0:0:0:0:
213,317,42322,1,2,0:0:0:0:
204,312,42407,1,0,0:0:0:0:
196,307,42492,6,0,P|176:271|194:216,1,90,2|4,0:0|0:3,0:0:0:0:
364,314,42831,1,10,0:0:0:0:
421,126,43000,1,2,0:0:0:0:
423,134,43085,1,0,0:0:0:0:
425,142,43170,1,4,0:3:0:0:
281,278,43339,1,2,0:0:0:0:
192,91,43508,1,10,0:0:0:0:
281,278,43678,1,2,0:0:0:0:
98,243,43847,6,0,P|149:232|198:222,1,90,4|4,0:3|0:3,0:0:0:0:
8,151,44186,1,8,0:0:0:0:
54,352,44356,1,2,0:0:0:0:
62,348,44441,1,0,0:0:0:0:
70,344,44525,2,0,P|77:288|85:244,1,90,2|4,0:0|0:3,0:0:0:0:
196,61,44864,6,0,B|188:104|206:129|206:129|196:158|196:158|222:193|206:251,1,175.499991966248,8|0,0:0|0:0,0:0:0:0:
224,358,45203,5,12,0:0:0:0:
333,170,45373,1,4,0:3:0:0:
137,206,45542,1,4,0:3:0:0:
330,309,45712,1,8,0:0:0:0:
307,85,45881,5,2,0:0:0:0:
208,268,46051,1,4,0:3:0:0:
200,263,46136,1,4,0:3:0:0:
192,258,46220,2,0,B|170:208|170:208|252:241|252:241|319:218,1,202.500007724762,10|0,0:0|0:0,0:0:0:0:
431,141,46559,5,4,0:0:0:0:
431,141,46729,2,0,L|414:289,1,144,4|4,0:3|0:3,0:0:0:0:
347,109,47237,6,0,B|305:84|305:84|242:111,1,99.0000030212403,8|4,0:0|0:3,0:0:0:0:
124,257,47576,6,0,B|62:288|62:288|-1:235,1,135.000005149842,0|4,0:0|0:3,0:0:0:0:
87,50,47915,5,4,0:3:0:0:
87,50,48085,2,0,L|74:204,1,144,4|4,0:3|0:3,0:0:0:0:
250,126,48593,1,8,0:0:0:0:
110,125,48763,2,0,B|159:117|159:117|196:133|196:133|250:126,1,144,4|0,0:3|0:0,0:0:0:0:
376,225,49271,5,4,0:3:0:0:
376,225,49441,2,0,L|229:212,1,144,4|4,0:3|0:3,0:0:0:0:
450,173,49949,6,0,B|474:228|474:228|445:281,1,116.999994644165,8|4,0:0|0:3,0:0:0:0:
374,132,50288,6,0,L|367:51,1,72
302,182,50542,1,8,0:0:0:0:
291,167,50627,2,0,L|284:86,1,72,4|4,0:0|0:3,0:0:0:0:
141,235,50966,6,0,B|185:257|185:257|242:227,1,99.0000030212403,8|4,0:0|0:3,0:0:0:0:
446,277,51305,6,0,B|394:250|394:250|340:281,1,116.999994644165,4|8,0:3|0:0,0:0:0:0:
262,363,51559,5,8,0:0:0:0:
255,368,51644,2,0,L|261:321,1,45,8|8,0:0|0:0,0:0:0:0:
135,190,51814,2,0,L|140:234,1,45,8|8,0:0|0:0,0:0:0:0:
284,95,51983,5,4,0:0:0:0:
284,95,52322,2,0,P|243:74|185:93,1,90,4|0,0:3|0:0,0:0:0:0:
17,168,52661,6,0,B|94:196|128:140|128:140|100:112|68:145,1,175.499991966248,4|0,0:3|0:0,0:0:0:0:
32,7,53000,6,0,P|13:46|37:108,1,90,4|0,0:3|0:0,0:0:0:0:
112,282,53339,6,0,P|145:241|135:190,1,108,2|0,0:0|0:0,0:0:0:0:
104,289,53678,6,0,P|177:288|223:215,1,135,2|0,0:0|0:0,0:0:0:0:
95,293,54017,6,0,P|165:304|274:319,1,161.999995056153,2|0,0:0|0:0,0:0:0:0:
338,362,54356,5,2,0:0:0:0:
302,159,54525,1,2,0:0:0:0:
491,244,54695,6,0,L|389:257,2,90,6|4|4,0:0|0:3|0:3,0:0:0:0:
302,159,55203,1,2,0:0:0:0:
338,362,55373,5,10,0:0:0:0:
406,178,55542,1,8,0:0:0:0:
338,362,55712,1,8,0:0:0:0:
210,210,55881,1,8,0:0:0:0:
401,255,56051,6,0,P|359:272|296:238,1,90,10|0,0:0|0:0,0:0:0:0:
126,215,56390,2,0,P|167:198|210:210,1,90,10|0,0:0|0:0,0:0:0:0:
39,311,56729,2,0,P|28:258|19:206,1,90,10|0,0:0|0:0,0:0:0:0:
18,209,56983,1,0,0:0:0:0:
14,195,57068,1,10,0:0:0:0:
217,158,57237,1,4,0:3:0:0:
212,184,57322,1,4,0:3:0:0:
210,210,57407,5,8,0:0:0:0:
9,110,57576,1,4,0:3:0:0:
9,110,57746,1,4,0:3:0:0:
238,34,57915,5,8,0:0:0:0:
112,221,58085,1,4,0:3:0:0:
112,221,58254,1,4,0:3:0:0:
348,289,58424,5,8,0:0:0:0:
187,134,58593,1,4,0:3:0:0:
191,141,58678,1,0,0:0:0:0:
195,148,58763,2,0,L|261:141,1,45,10|0,0:0|0:0,0:0:0:0:
394,42,58932,5,8,0:0:0:0:
398,49,59017,1,8,0:0:0:0:
402,56,59102,2,0,L|394:119,3,49.5000015106202,10|8|8|8,0:0|0:0|0:0|0:0,0:0:0:0:
320,260,59441,2,0,L|311:201,3,53.9999983520508,10|8|8|8,0:0|0:0|0:0|0:0,0:0:0:0:
474,96,59780,6,0,L|465:156,1,58.4999973220826,8|8,0:0|0:0,0:0:0:0:
241,249,59949,2,0,L|232:191,1,58.4999973220826,8|8,0:0|0:0,0:0:0:0:
446,359,60119,6,0,P|404:375|346:338,1,99.0000030212403,4|0,0:0|0:0,0:0:0:0:
140,351,60458,2,0,P|190:343|238:335,1,99.0000030212403,8|0,0:0|0:0,0:0:0:0:
336,162,60797,2,0,L|328:211|320:260,1,99.0000030212403,4|0,0:3|0:0,0:0:0:0:
191,59,61136,1,8,0:0:0:0:
83,269,61305,1,4,0:3:0:0:
89,273,61390,1,4,0:3:0:0:
97,279,61475,6,0,P|145:271|218:262,1,99.0000030212403,4|0,0:3|0:0,0:0:0:0:
64,90,61814,2,0,P|44:140|69:192,1,99.0000030212403,8|0,0:0|0:0,0:0:0:0:
201,156,62068,5,0,0:0:0:0:
217,152,62153,2,0,P|158:145|114:139,1,99.0000030212403,2|0,0:0|0:0,0:0:0:0:
275,204,62407,2,0,P|296:160|284:113,1,99.0000030212403,2|0,0:0|0:0,0:0:0:0:
200,233,62661,2,0,P|201:266|214:294,1,49.5000015106202,2|0,0:0|0:0,0:0:0:0:
388,345,62831,6,0,P|316:353|214:365,1,148.50000453186,2|0,0:0|0:0,0:0:0:0:
152,377,63170,1,8,0:0:0:0:
43,190,63339,2,0,P|27:234|50:288,1,99.0000030212403,0|4,0:0|0:3,0:0:0:0:
230,192,63678,1,0,0:0:0:0:
43,281,63847,2,0,P|102:275|202:264,1,148.50000453186,8|0,0:0|0:0,0:0:0:0:
320,191,64186,6,0,P|312:244|305:293,1,99.0000030212403,4|0,0:3|0:0,0:0:0:0:
154,118,64525,2,0,P|200:94|255:117,1,99.0000030212403,8|0,0:0|0:0,0:0:0:0:
413,6,64864,2,0,L|406:55|399:104,1,99.0000030212403,4|0,0:3|0:0,0:0:0:0:
181,11,65203,1,8,0:0:0:0:
399,104,65373,1,0,0:0:0:0:
214,258,65542,6,0,P|194:213|206:166,1,99.0000030212403,4|0,0:3|0:0,0:0:0:0:
420,224,65881,2,0,P|370:217|321:211,1,99.0000030212403,8|0,0:0|0:0,0:0:0:0:
179,347,66220,2,0,P|229:340|278:334,1,99.0000030212403,4|0,0:3|0:0,0:0:0:0:
137,141,66559,1,8,0:0:0:0:
86,375,66729,1,0,0:0:0:0:
0,144,66898,6,0,P|7:194|13:243,1,99.0000030212403,4|0,0:3|0:0,0:0:0:0:
147,57,67237,2,0,P|102:37|55:49,1,99.0000030212403,8|0,0:0|0:0,0:0:0:0:
190,125,67492,5,0,0:0:0:0:
201,115,67576,2,0,P|224:68|207:10,1,99.0000030212403,2|0,0:0|0:0,0:0:0:0:
115,160,67831,2,0,P|123:217|131:282,1,99.0000030212403,2|0,0:0|0:0,0:0:0:0:
298,200,68085,2,0,P|273:192|244:191,1,49.5000015106202,2|0,0:0|0:0,0:0:0:0:
138,341,68254,6,0,P|209:327|309:317,1,148.50000453186,2|0,0:0|0:0,0:0:0:0:
369,351,68593,1,8,0:0:0:0:
462,152,68763,2,0,P|452:210|447:257,1,99.0000030212403,0|4,0:0|0:3,0:0:0:0:
246,188,69102,1,0,0:0:0:0:
447,249,69271,2,0,P|387:278|331:228,1,148.50000453186,8|0,0:0|0:0,0:0:0:0:
246,188,69610,6,0,P|256:247|264:294,1,99.0000030212403,4|0,0:3|0:3,0:0:0:0:
334,101,69949,1,8,0:0:0:0:
142,228,70119,1,0,0:0:0:0:
162,231,70203,1,0,0:0:0:0:
180,236,70288,1,4,0:3:0:0:
101,26,70458,5,8,0:0:0:0:
68,36,70542,1,8,0:0:0:0:
42,59,70627,1,8,0:0:0:0:
31,92,70712,1,8,0:0:0:0:
37,126,70797,1,8,0:0:0:0:
58,153,70881,1,8,0:0:0:0:
88,168,70966,6,0,P|159:157|243:151,1,148.50000453186,4|0,0:0|0:0,0:0:0:0:
324,151,71305,1,8,0:0:0:0:
194,326,71475,2,0,P|170:285|186:230,1,99.0000030212403,0|4,0:0|0:3,0:0:0:0:
378,327,71814,2,0,P|402:286|386:231,1,99.0000030212403,0|8,0:0|0:0,0:0:0:0:
251,81,72153,1,0,0:0:0:0:
473,135,72322,6,0,P|382:149|259:168,1,198.000006042481,4|8,0:3|0:0,0:0:0:0:
88,75,72831,1,0,0:0:0:0:
136,288,73000,2,0,P|159:241|140:187,1,99.0000030212403,4|0,0:3|0:0,0:0:0:0:
51,248,73254,1,0,0:0:0:0:
44,255,73339,2,0,P|51:318|55:358,1,99.0000030212403,8|0,0:0|0:0,0:0:0:0:
267,292,73678,6,0,P|202:260|136:288,1,148.50000453186,4|0,0:3|0:0,0:0:0:0:
200,349,74017,1,8,0:0:0:0:
363,206,74186,2,0,P|356:263|350:315,1,99.0000030212403,0|4,0:0|0:3,0:0:0:0:
285,95,74525,1,0,0:0:0:0:
490,217,74695,1,8,0:0:0:0:
267,291,74864,1,0,0:0:0:0:
410,109,75034,6,0,P|351:69|285:95,1,148.50000453186,4|0,0:3|0:0,0:0:0:0:
207,140,75373,2,0,P|215:194|221:250,1,99.0000030212403,8|0,0:0|0:0,0:0:0:0:
25,160,75712,1,4,0:3:0:0:
172,63,75881,1,0,0:0:0:0:
102,272,76051,1,8,0:0:0:0:
36,57,76220,1,8,0:0:0:0:
63,66,76305,1,8,0:0:0:0:
90,76,76390,6,0,P|116:152|58:211,1,148.50000453186,4|0,0:0|0:0,0:0:0:0:
0,243,76729,1,8,0:0:0:0:
205,164,76898,2,0,P|162:135|100:155,1,99.0000030212403,0|4,0:0|0:3,0:0:0:0:
190,347,77237,1,0,0:0:0:0:
297,126,77407,1,8,0:0:0:0:
102,272,77576,1,8,0:0:0:0:
130,264,77661,1,8,0:0:0:0:
158,256,77746,6,0,B|246:229|263:293|358:255,1,198.000006042481,4|8,0:0|0:0,0:0:0:0:
512,96,78254,1,0,0:0:0:0:
457,329,78424,2,0,P|449:273|441:222,1,99.0000030212403,4|0,0:3|0:0,0:0:0:0:
417,145,78678,1,0,0:0:0:0:
412,136,78763,1,8,0:0:0:0:
312,339,78932,1,0,0:0:0:0:
197,119,79102,5,4,0:3:0:0:
357,237,79271,1,4,0:3:0:0:
140,307,79441,1,8,0:0:0:0:
297,126,79610,2,0,L|290:194,1,49.5000015106202
167,232,79780,2,0,P|216:239|270:250,1,99.0000030212403,4|0,0:3|0:0,0:0:0:0:
354,37,80119,2,0,P|305:44|251:55,1,99.0000030212403,8|0,0:0|0:0,0:0:0:0:
30,158,80458,6,0,P|9:114|28:56,1,99.0000030212403,4|4,0:0|0:3,0:0:0:0:
167,232,80797,2,0,L|161:285|155:338,1,99.0000030212403,8|8,0:0|0:0,0:0:0:0:
255,191,81051,1,8,0:0:0:0:
266,213,81136,2,0,L|260:266|254:319,1,99.0000030212403,8|8,0:0|0:0,0:0:0:0:
180,127,81390,1,8,0:0:0:0:
198,109,81475,2,0,L|267:121,1,49.5000015106202,8|8,0:0|0:0,0:0:0:0:
405,228,81644,2,0,L|336:240,1,49.5000015106202,8|8,0:0|0:0,0:0:0:0:
490,65,81814,6,0,P|509:112|482:167,1,99.0000030212403,4|0,0:0|0:0,0:0:0:0:
317,27,82153,2,0,P|329:89|338:134,1,99.0000030212403,8|0,0:0|0:0,0:0:0:0:
151,201,82492,2,0,P|199:210|248:220,1,99.0000030212403,4|0,0:3|0:0,0:0:0:0:
74,57,82831,1,8,0:0:0:0:
125,289,83000,1,0,0:0:0:0:
69,48,83170,6,0,P|61:95|51:159,1,99.0000030212403,4|0,0:3|0:0,0:0:0:0:
243,40,83508,2,0,P|197:13|142:30,1,99.0000030212403,8|0,0:0|0:0,0:0:0:0:
54,220,83847,6,0,P|107:207|154:200,1,99.0000030212403,2|0,0:0|0:0,0:0:0:0:
308,287,84102,2,0,P|262:279|199:271,1,99.0000030212403,2|0,0:0|0:0,0:0:0:0:
280,114,84356,2,0,L|287:162,1,49.5000015106202,2|0,0:0|0:0,0:0:0:0:
403,334,84525,6,0,P|452:282|437:213,1,148.50000453186,2|0,0:0|0:0,0:0:0:0:
370,154,84864,1,8,0:0:0:0:
233,326,85034,2,0,P|226:273|218:220,1,99.0000030212403,0|4,0:0|0:3,0:0:0:0:
30,321,85373,1,0,0:0:0:0:
219,227,85542,2,0,P|166:186|90:228,1,148.50000453186,8|0,0:0|0:0,0:0:0:0:
0,115,85881,6,0,P|19:222|24:255,1,99.0000030212403,4|0,0:3|0:0,0:0:0:0:
131,13,86220,2,0,P|121:61|113:110,1,99.0000030212403,8|0,0:0|0:0,0:0:0:0:
334,55,86559,2,0,P|272:11|185:57,1,148.50000453186,4|0,0:3|0:0,0:0:0:0:
260,100,86898,1,8,0:0:0:0:
498,25,87068,1,0,0:0:0:0:
422,271,87237,6,0,B|384:178|462:164|415:73,1,198.000006042481,4|8,0:0|0:0,0:0:0:0:
203,182,87746,2,0,L|270:195,1,49.5000015106202,4|4,0:3|0:3,0:0:0:0:
422,271,87915,6,0,L|301:287,1,99.0000030212403,2|0,0:0|0:0,0:0:0:0:
141,236,88170,2,0,P|123:186|137:137,1,99.0000030212403,2|0,0:0|0:0,0:0:0:0:
213,315,88424,2,0,L|202:379,1,49.5000015106202,2|0,0:0|0:0,0:0:0:0:
3,379,88593,6,0,B|-8:311|-8:311|12:260|12:260|-5:154,1,198.000006042481,2|8,0:0|0:0,0:0:0:0:
209,306,89102,2,0,P|160:313|111:323,1,99.0000030212403,0|4,0:0|0:3,0:0:0:0:
226,137,89441,1,0,0:0:0:0:
336,334,89610,2,0,P|358:278|342:235,1,99.0000030212403,8|0,0:0|0:0,0:0:0:0:
477,64,89949,6,0,P|468:110|459:163,1,99.0000030212403,4|0,0:3|0:0,0:0:0:0:
458,171,90203,1,0,0:0:0:0:
458,180,90288,1,8,0:0:0:0:
283,33,90458,2,0,P|336:13|383:35,1,99.0000030212403,0|4,0:0|0:3,0:0:0:0:
254,232,90797,1,0,0:0:0:0:
115,18,90966,2,0,B|84:48|84:48|99:169,1,148.50000453186,8|0,0:0|0:0,0:0:0:0:
168,103,91305,5,4,0:0:0:0:
21,250,91475,1,8,0:0:0:0:
60,251,91559,1,8,0:0:0:0:
99,253,91644,1,8,0:0:0:0:
138,258,91729,1,8,0:0:0:0:
176,268,91814,1,8,0:0:0:0:
399,138,91983,6,0,B|344:114|344:114|274:154,1,116.999994644165,4|0,0:3|0:0,0:0:0:0:
453,293,92237,2,0,B|486:243|486:243|458:167,1,116.999994644165,4|0,0:3|0:0,0:0:0:0:
308,338,92492,2,0,B|335:351|335:351|362:344,1,58.4999973220826,4|0,0:3|0:0,0:0:0:0:
210,170,92661,5,4,0:0:0:0:
210,170,92831,2,0,L|224:336,1,144,4|4,0:3|0:3,0:0:0:0:
266,100,93339,1,8,0:0:0:0:
137,122,93508,2,0,P|197:85|266:100,1,144,4|8,0:3|0:0,0:0:0:0:
270,108,93932,1,8,0:0:0:0:
272,116,94017,5,4,0:3:0:0:
331,284,94186,2,0,L|361:123,1,144,4|4,0:3|0:3,0:0:0:0:
222,313,94695,1,8,0:0:0:0:
96,128,94864,2,0,B|64:210|136:223|100:314,1,180,4|0,0:3|0:0,0:0:0:0:
36,367,95373,5,4,0:0:0:0:
193,238,95542,2,0,P|132:200|49:240,1,144,8|4,0:0|0:3,0:0:0:0:
216,356,96051,1,8,0:0:0:0:
333,189,96220,2,0,P|325:245|313:342,1,144,4|4,0:3|0:3,0:0:0:0:
313,340,96644,1,4,0:3:0:0:
314,348,96729,5,4,0:0:0:0:
263,153,96898,2,0,P|310:113|394:140,1,144,8|0,0:0|0:0,0:0:0:0:
457,299,97407,6,0,L|470:202,1,72,8|0,0:0|0:0,0:0:0:0:
457,156,97661,2,0,L|466:227,1,72,8|0,0:0|0:0,0:0:0:0:
350,241,97915,2,0,L|385:236,1,36,8|0,0:0|0:0,0:0:0:0:
466,227,98085,5,2,0:0:0:0:
222,86,100458,6,0,B|245:37|245:37|115:63,1,161.999995056153,4|0,0:3|0:0,0:0:0:0:
34,79,100797,5,4,0:0:0:0:
302,141,100966,1,4,0:3:0:0:
302,141,101136,1,4,0:3:0:0:
14,208,101305,5,8,0:0:0:0:
288,222,101475,1,4,0:3:0:0:
288,222,101644,1,4,0:3:0:0:
16,341,101814,5,8,0:0:0:0:
288,307,101984,1,4,0:3:0:0:
286,317,102068,1,4,0:3:0:0:
284,326,102153,5,8,0:0:0:0:
157,38,102322,1,8,0:0:0:0:
434,270,103170,5,8,0:0:0:0:
474,241,103254,1,8,0:0:0:0:
493,195,103339,1,8,0:0:0:0:
480,146,103424,1,8,0:0:0:0:
451,106,103508,6,0,L|343:116,1,90,4|4,0:0|0:3,0:0:0:0:
257,277,103847,1,8,0:0:0:0:
143,116,104017,1,0,0:0:0:0:
135,119,104102,1,0,0:0:0:0:
127,122,104186,2,0,P|110:161|131:223,1,90,4|4,0:3|0:3,0:0:0:0:
255,49,104525,1,8,0:0:0:0:
45,55,104695,2,0,L|89:48,1,45,2|0,0:0|0:0,0:0:0:0:
255,49,104865,6,0,L|166:24,1,90,2|4,0:0|0:3,0:0:0:0:
307,169,105203,1,10,0:0:0:0:
422,7,105373,2,0,P|425:32|419:70,1,45,10|8,0:0|0:0,0:0:0:0:
393,128,105542,1,4,0:3:0:0:
255,49,105712,1,2,0:0:0:0:
319,246,105881,1,8,0:0:0:0:
493,131,106051,1,2,0:0:0:0:
488,124,106136,1,0,0:0:0:0:
482,117,106220,6,0,P|433:123|368:131,1,90,2|4,0:0|0:3,0:0:0:0:
238,262,106560,2,0,P|218:222|226:178,1,90,8|0,0:0|0:0,0:0:0:0:
93,10,106898,1,4,0:3:0:0:
103,44,106983,1,8,0:0:0:0:
112,79,107068,1,8,0:0:0:0:
115,114,107153,1,8,0:0:0:0:
115,149,107237,1,8,0:0:0:0:
1,314,107407,2,0,L|54:308,1,45,2|0,0:0|0:0,0:0:0:0:
133,227,107576,5,4,0:3:0:0:
141,238,107661,2,0,L|132:306,2,45,8|8|0,0:0|0:0|0:0,0:0:0:0:
236,154,107915,5,4,0:3:0:0:
244,143,108000,2,0,L|235:75,2,45,8|8|0,0:0|0:0|0:0,0:0:0:0:
330,256,108254,5,8,0:0:0:0:
376,282,108339,1,8,0:0:0:0:
430,281,108424,1,8,0:0:0:0:
476,253,108508,1,8,0:0:0:0:
498,204,108593,1,8,0:0:0:0:
496,148,108678,1,8,0:0:0:0:
469,99,108763,1,8,0:0:0:0:
422,74,108847,1,8,0:0:0:0:
367,76,108932,5,4,0:0:0:0:
330,256,109102,1,4,0:3:0:0:
255,92,109271,5,8,0:0:0:0:
250,218,109441,1,4,0:3:0:0:
139,60,109610,5,8,0:0:0:0:
163,240,109780,1,4,0:3:0:0:
8,59,109949,5,8,0:0:0:0:
82,283,110119,1,4,0:3:0:0:
255,92,110288,5,8,0:0:0:0:
22,140,110458,1,4,0:3:0:0:
252,186,110627,5,8,0:0:0:0:
70,206,110797,1,4,0:3:0:0:
211,280,110966,5,8,0:0:0:0:
82,283,111136,1,4,0:3:0:0:
241,372,111305,5,8,0:0:0:0:
57,360,111475,1,4,0:3:0:0:
157,171,111644,5,4,0:0:0:0:
157,171,111814,1,4,0:3:0:0:
313,317,111983,5,4,0:3:0:0:
313,317,112153,1,4,0:3:0:0:
104,270,112322,5,4,0:3:0:0:
270,116,112492,1,8,0:0:0:0:
216,344,112661,1,8,0:0:0:0:
68,149,112831,1,8,0:0:0:0:
305,237,113000,5,8,0:0:0:0:
69,349,113170,1,8,0:0:0:0:
149,92,113339,1,8,0:0:0:0:
265,345,113508,1,8,0:0:0:0:
501,165,113678,5,0,0:0:0:0:
463,118,113763,1,8,0:0:0:0:
406,105,113847,1,8,0:0:0:0:
350,121,113932,1,8,0:0:0:0:
316,169,114017,1,8,0:0:0:0:
283,218,114102,1,8,0:0:0:0:
226,234,114186,1,8,0:0:0:0:
169,221,114271,1,8,0:0:0:0:
132,174,114356,5,4,0:0:0:0:
256,192,114441,12,2,119610,0:0:0:0:
