osu file format v14

[General]
AudioFilename: audio.mp3
AudioLeadIn: 0
PreviewTime: 59017
Countdown: 0
SampleSet: Soft
StackLeniency: 0.5
Mode: 0
LetterboxInBreaks: 0
WidescreenStoryboard: 0

[Editor]
DistanceSpacing: 1.2
BeatDivisor: 4
GridSize: 4
TimelineZoom: 1

[Metadata]
Title:Atlantico Blue
TitleUnicode:Atlantico Blue
Artist:Sasaki Sayaka
ArtistUnicode:佐咲紗花
Creator:[C u r i]
Version:Dailycare's Hard
Source:
Tags:Sonnyc Dailycare Morinaga Left Karia 堀江晶太 Horie Shota
BeatmapID:1485859
BeatmapSetID:690792

[Difficulty]
HPDrainRate:5
CircleSize:3.7
OverallDifficulty:6
ApproachRate:7.8
SliderMultiplier:1.45
SliderTickRate:1

[Events]
//Background and Video events
0,0,"cache-64750b5e-2a0d-46e7-c6eb-c0b850c17ad9.jpg",0,0
//Break Periods
//Storyboard Layer 0 (Background)
//Storyboard Layer 1 (Fail)
//Storyboard Layer 2 (Pass)
//Storyboard Layer 3 (Foreground)
//Storyboard Sound Samples

[TimingPoints]
3170,338.983050847458,4,2,1,60,1,0
3170,-111.111111111111,4,2,1,60,0,0
8254,-100,4,2,1,30,0,0
8424,-100,4,2,1,60,0,0
8593,-100,4,2,1,60,0,0
10966,-100,4,2,1,30,0,0
11136,-100,4,2,1,60,0,0
12661,-100,4,2,1,40,0,0
14017,-100,4,2,2,80,0,0
14186,-100,4,2,1,80,0,0
19441,-100,4,2,2,80,0,0
24525,-100,4,2,1,80,0,0
24864,-100,4,2,1,70,0,0
30203,-100,4,2,1,5,0,0
30288,-100,4,2,1,70,0,0
35712,-100,4,2,2,70,0,0
35881,-100,4,2,1,70,0,0
45203,-100,4,2,2,70,0,0
45373,-100,4,2,1,70,0,0
46475,-100,4,2,1,5,0,0
46559,-100,4,2,2,70,0,0
46729,-100,4,2,1,70,0,0
50627,-100,4,2,2,70,0,0
50797,-100,4,2,1,70,0,0
54695,-100,4,2,2,70,0,0
54864,-100,4,2,1,70,0,0
57407,-100,4,2,1,70,0,0
58763,-100,4,2,2,70,0,0
58932,-100,4,2,1,70,0,0
60119,-100,4,2,2,90,0,1
60373,-100,4,2,1,5,0,1
60458,-100,4,2,1,90,0,1
65797,-100,4,2,1,5,0,1
65881,-100,4,2,1,90,0,1
69864,-100,4,2,1,5,0,1
69949,-100,4,2,1,90,0,1
70966,-100,4,2,2,90,0,1
71305,-100,4,2,1,90,0,1
73932,-100,4,2,1,5,0,1
74017,-100,4,2,1,90,0,1
81814,-100,4,2,2,90,0,1
82068,-100,4,2,1,5,0,1
82153,-100,4,2,1,90,0,1
87492,-100,4,2,1,5,0,1
87576,-100,4,2,1,90,0,1
91220,-100,4,2,1,5,0,1
91305,-100,4,2,2,90,0,1
91475,-100,4,2,1,90,0,1
93932,-100,4,2,1,5,0,1
94017,-100,4,2,1,90,0,1
95373,-100,4,2,2,90,0,1
95542,-100,4,2,1,90,0,1
96729,-100,4,2,2,90,0,1
96898,-100,4,2,1,90,0,1
98085,-100,4,2,1,80,0,0
99102,-100,4,2,1,50,0,0
99441,-111.111111111111,4,2,1,50,0,0
100797,-100,4,2,2,90,0,1
103508,-100,4,2,2,80,0,0
103847,-100,4,2,1,80,0,0
108932,-100,4,2,2,80,0,0
109102,-100,4,2,1,80,0,0
110288,-100,4,2,1,90,0,0
111644,-100,4,2,2,80,0,0
111814,-100,4,2,1,80,0,0
114356,-100,4,2,2,80,0,0
119610,-100,4,2,1,60,0,0

[Colours]
Combo1 : 140,108,251
Combo2 : 255,89,255
Combo3 : 168,81,255
Combo4 : 255,128,255

[HitObjects]
339,20,3170,6,0,P|308:65|332:143,1,130.499996017456,4|4,0:3|0:3,0:0:0:0:
395,183,3678,2,0,P|320:173|191:160,1,195.749994026184,4|4,0:3|0:3,0:0:0:0:
32,204,4525,1,4,0:3:0:0:
122,54,4864,1,4,0:3:0:0:
122,54,5034,2,0,P|130:126|143:253,1,195.749994026184,4|4,0:3|0:3,0:0:0:0:
142,248,5881,6,0,P|182:213|265:224,1,130.499996017456,4|4,0:3|0:3,0:0:0:0:
301,290,6390,2,0,P|349:342|472:325,1,195.749994026184,4|4,0:3|0:3,0:0:0:0:
406,171,7237,1,4,0:3:0:0:
476,229,7576,1,4,0:3:0:0:
492,139,7915,2,0,L|480:-1,1,130.499996017456,4|4,0:3|0:0,0:0:0:0:
405,33,8424,1,8,0:0:0:0:
405,33,8508,1,2,0:0:0:0:
405,33,8593,6,0,P|366:31|318:14,1,72.5,6|0,0:3|0:0,0:0:0:0:
257,52,8932,1,2,0:0:0:0:
305,121,9102,2,0,P|322:175|268:264,1,145,0|0,0:0|0:0,0:0:0:0:
209,282,9610,2,0,P|174:276|120:268,1,72.5,2|0,0:0|0:0,0:0:0:0:
62,305,9949,6,0,B|29:265|29:265|60:160,1,145,2|2,0:0|0:0,0:0:0:0:
21,101,10458,2,0,B|111:74|73:134|181:96,1,145,0|0,0:0|0:0,0:0:0:0:
226,158,10966,2,0,P|244:120|240:74,1,72.5,6|8,0:0|0:0,0:0:0:0:
260,81,11220,1,8,0:0:0:0:
276,74,11305,6,0,P|272:39|253:-3,1,72.5,6|0,0:3|0:0,0:0:0:0:
324,155,11644,2,0,P|352:134|379:96,1,72.5,0|0,0:0|0:0,0:0:0:0:
277,237,11983,2,0,P|309:251|355:255,1,72.5,8|8,0:0|0:0,0:0:0:0:
182,237,12322,2,0,P|185:272|205:314,1,72.5,8|8,0:0|0:0,0:0:0:0:
199,306,13339,5,6,0:3:0:0:
122,342,13508,1,12,0:3:0:0:
106,345,13593,1,12,0:3:0:0:
90,350,13678,2,0,L|100:284,3,36.25,12|12|12|12,0:3|0:3|0:3|0:3,0:0:0:0:
80,295,14017,6,0,P|92:255|22:168,1,145,14|8,0:1|0:0,0:0:0:0:
6,94,14525,1,0,0:0:0:0:
91,103,14695,2,0,P|158:90|221:86,1,108.75,2|4,0:0|0:3,0:0:0:0:
214,80,15034,2,0,P|228:115|216:168,1,72.5,8|4,0:0|0:3,0:0:0:0:
214,163,15288,1,0,0:0:0:0:
199,173,15373,6,0,P|211:244|224:330,1,145,6|12,0:3|0:3,0:0:0:0:
304,324,15881,2,0,P|351:365|454:332,1,145,4|6,0:3|0:3,0:0:0:0:
493,302,16390,2,0,P|504:254|484:206,1,72.5,8|0,0:0|0:0,0:0:0:0:
487,218,16644,1,8,0:0:0:0:
471,211,16729,6,0,P|400:218|306:234,1,145,6|8,0:3|0:0,0:0:0:0:
252,193,17237,1,0,0:0:0:0:
191,254,17407,2,0,P|154:268|81:241,1,108.75,6|4,0:3|0:3,0:0:0:0:
79,237,17746,2,0,P|66:203|70:160,1,72.5,8|4,0:0|0:3,0:0:0:0:
9,107,18085,6,0,P|38:88|145:133,1,145,6|12,0:3|0:3,0:0:0:0:
202,169,18593,2,0,P|267:155|362:137,1,145,4|6,0:3|0:3,0:0:0:0:
419,103,19102,2,0,L|446:57,3,36.25,8|8|12|8,0:0|0:0|0:3|0:0,0:0:0:0:
436,53,19441,6,0,L|345:36,1,72.5,6|2,0:3|0:3,0:0:0:0:
232,87,19780,2,0,L|323:104,1,72.5,6|0,0:0|0:0,0:0:0:0:
434,181,20119,6,0,L|343:164,1,72.5,6|2,0:3|0:3,0:0:0:0:
230,215,20458,2,0,L|321:232,1,72.5,6|0,0:0|0:0,0:0:0:0:
422,260,20797,6,0,P|435:306|379:389,2,145,6|6|6,0:3|0:0|0:3,0:0:0:0:
335,248,21644,1,8,0:0:0:0:
335,248,21729,1,8,0:0:0:0:
335,248,21814,2,0,P|327:289|323:331,1,72.5,14|8,0:3|0:0,0:0:0:0:
240,345,22153,6,0,P|195:334|96:327,1,145,6|8,0:3|0:0,0:0:0:0:
26,275,22661,1,0,0:0:0:0:
26,275,22746,1,0,0:0:0:0:
26,275,22831,2,0,P|13:225|23:188,1,72.5,2|2,0:3|0:3,0:0:0:0:
66,133,23170,1,8,0:0:0:0:
154,166,23339,5,2,0:3:0:0:
154,166,23424,1,0,0:0:0:0:
154,166,23509,2,0,P|167:216|157:253,1,72.5,14|0,0:1|0:0,0:0:0:0:
134,78,23847,2,0,P|131:42|143:8,1,72.5,2|8,0:3|0:0,0:0:0:0:
212,106,24186,2,0,P|267:92|344:155,1,145,2|10,0:3|0:3,0:0:0:0:
396,197,24695,1,8,0:0:0:0:
478,180,24864,6,0,P|468:229|450:345,1,145,6|8,0:0|0:0,0:0:0:0:
378,365,25373,2,0,P|366:293|352:222,1,145,0|2,0:0|0:0,0:0:0:0:
274,182,25881,1,8,0:0:0:0:
233,258,26051,1,0,0:0:0:0:
149,271,26220,6,0,P|78:259|1:250,1,145,2|8,0:0|0:0,0:0:0:0:
43,174,26729,2,0,P|6:133|26:40,1,145,0|2,0:0|0:0,0:0:0:0:
93,12,27237,2,0,P|132:19|189:30,1,72.5,8|0,0:0|0:0,0:0:0:0:
247,14,27576,6,0,L|238:114,1,72.5,2|0,0:0|0:0,0:0:0:0:
193,154,27915,2,0,P|230:125|346:147,1,145,8|2,0:0|0:0,0:0:0:0:
389,186,28424,2,0,P|408:135|399:94,2,72.5,2|8|0,0:0|0:0|0:0,0:0:0:0:
311,213,28932,6,0,P|326:295|336:370,1,145,2|8,0:0|0:0,0:0:0:0:
334,356,29610,2,0,P|374:347|429:338,1,72.5,2|2,0:0|0:0,0:0:0:0:
504,275,29949,2,0,P|468:268|432:260,1,72.5,8|0,0:0|0:0,0:0:0:0:
389,186,30288,6,0,P|423:134|392:45,1,145,2|8,0:0|0:0,0:0:0:0:
332,10,30797,2,0,P|265:31|167:64,1,145,0|2,0:0|0:0,0:0:0:0:
144,126,31305,1,8,0:0:0:0:
107,45,31475,1,0,0:0:0:0:
24,77,31644,6,0,P|-17:116|7:221,2,145,2|8|2,0:0|0:0|0:0,0:0:0:0:
63,155,32492,1,2,0:0:0:0:
63,242,32661,2,0,P|57:298|48:329,1,72.5,8|0,0:0|0:0,0:0:0:0:
111,377,33000,6,0,P|164:351|252:360,1,145,2|8,0:0|0:0,0:0:0:0:
326,331,33508,2,0,P|339:290|333:244,1,72.5,0|2,0:0|0:0,0:0:0:0:
301,184,33847,2,0,P|269:166|246:138,2,72.5,2|8|0,0:0|0:0|0:0,0:0:0:0:
385,191,34356,5,2,0:0:0:0:
462,155,34525,2,0,P|454:212|447:304,1,145,2|0,0:0|0:0,0:0:0:0:
393,365,35034,1,2,0:0:0:0:
316,326,35203,1,8,0:0:0:0:
300,323,35288,1,8,0:0:0:0:
282,322,35373,2,0,L|232:332,3,36.25,10|8|8|8,0:0|0:0|0:0|0:0,0:0:0:0:
223,346,35712,6,0,P|230:288|198:183,1,145,6|8,0:0|0:0,0:0:0:0:
138,164,36220,2,0,L|306:137,1,145,0|2,0:0|0:0,0:0:0:0:
337,78,36729,1,8,0:0:0:0:
411,115,36898,1,0,0:0:0:0:
357,181,37068,6,0,P|345:251|332:347,1,145,6|8,0:3|0:0,0:0:0:0:
264,369,37576,1,0,0:0:0:0:
264,369,37661,1,0,0:0:0:0:
264,369,37746,2,0,L|180:355,1,72.5,6|2,0:3|0:0,0:0:0:0:
155,280,38085,2,0,L|83:291,1,72.5,8|0,0:0|0:0,0:0:0:0:
17,236,38424,6,0,P|-2:182|66:101,1,145,6|8,0:3|0:0,0:0:0:0:
39,25,38932,2,0,P|83:35|203:56,1,145,0|2,0:0|0:0,0:0:0:0:
230,124,39441,1,8,0:0:0:0:
310,95,39610,1,0,0:0:0:0:
355,168,39780,6,0,P|409:181|491:128,2,145,6|8|2,0:3|0:0|0:0,0:0:0:0:
276,201,40627,1,2,0:0:0:0:
343,256,40797,2,0,P|349:291|354:354,1,72.5,8|0,0:0|0:0,0:0:0:0:
369,340,41051,1,8,0:0:0:0:
384,351,41136,6,0,P|419:321|532:338,1,145,6|8,0:3|0:0,0:0:0:0:
497,240,41644,2,0,P|505:193|513:81,1,145,0|2,0:0|0:0,0:0:0:0:
483,16,42153,1,8,0:0:0:0:
408,53,42322,1,0,0:0:0:0:
328,23,42492,6,0,P|269:15|194:80,1,145,6|8,0:3|0:0,0:0:0:0:
137,117,43000,2,0,P|78:125|3:60,1,145,0|2,0:0|0:0,0:0:0:0:
40,156,43508,1,8,0:0:0:0:
22,238,43678,1,0,0:0:0:0:
72,304,43847,6,0,P|148:285|226:272,1,145,6|8,0:3|0:0,0:0:0:0:
301,311,44356,1,0,0:0:0:0:
301,311,44441,1,0,0:0:0:0:
301,311,44525,2,0,P|310:272|299:236,1,72.5,6|2,0:3|0:0,0:0:0:0:
233,188,44864,2,0,L|245:99,1,72.5,12|2,0:3|0:0,0:0:0:0:
298,24,45203,6,0,P|267:10|221:11,1,72.5,6|2,0:0|0:0,0:0:0:0:
332,104,45542,1,2,0:0:0:0:
332,104,45712,2,0,P|368:103|401:89,1,72.5,12|6,0:3|0:3,0:0:0:0:
482,57,46051,2,0,L|488:3,2,36.25,2|2|12,0:0|0:0|0:3,0:0:0:0:
482,215,46559,6,0,P|483:170|470:134,1,72.5,14|2,0:1|0:0,0:0:0:0:
415,254,47237,2,0,P|374:234|336:230,1,72.5,8|2,0:0|0:0,0:0:0:0:
422,331,47915,2,0,P|386:359|367:392,1,72.5,6|2,0:3|0:0,0:0:0:0:
489,365,48424,5,2,0:0:0:0:
471,272,48593,2,0,P|478:213|488:143,2,108.75,12|0|0,0:3|0:0|0:0,0:0:0:0:
386,308,49271,6,0,P|348:311|292:280,1,72.5,6|2,0:3|0:0,0:0:0:0:
192,380,49949,2,0,P|208:345|263:312,1,72.5,12|2,0:3|0:0,0:0:0:0:
226,178,50627,2,0,P|247:209|248:273,1,72.5,6|2,0:0|0:0,0:0:0:0:
233,323,50966,5,8,0:0:0:0:
233,323,51305,2,0,L|141:309,1,72.5,6|0,0:3|0:0,0:0:0:0:
90,263,51644,2,0,L|37:273,3,36.25,10|8|8|8,0:0|0:0|0:0|0:0,0:0:0:0:
32,281,51983,6,0,L|44:175,1,72.5,6|0,0:0|0:0,0:0:0:0:
14,123,52322,2,0,L|120:135,1,72.5,2|0,0:0|0:0,0:0:0:0:
172,101,52661,2,0,L|160:207,1,72.5,6|0,0:3|0:0,0:0:0:0:
190,259,53000,2,0,L|84:247,1,72.5,6|0,0:3|0:0,0:0:0:0:
250,191,53339,6,0,P|305:182|384:243,1,145,6|2,0:3|0:0,0:0:0:0:
448,276,53847,1,0,0:0:0:0:
499,208,54017,2,0,P|523:152|503:84,1,108.75,6|4,0:3|0:3,0:0:0:0:
512,88,54356,2,0,L|406:70,1,72.5,0|4,0:0|0:3,0:0:0:0:
361,113,54695,6,0,P|297:124|226:61,1,145,14|2,0:1|0:0,0:0:0:0:
157,38,55203,1,6,0:3:0:0:
82,92,55373,2,0,L|67:182,1,72.5,6|2,0:3|0:0,0:0:0:0:
166,125,55712,2,0,L|181:215,1,72.5,2|2,0:0|0:0,0:0:0:0:
214,278,56051,6,0,P|209:213|282:153,1,145,6|6,0:3|0:3,0:0:0:0:
345,147,56559,1,2,0:0:0:0:
417,196,56729,2,0,P|428:238|408:306,1,108.75,6|0,0:3|0:0,0:0:0:0:
417,318,57068,2,0,P|384:335|333:337,1,72.5,6|2,0:3|0:0,0:0:0:0:
271,379,57407,6,0,L|124:360,1,145,14|2,0:3|0:0,0:0:0:0:
57,313,57915,1,12,0:3:0:0:
136,276,58085,2,0,P|149:236|143:181,1,72.5,2|2,0:0|0:0,0:0:0:0:
76,149,58424,2,0,P|63:189|69:244,1,72.5,8|2,0:0|0:0,0:0:0:0:
157,119,58763,6,0,L|144:27,1,72.5,6|8,0:0|0:0,0:0:0:0:
233,28,59102,2,0,L|238:-7,2,36.25,14|8|8,0:3|0:0|0:0,0:0:0:0:
248,113,59441,2,0,L|347:125,1,72.5,6|8,0:3|0:0,0:0:0:0:
380,59,59780,1,12,0:3:0:0:
402,44,59864,1,8,0:0:0:0:
429,39,59949,1,8,0:0:0:0:
456,43,60034,1,8,0:0:0:0:
480,56,60119,6,0,P|490:89|493:144,1,72.5,14|0,0:1|0:0,0:0:0:0:
467,210,60458,2,0,P|456:243|454:298,1,72.5,8|0,0:0|0:0,0:0:0:0:
479,364,60797,2,0,P|431:325|341:336,1,145,6|8,0:3|0:0,0:0:0:0:
275,288,61305,1,0,0:0:0:0:
205,342,61475,6,0,L|123:329,1,72.5,6|0,0:3|0:0,0:0:0:0:
123,246,61814,2,0,L|194:257,1,72.5,8|0,0:0|0:0,0:0:0:0:
275,288,62153,2,0,P|302:239|292:160,1,108.75,6|4,0:3|0:3,0:0:0:0:
292,174,62492,2,0,L|281:97,1,72.5,8|4,0:0|0:3,0:0:0:0:
312,23,62831,6,0,B|222:-4|260:62|156:30,1,145,6|8,0:3|0:0,0:0:0:0:
89,11,63339,2,0,P|40:33|30:136,1,145,4|0,0:3|0:0,0:0:0:0:
58,192,63847,2,0,L|153:169,1,72.5,8|0,0:0|0:0,0:0:0:0:
195,229,64186,6,0,L|359:191,1,145,2|8,0:0|0:0,0:0:0:0:
417,229,64695,1,0,0:0:0:0:
402,143,64864,2,0,P|402:106|418:52,1,72.5,2|0,0:0|0:0,0:0:0:0:
493,103,65203,2,0,P|493:140|477:194,1,72.5,12|0,0:3|0:0,0:0:0:0:
417,229,65542,6,0,L|398:317,1,72.5,6|0,0:3|0:0,0:0:0:0:
336,196,65881,2,0,L|279:266,1,72.5,8|0,0:0|0:0,0:0:0:0:
287,125,66220,2,0,L|141:191,1,145,6|8,0:3|0:0,0:0:0:0:
76,153,66729,1,0,0:0:0:0:
143,100,66898,6,0,P|150:57|145:9,1,72.5,6|0,0:3|0:0,0:0:0:0:
220,132,67237,2,0,P|253:103|280:63,1,72.5,8|0,0:0|0:0,0:0:0:0:
258,205,67576,2,0,P|311:198|382:161,1,108.75,6|4,0:3|0:3,0:0:0:0:
376,186,67915,2,0,L|463:206,1,72.5,8|4,0:0|0:3,0:0:0:0:
506,266,68254,6,0,P|517:315|460:388,1,145,6|8,0:3|0:0,0:0:0:0:
382,358,68763,2,0,P|373:316|344:203,1,145,0|0,0:0|0:0,0:0:0:0:
367,134,69271,2,0,L|461:147,1,72.5,8|0,0:0|0:0,0:0:0:0:
284,157,69610,6,0,L|127:142,1,145,6|8,0:3|0:0,0:0:0:0:
139,143,70288,2,0,P|112:175|125:259,1,108.75,6|8,0:3|0:0,0:0:0:0:
113,256,70627,2,0,L|207:248,1,72.5,10|8,0:0|0:0,0:0:0:0:
290,343,70966,6,0,P|308:300|253:218,1,145,14|8,0:1|0:0,0:0:0:0:
226,143,71475,2,0,P|208:100|263:18,1,145,0|0,0:0|0:0,0:0:0:0:
332,55,71983,1,8,0:0:0:0:
398,5,72153,1,0,0:0:0:0:
475,37,72322,6,0,P|466:104|456:205,1,145,6|8,0:3|0:0,0:0:0:0:
406,252,72831,1,0,0:0:0:0:
453,324,73000,2,0,P|399:333|288:359,1,145,6|8,0:3|0:0,0:0:0:0:
225,369,73508,1,0,0:0:0:0:
249,285,73678,6,0,P|174:298|138:367,1,145,6|8,0:3|0:0,0:0:0:0:
55,375,74186,2,0,P|58:314|71:213,1,145
152,205,74695,1,8,0:0:0:0:
96,138,74864,1,0,0:0:0:0:
134,59,75034,6,0,L|235:45,1,72.5,6|0,0:3|0:0,0:0:0:0:
257,119,75373,2,0,L|186:128,1,72.5,8|0,0:0|0:0,0:0:0:0:
234,200,75712,2,0,L|378:179,1,145,6|8,0:3|0:0,0:0:0:0:
451,225,76220,1,8,0:0:0:0:
451,225,76305,1,8,0:0:0:0:
451,225,76390,6,0,P|463:183|403:92,1,145,6|8,0:3|0:0,0:0:0:0:
377,179,76898,2,0,P|365:221|425:312,1,145
328,336,77407,2,0,P|287:328|225:323,1,72.5,12|12,0:3|0:3,0:0:0:0:
196,263,77746,6,0,L|49:298,1,145,6|8,0:3|0:0,0:0:0:0:
13,370,78254,1,0,0:0:0:0:
98,375,78424,2,0,L|225:344,2,108.75,6|4|4,0:3|0:3|0:3,0:0:0:0:
54,296,79102,6,0,P|17:234|53:158,1,145,6|8,0:3|0:0,0:0:0:0:
133,118,79610,1,0,0:0:0:0:
133,118,79695,1,0,0:0:0:0:
133,118,79780,2,0,L|125:215,1,72.5,6|0,0:3|0:0,0:0:0:0:
45,83,80119,2,0,L|39:10,1,72.5,8|0,0:0|0:0,0:0:0:0:
126,29,80458,6,0,L|285:48,1,145,6|8,0:3|0:0,0:0:0:0:
326,110,80966,1,8,0:0:0:0:
405,82,81136,2,0,L|480:57,1,72.5,14|4,0:3|0:3,0:0:0:0:
500,142,81475,1,10,0:0:0:0:
508,167,81559,1,8,0:0:0:0:
505,194,81644,1,8,0:0:0:0:
491,216,81729,1,8,0:0:0:0:
468,231,81814,6,0,P|435:221|380:218,1,72.5,14|0,0:1|0:0,0:0:0:0:
317,252,82153,2,0,P|284:263|229:265,1,72.5,8|0,0:0|0:0,0:0:0:0:
160,255,82492,2,0,P|209:303|187:393,1,145,6|8,0:3|0:0,0:0:0:0:
129,335,83000,1,0,0:0:0:0:
75,265,83170,6,0,L|88:183,1,72.5,6|0,0:3|0:0,0:0:0:0:
171,183,83509,2,0,L|160:254,1,72.5,8|0,0:0|0:0,0:0:0:0:
210,325,83848,2,0,P|281:328|340:347,1,108.75,6|4,0:3|0:3,0:0:0:0:
333,348,84187,2,0,L|343:276,1,72.5,8|4,0:0|0:3,0:0:0:0:
315,199,84526,6,0,B|405:172|367:238|471:206,1,145,6|8,0:3|0:0,0:0:0:0:
505,279,85034,2,0,P|536:235|493:141,1,145,4|4,0:3|0:3,0:0:0:0:
493,67,85542,2,0,L|398:90,1,72.5,8|0,0:0|0:0,0:0:0:0:
337,101,85881,6,0,P|266:83|195:69,1,145,2|8,0:0|0:0,0:0:0:0:
130,14,86390,1,0,0:0:0:0:
112,100,86559,2,0,P|112:137|128:191,1,72.5,6|0,0:3|0:0,0:0:0:0:
203,140,86898,2,0,P|203:103|187:49,1,72.5,8|0,0:0|0:0,0:0:0:0:
181,232,87237,6,0,P|254:220|327:282,1,145,6|8,0:3|0:0,0:0:0:0:
380,305,87746,1,0,0:0:0:0:
459,275,87915,2,0,L|467:154,1,108.75,6|4,0:3|0:3,0:0:0:0:
482,159,88254,2,0,L|471:62,1,72.5,8|4,0:0|0:3,0:0:0:0:
412,29,88593,6,0,P|377:65|260:48,1,145,6|8,0:3|0:0,0:0:0:0:
220,118,89102,2,0,P|144:108|61:100,1,145,0|0,0:0|0:0,0:0:0:0:
7,151,89610,2,0,P|13:188|21:243,1,72.5,8|0,0:0|0:0,0:0:0:0:
0,306,89949,6,0,P|58:299|100:210,1,145,6|8,0:3|0:0,0:0:0:0:
173,284,90458,2,0,P|249:294|334:306,1,145,0|0,0:0|0:0,0:0:0:0:
395,344,90966,1,8,0:0:0:0:
452,278,91136,1,0,0:0:0:0:
373,242,91305,6,0,P|367:193|379:163,1,72.5,14|8,0:1|0:0,0:0:0:0:
384,159,91559,1,8,0:0:0:0:
395,146,91644,2,0,P|441:128|473:132,1,72.5,8|8,0:0|0:0,0:0:0:0:
306,125,91983,2,0,P|254:122|190:72,2,108.75,6|12|4,0:3|0:3|0:3,0:0:0:0:
367,66,92661,6,0,L|376:-6,1,72.5,6|2,0:3|0:0,0:0:0:0:
367,66,93339,1,12,0:3:0:0:
197,165,94017,6,0,L|206:93,1,72.5,6|2,0:3|0:0,0:0:0:0:
197,165,94695,1,8,0:0:0:0:
27,264,95373,6,0,L|36:192,1,72.5,14|8,0:1|0:0,0:0:0:0:
205,93,96051,2,0,L|196:165,1,72.5,12|2,0:3|0:0,0:0:0:0:
367,66,96729,2,0,L|376:-6,1,72.5,6|8,0:0|0:0,0:0:0:0:
447,236,97407,6,0,L|428:370,2,108.75,8|8|8,0:0|0:0|0:0,0:0:0:0:
500,172,98085,5,4,0:3:0:0:
500,172,99441,6,0,P|446:154|376:198,3,130.499996017456,4|4|4|2,0:3|0:3|0:3|0:0,0:0:0:0:
383,186,100797,6,0,P|398:146|385:96,2,72.5,6|0|2,0:0|0:0|0:3,0:0:0:0:
316,243,101305,2,0,P|273:250|237:286,2,72.5,8|0|2,0:0|0:0|0:3,0:0:0:0:
398,272,101814,2,0,P|425:304|474:318,1,72.5,8|2,0:0|0:3,0:0:0:0:
383,186,102153,5,8,0:0:0:0:
316,243,102322,1,8,0:0:0:0:
316,243,103170,6,0,L|266:254,3,36.25,8|8|8|8,0:0|0:0|0:0|0:0,0:0:0:0:
261,267,103508,6,0,P|249:227|319:140,1,145,14|8,0:1|0:0,0:0:0:0:
335,66,104016,1,0,0:0:0:0:
250,75,104186,2,0,P|183:62|120:58,1,108.75,2|4,0:0|0:3,0:0:0:0:
127,52,104525,2,0,P|113:87|125:140,1,72.5,8|4,0:0|0:3,0:0:0:0:
127,135,104779,1,0,0:0:0:0:
142,145,104864,6,0,P|134:218|128:306,1,145,6|12,0:3|0:3,0:0:0:0:
205,328,105373,2,0,P|158:369|55:336,1,145,4|6,0:3|0:3,0:0:0:0:
19,302,105881,2,0,P|8:254|28:206,1,72.5,8|4,0:0|0:3,0:0:0:0:
25,218,106135,1,8,0:0:0:0:
41,211,106220,6,0,P|112:218|206:234,1,145,6|8,0:3|0:0,0:0:0:0:
260,193,106728,1,2,0:0:0:0:
321,254,106898,2,0,P|358:268|431:241,1,108.75,6|0,0:3|0:0,0:0:0:0:
433,237,107237,2,0,P|446:203|442:160,1,72.5,8|6,0:0|0:3,0:0:0:0:
503,107,107576,6,0,P|474:88|367:133,1,145,14|14,0:3|0:3,0:0:0:0:
310,169,108085,2,0,P|245:155|150:137,1,145,8|12,0:0|0:3,0:0:0:0:
93,103,108593,2,0,L|66:57,3,36.25,12|8|8|8,0:3|0:0|0:0|0:0,0:0:0:0:
76,53,108932,6,0,P|115:40|164:44,1,72.5,14|2,0:1|0:0,0:0:0:0:
226,7,109271,2,0,P|261:29|289:68,1,72.5,12|2,0:3|0:0,0:0:0:0:
357,92,109610,2,0,P|362:133|350:180,1,72.5,12|2,0:3|0:0,0:0:0:0:
376,246,109949,2,0,P|348:276|304:297,1,72.5,12|2,0:3|0:0,0:0:0:0:
435,186,110288,6,0,P|475:194|515:222,1,72.5,12|2,0:3|0:0,0:0:0:0:
357,163,110627,2,0,P|344:123|347:74,1,72.5,12|2,0:3|0:0,0:0:0:0:
376,246,110966,2,0,P|348:276|304:297,1,72.5,12|2,0:3|0:0,0:0:0:0:
435,186,111305,2,0,P|475:194|515:222,1,72.5,12|2,0:3|0:0,0:0:0:0:
357,163,111644,6,0,P|344:115|360:19,1,145,14|2,0:1|0:0,0:0:0:0:
436,60,112153,1,4,0:3:0:0:
506,11,112322,2,0,P|520:50|510:104,1,72.5,2|2,0:0|0:0,0:0:0:0:
459,143,112661,1,6,0:3:0:0:
378,165,112830,5,2,0:0:0:0:
378,165,112915,1,0,0:0:0:0:
378,165,113000,2,0,P|365:215|375:252,1,72.5,12|8,0:3|0:0,0:0:0:0:
399,84,113338,2,0,P|402:48|390:14,1,72.5,8|8,0:0|0:0,0:0:0:0:
315,101,113678,2,0,L|256:92,3,36.25,8|8|8|8,0:0|0:0|0:0|0:0,0:0:0:0:
254,106,114017,2,0,L|195:97,3,36.25,8|8|8|8,0:0|0:0|0:0|0:0,0:0:0:0:
192,112,114356,5,14,0:1:0:0:
256,192,114441,12,4,119610,0:3:0:0:
