osu file format v14

[General]
AudioFilename: audio.mp3
AudioLeadIn: 0
PreviewTime: 55332
Countdown: 0
SampleSet: None
StackLeniency: 0.7
Mode: 1
LetterboxInBreaks: 0
WidescreenStoryboard: 0

[Editor]
Bookmarks: 1553,12462,22860,32576,41951,49621,56780,63428,67263,67285,67306,67327,67349,67370,67391,67413,67434,69735,76383,87121
DistanceSpacing: 0.8
BeatDivisor: 4
GridSize: 32
TimelineZoom: 3.999998

[Metadata]
Title:Ama Kakeru Rou no Tsubasa, Kurui Nakite Homura ni Otsu
TitleUnicode:天翔ケル蝋ノ翼、狂イ哭キテ焔ニ堕ツ
Artist:Sasaki Sayaka
ArtistUnicode:佐咲紗花
Creator:toara_fict
Version:Oni
Source:シルヴァリオ トリニティ
Tags:Silverio Trinity
BeatmapID:1411065
BeatmapSetID:666768

[Difficulty]
HPDrainRate:5
CircleSize:4
OverallDifficulty:5
ApproachRate:5
SliderMultiplier:1.4
SliderTickRate:1

[Events]
//Background and Video events
0,0,"Konachan.com - 249712 clouds landscape nobody original scenic sunset tagme_(artist).jpg",0,0
//Break Periods
//Storyboard Layer 0 (Background)
//Storyboard Layer 1 (Fail)
//Storyboard Layer 2 (Pass)
//Storyboard Layer 3 (Foreground)
//Storyboard Sound Samples

[TimingPoints]
190,340.909090909091,4,1,0,70,1,0
11610,-101.010101010101,4,1,0,69,0,0
11780,-102.040816326531,4,1,0,68,0,0
11951,-103.092783505155,4,1,0,67,0,0
12121,-104.166666666667,4,1,0,66,0,0
12462,-105.263157894737,4,1,0,65,0,0
22178,-104.166666666667,4,1,0,66,0,0
22519,-103.092783505155,4,1,0,67,0,0
22860,-102.040816326531,4,1,0,68,0,0
23201,-101.010101010101,4,1,0,69,0,0
23371,-100,4,1,0,70,0,0
33599,-99.009900990099,4,1,0,71,0,0
33940,-98.0392156862745,4,1,0,72,0,0
34110,-97.0873786407767,4,1,0,74,0,0
34280,-96.1538461538461,4,1,0,76,0,0
53371,-95.2380952380952,4,1,0,80,0,0
53542,-94.3396226415094,4,1,0,71,0,0
53712,-93.4579439252336,4,1,0,72,0,0
53883,-91.743119266055,4,1,0,84,0,0
54053,-90.9090909090909,4,1,0,75,0,0
54224,-90.0900900900901,4,1,0,76,0,0
54394,-88.4955752212389,4,1,0,88,0,0
54735,-87.719298245614,4,1,0,82,0,0
55417,-87.719298245614,4,1,0,84,0,0
55502,-86.9565217391304,4,1,0,85,0,0
55587,-86.2068965517241,4,1,0,86,0,0
55672,-85.4700854700855,4,1,0,87,0,0
55758,-84.7457627118644,4,1,0,88,0,0
55843,-84.0336134453781,4,1,0,89,0,0
55928,-83.3333333333333,4,1,0,90,0,0
56099,-80,4,1,0,95,0,1
64280,-80,4,1,0,100,0,1
69735,-80,4,1,0,95,0,1
77065,-80,4,1,0,70,0,0
79280,-100,4,1,0,70,0,0
80772,340.909090909091,4,1,0,100,1,0
80942,-100,4,1,0,80,0,0

[HitObjects]
64,64,1553,5,0,0:0:0:0:
64,80,1724,1,0,0:0:0:0:
64,96,2065,1,8,0:0:0:0:
64,112,2235,1,0,0:0:0:0:
64,128,2576,1,8,0:0:0:0:
64,144,2746,1,0,0:0:0:0:
64,160,3087,1,8,0:0:0:0:
64,176,3258,1,8,0:0:0:0:
64,192,3599,1,0,0:0:0:0:
64,208,3769,1,8,0:0:0:0:
64,224,3854,1,8,0:0:0:0:
64,224,3940,1,8,0:0:0:0:
64,240,4025,1,8,0:0:0:0:
64,256,4110,1,0,0:0:0:0:
64,272,4280,1,4,0:0:0:0:
64,288,4621,1,0,0:0:0:0:
64,304,4962,1,0,0:0:0:0:
64,320,5133,1,8,0:0:0:0:
80,320,5303,1,8,0:0:0:0:
96,320,5474,1,0,0:0:0:0:
112,320,5815,1,0,0:0:0:0:
128,320,5985,1,0,0:0:0:0:
144,320,6155,1,8,0:0:0:0:
176,320,6496,1,8,0:0:0:0:
160,320,6667,1,8,0:0:0:0:
192,320,6837,1,8,0:0:0:0:
208,320,7008,1,0,0:0:0:0:
224,320,7349,1,8,0:0:0:0:
240,320,7690,1,8,0:0:0:0:
256,320,7860,1,0,0:0:0:0:
272,320,8030,1,0,0:0:0:0:
304,320,8201,1,8,0:0:0:0:
288,320,8542,1,0,0:0:0:0:
320,320,8883,1,0,0:0:0:0:
336,320,9053,1,8,0:0:0:0:
352,320,9394,1,8,0:0:0:0:
368,320,9735,1,0,0:0:0:0:
384,320,9905,1,8,0:0:0:0:
400,320,10076,1,0,0:0:0:0:
400,304,10417,1,8,0:0:0:0:
400,288,10758,1,0,0:0:0:0:
400,272,10928,1,0,0:0:0:0:
400,256,11269,1,0,0:0:0:0:
400,240,11440,1,8,0:0:0:0:
400,224,11610,1,8,0:0:0:0:
400,208,11780,1,0,0:0:0:0:
400,192,11951,1,0,0:0:0:0:
400,176,12121,1,0,0:0:0:0:
400,160,12207,1,0,0:0:0:0:
400,144,12292,1,8,0:0:0:0:
400,128,12462,1,4,0:0:0:0:
400,112,12803,1,0,0:0:0:0:
400,96,13144,1,0,0:0:0:0:
384,96,13485,1,0,0:0:0:0:
368,96,13655,1,8,0:0:0:0:
352,96,13826,1,0,0:0:0:0:
336,96,14167,1,0,0:0:0:0:
320,96,14508,1,0,0:0:0:0:
304,96,14678,1,8,0:0:0:0:
288,96,14849,1,0,0:0:0:0:
272,96,15019,1,0,0:0:0:0:
256,96,15190,1,8,0:0:0:0:
240,96,15530,1,0,0:0:0:0:
224,96,15871,1,0,0:0:0:0:
208,96,16042,1,8,0:0:0:0:
192,96,16212,1,0,0:0:0:0:
192,112,16383,1,8,0:0:0:0:
192,128,16553,1,0,0:0:0:0:
192,144,16724,1,0,0:0:0:0:
192,160,16809,1,0,0:0:0:0:
192,176,16894,1,8,0:0:0:0:
192,192,17065,1,8,0:0:0:0:
192,192,17235,1,0,0:0:0:0:
192,192,17576,1,0,0:0:0:0:
192,192,17746,1,0,0:0:0:0:
192,192,17917,1,8,0:0:0:0:
192,192,18258,1,0,0:0:0:0:
192,192,18428,1,0,0:0:0:0:
192,192,18599,1,8,0:0:0:0:
192,192,18769,1,0,0:0:0:0:
192,192,18940,1,8,0:0:0:0:
208,192,19280,1,0,0:0:0:0:
224,192,19451,1,8,0:0:0:0:
240,192,19621,1,0,0:0:0:0:
256,192,19792,1,8,0:0:0:0:
272,192,19877,1,8,0:0:0:0:
288,192,19962,1,0,0:0:0:0:
304,192,20133,1,0,0:0:0:0:
320,192,20303,1,8,0:0:0:0:
336,192,20644,1,8,0:0:0:0:
352,192,20815,1,0,0:0:0:0:
368,192,20985,1,0,0:0:0:0:
384,192,21155,1,8,0:0:0:0:
400,192,21241,1,8,0:0:0:0:
416,192,21326,1,0,0:0:0:0:
432,192,21496,1,0,0:0:0:0:
448,192,21667,1,8,0:0:0:0:
464,192,22008,1,0,0:0:0:0:
480,192,22178,1,8,0:0:0:0:
32,192,22519,1,8,0:0:0:0:
256,32,22860,1,8,0:0:0:0:
256,368,23201,1,8,0:0:0:0:
256,192,23371,1,4,0:0:0:0:
240,192,23712,1,0,0:0:0:0:
224,192,24053,1,0,0:0:0:0:
208,192,24394,1,0,0:0:0:0:
192,192,24565,1,8,0:0:0:0:
176,192,24735,1,0,0:0:0:0:
160,192,25076,1,8,0:0:0:0:
144,192,25246,1,8,0:0:0:0:
128,192,25417,1,0,0:0:0:0:
112,192,25587,1,8,0:0:0:0:
96,192,25758,1,0,0:0:0:0:
96,208,25928,1,0,0:0:0:0:
96,224,26099,1,8,0:0:0:0:
96,240,26440,1,0,0:0:0:0:
96,256,26610,1,8,0:0:0:0:
96,272,26951,1,8,0:0:0:0:
96,288,27122,1,0,0:0:0:0:
96,304,27292,1,0,0:0:0:0:
96,320,27462,1,8,0:0:0:0:
96,336,27633,1,0,0:0:0:0:
96,352,27718,1,0,0:0:0:0:
112,352,27803,1,8,0:0:0:0:
128,352,27974,1,8,0:0:0:0:
144,352,28144,1,0,0:0:0:0:
160,352,28485,1,0,0:0:0:0:
176,352,28655,1,0,0:0:0:0:
192,352,28826,1,8,0:0:0:0:
208,352,29167,1,0,0:0:0:0:
224,352,29337,1,0,0:0:0:0:
240,352,29508,1,8,0:0:0:0:
256,352,29678,1,0,0:0:0:0:
272,352,29849,1,8,0:0:0:0:
288,352,30189,1,0,0:0:0:0:
304,352,30360,1,0,0:0:0:0:
320,352,30530,1,8,0:0:0:0:
336,352,30701,1,0,0:0:0:0:
352,352,30786,1,0,0:0:0:0:
368,352,30871,1,8,0:0:0:0:
384,352,31042,1,0,0:0:0:0:
400,352,31212,1,8,0:0:0:0:
416,352,31553,1,8,0:0:0:0:
432,352,31724,1,0,0:0:0:0:
448,352,31894,1,0,0:0:0:0:
464,352,32064,1,8,0:0:0:0:
480,352,32235,1,0,0:0:0:0:
496,352,32320,1,0,0:0:0:0:
512,352,32405,1,0,0:0:0:0:
512,336,32576,1,8,0:0:0:0:
512,320,32746,1,8,0:0:0:0:
512,304,32917,1,0,0:0:0:0:
512,288,33258,1,0,0:0:0:0:
512,272,33428,1,8,0:0:0:0:
512,256,33599,1,0,0:0:0:0:
512,240,33684,1,0,0:0:0:0:
512,224,33769,1,8,0:0:0:0:
512,208,33940,1,8,0:0:0:0:
512,192,34110,1,8,0:0:0:0:
512,176,34280,1,4,0:0:0:0:
512,160,34621,1,0,0:0:0:0:
512,128,34962,1,0,0:0:0:0:
512,96,35133,1,8,0:0:0:0:
512,64,35303,1,0,0:0:0:0:
512,32,35474,1,8,0:0:0:0:
512,0,35815,1,8,0:0:0:0:
480,0,35985,1,0,0:0:0:0:
448,0,36155,1,8,0:0:0:0:
416,0,36326,1,0,0:0:0:0:
384,0,36496,1,8,0:0:0:0:
352,0,36582,1,8,0:0:0:0:
320,0,36667,1,0,0:0:0:0:
288,0,36837,1,8,0:0:0:0:
256,0,37008,1,0,0:0:0:0:
224,0,37349,1,0,0:0:0:0:
192,0,37690,1,0,0:0:0:0:
160,0,37861,1,8,0:0:0:0:
128,0,38031,1,0,0:0:0:0:
96,0,38202,1,8,0:0:0:0:
64,0,38543,1,8,0:0:0:0:
32,0,38713,1,0,0:0:0:0:
0,0,38883,1,8,0:0:0:0:
0,32,39054,1,0,0:0:0:0:
0,64,39224,1,8,0:0:0:0:
0,96,39310,1,8,0:0:0:0:
0,128,39395,1,0,0:0:0:0:
0,160,39479,1,0,0:0:0:0:
32,160,39565,1,8,0:0:0:0:
64,160,39736,1,0,0:0:0:0:
96,160,40076,1,0,0:0:0:0:
128,160,40417,1,0,0:0:0:0:
160,160,40587,1,8,0:0:0:0:
192,160,40672,1,8,0:0:0:0:
224,160,40758,1,0,0:0:0:0:
256,160,40928,1,8,0:0:0:0:
288,160,41099,1,0,0:0:0:0:
320,160,41440,1,0,0:0:0:0:
352,160,41610,1,8,0:0:0:0:
384,160,41780,1,0,0:0:0:0:
384,192,41951,1,0,0:0:0:0:
384,224,42036,1,0,0:0:0:0:
384,256,42121,1,8,0:0:0:0:
320,256,42207,1,8,0:0:0:0:
352,256,42292,1,0,0:0:0:0:
288,256,42462,1,12,0:0:0:0:
288,288,42803,1,0,0:0:0:0:
288,320,42974,1,8,0:0:0:0:
288,352,43059,1,8,0:0:0:0:
256,352,43144,1,0,0:0:0:0:
224,352,43315,1,8,0:0:0:0:
192,352,43485,1,0,0:0:0:0:
160,352,43570,1,0,0:0:0:0:
128,352,43655,1,8,0:0:0:0:
96,352,43826,1,0,0:0:0:0:
96,320,44167,1,0,0:0:0:0:
96,288,44337,1,8,0:0:0:0:
96,256,44508,1,8,0:0:0:0:
96,224,44678,1,0,0:0:0:0:
96,192,44849,1,8,0:0:0:0:
128,192,44934,1,8,0:0:0:0:
160,192,45019,1,0,0:0:0:0:
192,192,45104,1,8,0:0:0:0:
192,192,45190,1,0,0:0:0:0:
192,192,45360,1,0,0:0:0:0:
192,192,45530,1,8,0:0:0:0:
192,192,45786,1,8,0:0:0:0:
192,192,45871,1,0,0:0:0:0:
192,192,46042,1,0,0:0:0:0:
192,192,46212,1,8,0:0:0:0:
192,192,46383,1,0,0:0:0:0:
192,192,46724,1,0,0:0:0:0:
192,192,46894,1,8,0:0:0:0:
192,192,47065,1,8,0:0:0:0:
192,192,47150,1,8,0:0:0:0:
192,192,47235,1,0,0:0:0:0:
192,192,47405,1,0,0:0:0:0:
192,192,47576,1,8,0:0:0:0:
192,192,47917,1,0,0:0:0:0:
192,192,48087,1,0,0:0:0:0:
192,192,48172,1,0,0:0:0:0:
192,192,48258,1,8,0:0:0:0:
192,192,48428,1,0,0:0:0:0:
192,192,48599,1,8,0:0:0:0:
192,192,48769,1,8,0:0:0:0:
192,192,48940,1,0,0:0:0:0:
192,192,49025,1,0,0:0:0:0:
192,192,49110,1,8,0:0:0:0:
192,192,49195,1,0,0:0:0:0:
192,192,49280,1,8,0:0:0:0:
192,192,49451,1,0,0:0:0:0:
192,192,49621,1,8,0:0:0:0:
192,192,49962,1,0,0:0:0:0:
192,192,50133,1,0,0:0:0:0:
192,192,50303,1,8,0:0:0:0:
192,192,50474,1,0,0:0:0:0:
192,192,50644,1,8,0:0:0:0:
192,192,50729,1,0,0:0:0:0:
192,192,50815,1,8,0:0:0:0:
192,192,50900,1,8,0:0:0:0:
192,192,50985,1,0,0:0:0:0:
192,192,51155,1,0,0:0:0:0:
192,192,51326,1,8,0:0:0:0:
192,192,51496,1,0,0:0:0:0:
192,192,51582,1,0,0:0:0:0:
192,192,51667,1,8,0:0:0:0:
192,192,51837,1,8,0:0:0:0:
192,192,52008,1,0,0:0:0:0:
192,192,52349,1,0,0:0:0:0:
192,192,52519,1,8,0:0:0:0:
192,192,52690,1,0,0:0:0:0:
192,192,52775,1,0,0:0:0:0:
192,192,52860,1,8,0:0:0:0:
192,192,53030,1,0,0:0:0:0:
192,192,53201,1,8,0:0:0:0:
208,192,53371,1,12,0:0:0:0:
208,192,53542,1,0,0:0:0:0:
224,192,53712,1,0,0:0:0:0:
224,208,53883,1,12,0:0:0:0:
224,224,54053,1,0,0:0:0:0:
224,240,54224,1,0,0:0:0:0:
240,240,54394,1,12,0:0:0:0:
256,240,54735,1,0,0:0:0:0:
272,240,54820,1,0,0:0:0:0:
288,240,54905,1,0,0:0:0:0:
304,240,54991,1,0,0:0:0:0:
320,240,55076,1,8,0:0:0:0:
336,240,55161,1,8,0:0:0:0:
352,240,55246,1,8,0:0:0:0:
368,240,55332,1,8,0:0:0:0:
368,224,55417,1,0,0:0:0:0:
368,208,55502,1,0,0:0:0:0:
368,192,55587,1,8,0:0:0:0:
368,176,55672,1,0,0:0:0:0:
368,160,55758,1,8,0:0:0:0:
368,144,55843,1,8,0:0:0:0:
368,128,55928,1,0,0:0:0:0:
368,112,56099,1,12,0:0:0:0:
352,112,56440,1,0,0:0:0:0:
336,112,56610,1,8,0:0:0:0:
320,112,56780,1,0,0:0:0:0:
304,112,56951,1,0,0:0:0:0:
288,112,57036,1,0,0:0:0:0:
272,112,57121,1,8,0:0:0:0:
272,128,57292,1,0,0:0:0:0:
272,144,57462,1,8,0:0:0:0:
272,160,57547,1,0,0:0:0:0:
272,176,57633,1,8,0:0:0:0:
272,192,57718,1,8,0:0:0:0:
272,192,57803,1,0,0:0:0:0:
272,192,57974,1,8,0:0:0:0:
272,192,58144,1,0,0:0:0:0:
272,192,58315,1,8,0:0:0:0:
272,192,58400,1,8,0:0:0:0:
272,192,58485,1,0,0:0:0:0:
272,192,58655,1,0,0:0:0:0:
272,192,58826,1,8,0:0:0:0:
272,192,58996,1,8,0:0:0:0:
272,192,59082,1,8,0:0:0:0:
272,192,59167,1,0,0:0:0:0:
272,192,59337,1,0,0:0:0:0:
272,192,59508,1,8,0:0:0:0:
272,192,59678,1,0,0:0:0:0:
272,192,59763,1,0,0:0:0:0:
272,192,59849,1,8,0:0:0:0:
272,192,59934,1,0,0:0:0:0:
272,192,60019,1,8,0:0:0:0:
272,192,60104,1,8,0:0:0:0:
272,192,60190,1,0,0:0:0:0:
272,192,60360,1,0,0:0:0:0:
272,192,60530,1,8,0:0:0:0:
272,192,60786,1,8,0:0:0:0:
272,192,60871,1,0,0:0:0:0:
272,192,61042,1,8,0:0:0:0:
272,192,61212,1,0,0:0:0:0:
272,192,61297,1,0,0:0:0:0:
272,192,61383,1,8,0:0:0:0:
272,192,61553,1,4,0:0:0:0:
272,192,61894,1,8,0:0:0:0:
272,192,62065,1,8,0:0:0:0:
272,192,62235,1,0,0:0:0:0:
272,192,62405,1,0,0:0:0:0:
272,192,62491,1,0,0:0:0:0:
272,192,62576,1,8,0:0:0:0:
272,192,62746,1,0,0:0:0:0:
272,192,62917,1,8,0:0:0:0:
272,192,63002,1,8,0:0:0:0:
272,192,63087,1,0,0:0:0:0:
272,192,63172,1,0,0:0:0:0:
272,192,63258,1,8,0:0:0:0:
272,192,63428,1,8,0:0:0:0:
272,192,63769,1,0,0:0:0:0:
272,192,63940,1,8,0:0:0:0:
272,192,64110,1,8,0:0:0:0:
288,224,64280,1,4,0:0:0:0:
288,256,64451,1,0,0:0:0:0:
288,288,64536,1,0,0:0:0:0:
288,320,64621,1,0,0:0:0:0:
256,320,64792,1,8,0:0:0:0:
224,320,64962,1,0,0:0:0:0:
192,320,65047,1,0,0:0:0:0:
160,320,65133,1,0,0:0:0:0:
128,320,65218,1,0,0:0:0:0:
96,320,65303,1,8,0:0:0:0:
64,320,65474,1,0,0:0:0:0:
64,288,65644,1,8,0:0:0:0:
64,256,65729,1,8,0:0:0:0:
64,224,65815,1,8,0:0:0:0:
64,192,65900,1,8,0:0:0:0:
80,192,65985,1,0,0:0:0:0:
96,192,66070,1,0,0:0:0:0:
112,192,66155,1,0,0:0:0:0:
128,192,66241,1,0,0:0:0:0:
144,192,66326,1,8,0:0:0:0:
160,192,66411,1,8,0:0:0:0:
176,192,66496,1,0,0:0:0:0:
176,176,66582,1,0,0:0:0:0:
176,160,66667,1,8,0:0:0:0:
176,144,66837,1,8,0:0:0:0:
176,128,67008,1,4,0:0:0:0:
176,112,67349,1,12,0:0:0:0:
192,112,67519,1,0,0:0:0:0:
208,112,67689,1,8,0:0:0:0:
224,112,67775,1,8,0:0:0:0:
240,112,67860,1,0,0:0:0:0:
256,112,67945,1,0,0:0:0:0:
272,112,68030,1,8,0:0:0:0:
272,128,68201,1,0,0:0:0:0:
272,144,68371,1,8,0:0:0:0:
272,160,68456,1,8,0:0:0:0:
272,176,68542,1,8,0:0:0:0:
272,192,68627,1,8,0:0:0:0:
272,192,68712,1,0,0:0:0:0:
272,192,68883,1,8,0:0:0:0:
272,192,69053,1,0,0:0:0:0:
272,192,69224,1,8,0:0:0:0:
272,192,69309,1,8,0:0:0:0:
272,192,69394,1,0,0:0:0:0:
272,192,69564,1,0,0:0:0:0:
272,192,69735,1,8,0:0:0:0:
272,192,69905,1,8,0:0:0:0:
272,192,69991,1,8,0:0:0:0:
272,192,70076,1,0,0:0:0:0:
272,192,70246,1,0,0:0:0:0:
272,192,70417,1,8,0:0:0:0:
272,192,70587,1,0,0:0:0:0:
272,192,70672,1,0,0:0:0:0:
272,192,70758,1,8,0:0:0:0:
272,208,70928,1,8,0:0:0:0:
272,224,71013,1,8,0:0:0:0:
272,240,71099,1,8,0:0:0:0:
272,256,71184,1,8,0:0:0:0:
272,272,71269,1,0,0:0:0:0:
272,288,71354,1,0,0:0:0:0:
272,304,71440,1,8,0:0:0:0:
288,304,71610,1,8,0:0:0:0:
304,304,71695,1,8,0:0:0:0:
320,304,71780,1,0,0:0:0:0:
336,304,71951,1,8,0:0:0:0:
352,304,72121,1,8,0:0:0:0:
368,304,72292,1,4,0:0:0:0:
384,304,72633,1,0,0:0:0:0:
400,304,72803,1,8,0:0:0:0:
416,304,72974,1,8,0:0:0:0:
432,304,73059,1,8,0:0:0:0:
448,304,73144,1,0,0:0:0:0:
464,304,73229,1,8,0:0:0:0:
464,288,73315,1,0,0:0:0:0:
464,272,73485,1,8,0:0:0:0:
464,256,73655,1,4,0:0:0:0:
464,240,73996,1,0,0:0:0:0:
464,224,74167,1,8,0:0:0:0:
464,208,74337,1,0,0:0:0:0:
464,192,74422,1,0,0:0:0:0:
448,192,74508,1,8,0:0:0:0:
432,192,74593,1,0,0:0:0:0:
416,192,74678,1,8,0:0:0:0:
400,192,74763,1,8,0:0:0:0:
384,192,74849,1,0,0:0:0:0:
368,192,75019,1,8,0:0:0:0:
352,192,75190,1,0,0:0:0:0:
336,192,75360,1,0,0:0:0:0:
320,192,75445,1,0,0:0:0:0:
304,192,75530,1,8,0:0:0:0:
288,192,75700,1,0,0:0:0:0:
272,192,75871,1,0,0:0:0:0:
272,192,75957,1,0,0:0:0:0:
272,192,76042,1,8,0:0:0:0:
272,192,76127,1,0,0:0:0:0:
272,192,76212,1,8,0:0:0:0:
272,192,76383,1,0,0:0:0:0:
272,192,76553,1,8,0:0:0:0:
272,192,76638,1,8,0:0:0:0:
272,192,76724,1,8,0:0:0:0:
272,192,76809,1,8,0:0:0:0:
272,192,76894,1,0,0:0:0:0:
272,192,77064,1,8,0:0:0:0:
272,192,77405,1,8,0:0:0:0:
272,192,77576,1,8,0:0:0:0:
272,192,77746,1,0,0:0:0:0:
272,192,78087,1,0,0:0:0:0:
272,192,78258,1,12,0:0:0:0:
288,144,80942,1,8,0:0:0:0:
304,144,81112,1,0,0:0:0:0:
304,160,81283,1,8,0:0:0:0:
320,160,81453,1,8,0:0:0:0:
320,176,81624,1,0,0:0:0:0:
336,176,81794,1,8,0:0:0:0:
336,192,81965,1,8,0:0:0:0:
352,192,82135,1,8,0:0:0:0:
352,208,82306,1,0,0:0:0:0:
368,208,82476,1,0,0:0:0:0:
368,224,82647,1,8,0:0:0:0:
384,224,82817,1,0,0:0:0:0:
384,240,82987,1,8,0:0:0:0:
400,240,83158,1,8,0:0:0:0:
400,256,83328,1,4,0:0:0:0:
