osu file format v14

[General]
AudioFilename: audio.mp3
AudioLeadIn: 0
PreviewTime: 55332
Countdown: 1
SampleSet: Soft
StackLeniency: 0.2
Mode: 0
LetterboxInBreaks: 0
WidescreenStoryboard: 0

[Editor]
Bookmarks: 190,87121,87803
DistanceSpacing: 0.8
BeatDivisor: 4
GridSize: 4
TimelineZoom: 1

[Metadata]
Title:Ama Kakeru Rou no Tsubasa, Kurui Nakite Homura ni Otsu
TitleUnicode:天翔ケル蝋ノ翼、狂イ哭キテ焔ニ堕ツ
Artist:Sasaki Sayaka
ArtistUnicode:佐咲紗花
Creator:rrtyui
Version:Inferno
Source:シルヴァリオ トリニティ
Tags:Silverio Trinity OJBC2 課題曲 3rd Place
BeatmapID:1453490
BeatmapSetID:686797

[Difficulty]
HPDrainRate:6
CircleSize:4
OverallDifficulty:8
ApproachRate:9
SliderMultiplier:1.7
SliderTickRate:1

[Events]
//Background and Video events
0,0,"maxresdefault.jpg",0,0
//Break Periods
//Storyboard Layer 0 (Background)
//Storyboard Layer 1 (Fail)
//Storyboard Layer 2 (Pass)
//Storyboard Layer 3 (Foreground)
//Storyboard Sound Samples

[TimingPoints]
190,340.909090909091,4,2,0,60,1,0
190,-80.9523809523809,4,2,0,60,0,0
275,-80.9523809523809,4,2,0,50,0,0
1212,-40.4761904761905,4,2,0,70,0,0
1553,-40.4761904761905,4,2,0,60,0,0
1724,-40.4761904761905,4,2,0,50,0,0
1894,-80.9523809523809,4,2,0,60,0,0
2150,-80.9523809523809,4,2,0,50,0,0
2576,-40.4761904761905,4,2,0,60,0,0
2661,-40.4761904761905,4,2,0,50,0,0
2746,-53.968253968254,4,2,0,50,0,0
3087,-323.809523809524,4,2,0,50,0,0
3258,-323.809523809524,4,2,0,40,0,0
3599,-40.4761904761905,4,2,0,40,0,0
3769,-40.4761904761905,4,2,0,45,0,0
3940,-40.4761904761905,4,2,0,50,0,0
4110,-40.4761904761905,4,2,0,55,0,0
4280,-80.9523809523809,4,2,0,60,0,0
5644,-53.968253968254,4,2,0,60,0,0
6326,-40.4761904761905,4,2,0,60,0,0
7008,-107.936507936508,4,2,0,60,0,0
7860,-80.9523809523809,4,2,0,60,0,0
8201,-107.936507936508,4,2,0,60,0,0
8712,-80.9523809523809,4,2,0,60,0,0
9053,-80.9523809523809,4,2,0,60,0,0
9224,-80.9523809523809,4,2,0,70,0,0
9394,-80.9523809523809,4,2,0,60,0,0
9735,-80.9523809523809,4,2,0,50,0,0
9905,-80.9523809523809,4,2,0,80,0,0
10076,-80.9523809523809,4,2,0,60,0,0
11099,-161.904761904762,4,2,0,45,0,0
11440,-161.904761904762,4,2,0,40,0,0
11610,-161.904761904762,4,2,0,40,0,0
11780,-161.904761904762,4,2,0,60,0,0
11951,-172.413793103448,4,2,0,60,0,0
12121,-185.185185185185,4,2,0,52,0,0
12292,-200,4,2,0,52,0,0
12462,-107.936507936508,4,2,0,70,0,0
12803,-107.936507936508,4,2,0,60,0,0
13144,-107.936507936508,4,2,0,60,0,0
13315,-107.936507936508,4,2,0,40,0,0
13485,-107.936507936508,4,2,0,70,0,0
13570,-107.936507936508,4,2,0,40,0,0
13826,-107.936507936508,4,2,0,70,0,0
14422,-107.936507936508,4,2,0,50,0,0
14593,-107.936507936508,4,2,0,30,0,0
14849,-107.936507936508,4,2,0,50,0,0
15190,-107.936507936508,4,2,0,70,0,0
15871,-107.936507936508,4,2,0,70,0,0
16042,-107.936507936508,4,2,0,40,0,0
16212,-80.9523809523809,4,2,0,60,0,0
16383,-80.9523809523809,4,2,0,70,0,0
16724,-80.9523809523809,4,2,0,60,0,0
16809,-80.9523809523809,4,2,0,70,0,0
17235,-107.936507936508,4,2,0,70,0,0
17576,-80.9523809523809,4,2,0,60,0,0
17746,-80.9523809523809,4,2,0,70,0,0
17917,-107.936507936508,4,2,0,70,0,0
18599,-107.936507936508,4,2,0,50,0,0
18769,-107.936507936508,4,2,0,40,0,0
18940,-107.936507936508,4,2,0,60,0,0
19025,-107.936507936508,4,2,0,40,0,0
19280,-107.936507936508,4,2,0,60,0,0
19366,-107.936507936508,4,2,0,30,0,0
19621,-107.936507936508,4,2,0,60,0,0
19792,-107.936507936508,4,2,0,50,0,0
19962,-107.936507936508,4,2,0,40,0,0
20303,-107.936507936508,4,2,0,50,0,0
20644,-107.936507936508,4,2,0,60,0,0
20815,-107.936507936508,4,2,0,70,0,0
21155,-107.936507936508,4,2,0,40,0,0
21326,-107.936507936508,4,2,0,70,0,0
21496,-107.936507936508,4,2,0,40,0,0
21667,-107.936507936508,4,2,0,60,0,0
21752,-107.936507936508,4,2,0,40,0,0
22008,-80.9523809523809,4,2,0,70,0,0
22178,-80.9523809523809,4,2,0,70,0,1
22199,-80.9523809523809,4,2,0,70,0,0
22519,-64.7619047619048,4,2,0,70,0,1
22540,-64.7619047619048,4,2,0,70,0,0
22860,-53.968253968254,4,2,0,70,0,1
22881,-53.968253968254,4,2,0,70,0,0
23201,-53.968253968254,4,2,0,70,0,1
23222,-53.968253968254,4,2,0,70,0,0
23371,-107.936507936508,4,2,0,70,0,0
23712,-107.936507936508,4,2,0,60,0,0
24224,-107.936507936508,4,2,0,40,0,0
24394,-107.936507936508,4,2,0,60,0,0
24479,-107.936507936508,4,2,0,40,0,0
24735,-107.936507936508,4,2,0,70,0,0
25417,-107.936507936508,4,2,0,60,0,0
25502,-107.936507936508,4,2,0,40,0,0
25758,-107.936507936508,4,2,0,60,0,0
26099,-107.936507936508,4,2,0,70,0,0
26440,-107.936507936508,4,2,0,40,0,0
26610,-107.936507936508,4,2,0,60,0,0
26780,-107.936507936508,4,2,0,70,0,0
26951,-107.936507936508,4,2,0,40,0,0
27121,-107.936507936508,4,2,0,60,0,0
27207,-107.936507936508,4,2,0,40,0,0
27462,-107.936507936508,4,2,0,70,0,0
27633,-107.936507936508,4,2,0,50,0,0
27803,-107.936507936508,4,2,0,70,0,0
27974,-91.9913419913423,4,2,0,60,0,0
28144,-91.9913419913423,4,2,0,75,0,0
28315,-80.9523809523809,4,2,0,70,0,0
28485,-80.9523809523809,4,2,0,80,0,0
28826,-107.936507936508,4,2,0,70,0,0
29167,-107.936507936508,4,2,0,60,0,0
29508,-107.936507936508,4,2,0,70,0,0
29678,-107.936507936508,4,2,0,40,0,0
29849,-107.936507936508,4,2,0,60,0,0
29934,-107.936507936508,4,2,0,40,0,0
30190,-107.936507936508,4,2,0,70,0,0
30530,-107.936507936508,4,2,0,60,0,0
30871,-107.936507936508,4,2,0,70,0,0
31042,-107.936507936508,4,2,0,40,0,0
31212,-107.936507936508,4,2,0,60,0,0
31297,-107.936507936508,4,2,0,40,0,0
31553,-80.9523809523809,4,2,0,70,0,0
31894,-80.9523809523809,4,2,0,60,0,0
32235,-80.9523809523809,4,2,0,70,0,0
32405,-80.9523809523809,4,2,0,40,0,0
32576,-80.9523809523809,4,2,0,60,0,0
32661,-80.9523809523809,4,2,0,40,0,0
32917,-107.936507936508,4,2,0,70,0,0
33940,-107.936507936508,4,2,0,60,0,0
34280,-80.9523809523809,4,2,0,70,0,0
34621,-80.9523809523809,4,2,0,60,0,0
34962,-80.9523809523809,4,2,0,40,0,0
35303,-64.7619047619048,4,2,0,50,0,0
35474,-64.7619047619048,4,2,0,60,0,0
35644,-64.7619047619048,4,2,0,50,0,0
35815,-64.7619047619048,4,2,0,70,0,0
35985,-64.7619047619048,4,2,0,50,0,0
36155,-64.7619047619048,4,2,0,70,0,0
36326,-64.7619047619048,4,2,0,50,0,0
36411,-64.7619047619048,4,2,0,60,0,0
36496,-64.7619047619048,4,2,0,70,0,0
36582,-64.7619047619048,4,2,0,80,0,0
36667,-64.7619047619048,4,2,0,50,0,0
37008,-80.9523809523809,4,2,0,50,0,0
38030,-64.7619047619048,4,2,0,50,0,0
38201,-64.7619047619048,4,2,0,65,0,0
38371,-64.7619047619048,4,2,0,50,0,0
38542,-64.7619047619048,4,2,0,65,0,0
38712,-64.7619047619048,4,2,0,50,0,0
38883,-64.7619047619048,4,2,0,60,0,0
39053,-64.7619047619048,4,2,0,50,0,0
39138,-64.7619047619048,4,2,0,60,0,0
39224,-64.7619047619048,4,2,0,70,0,0
39309,-64.7619047619048,4,2,0,80,0,0
39394,-64.7619047619048,4,2,0,50,0,0
39565,-64.7619047619048,4,2,0,70,0,0
39735,-80.9523809523809,4,2,0,70,0,0
40076,-80.9523809523809,4,2,0,50,0,0
40758,-64.7619047619048,4,2,0,50,0,0
40928,-64.7619047619048,4,2,0,60,0,0
41099,-64.7619047619048,4,2,0,50,0,0
41269,-64.7619047619048,4,2,0,70,0,0
41440,-64.7619047619048,4,2,0,50,0,0
41610,-64.7619047619048,4,2,0,70,0,0
41780,-64.7619047619048,4,2,0,50,0,0
41866,-64.7619047619048,4,2,0,60,0,0
41951,-64.7619047619048,4,2,0,70,0,0
42036,-64.7619047619048,4,2,0,80,0,0
42121,-64.7619047619048,4,2,0,50,0,0
42292,-64.7619047619048,4,2,0,100,0,0
42462,-64.7619047619048,4,2,0,80,0,0
42803,-64.7619047619048,4,2,0,60,0,0
42974,-64.7619047619048,4,2,0,75,0,0
43144,-74.9559082892416,4,2,0,70,0,0
43655,-74.9559082892416,4,2,0,75,0,0
43826,-87.991718426501,4,2,0,65,0,0
44337,-87.991718426501,4,2,0,75,0,0
44508,-107.936507936508,4,2,0,60,0,0
45019,-107.936507936508,4,2,0,70,0,0
45104,-107.936507936508,4,2,0,75,0,0
45190,-80.9523809523809,4,2,0,80,0,0
45530,-80.9523809523809,4,2,0,60,0,0
47917,-80.9523809523809,4,2,0,70,0,0
48428,-80.9523809523809,4,2,0,60,0,0
48599,-80.9523809523809,4,2,0,50,0,0
49110,-80.9523809523809,4,2,0,80,0,0
49280,-80.9523809523809,4,2,0,70,0,0
49621,-80.9523809523809,4,2,0,50,0,0
49962,-107.936507936508,4,2,0,70,0,0
50133,-107.936507936508,4,2,0,60,0,0
50303,-80.9523809523809,4,2,0,50,0,0
50474,-80.9523809523809,4,2,0,70,0,0
50644,-80.9523809523809,4,2,0,70,0,0
50985,-89.9470899470899,4,2,0,70,0,0
51326,-101.190476190476,4,2,0,70,0,0
51667,-115.646258503401,4,2,0,70,0,0
52008,-89.9470899470899,4,2,0,80,0,0
52178,-89.9470899470899,4,2,0,60,0,0
52349,-98.7224157955864,4,2,0,50,0,0
52690,-107.936507936508,4,2,0,50,0,0
53371,-26.984126984127,4,2,0,60,0,1
54735,-80.9523809523809,4,2,0,30,0,0
55076,-80.9523809523809,4,2,0,35,0,0
55417,-80.9523809523809,4,2,0,40,0,0
55502,-80.9523809523809,4,2,0,30,0,0
55758,-80.9523809523809,4,2,0,40,0,0
55843,-80.9523809523809,4,2,0,25,0,0
56099,-64.7619047619048,4,2,0,60,0,1
57462,-80.9523809523809,4,2,0,60,0,1
58315,-80.9523809523809,4,2,0,50,0,1
58400,-80.9523809523809,4,2,0,40,0,1
58485,-80.9523809523809,4,2,0,60,0,1
60701,-80.9523809523809,4,2,0,60,0,1
60871,-80.9523809523809,4,2,0,60,0,1
61042,-80.9523809523809,4,2,0,55,0,1
61212,-80.9523809523809,4,2,0,60,0,1
61383,-80.9523809523809,4,2,0,55,0,1
61553,-80.9523809523809,4,2,0,50,0,1
63002,-80.9523809523809,4,2,0,60,0,1
63940,-80.9523809523809,4,2,0,55,0,1
64110,-80.9523809523809,4,2,0,60,0,1
64280,-80.9523809523809,4,2,0,65,0,1
64451,-80.9523809523809,4,2,0,70,0,1
65644,-80.9523809523809,4,2,0,60,0,0
65815,-80.9523809523809,4,2,0,50,0,0
65985,-80.9523809523809,4,2,0,40,0,0
66155,-80.9523809523809,4,2,0,35,0,0
66326,-80.9523809523809,4,2,0,80,0,0
66496,-80.9523809523809,4,2,0,70,0,0
66667,-80.9523809523809,4,2,0,60,0,0
66752,-80.9523809523809,4,2,0,50,0,0
66837,-80.9523809523809,4,2,0,40,0,0
67008,-404.761904761905,4,2,0,50,0,0
67349,-40.4761904761905,4,2,0,70,0,1
67690,-64.7619047619048,4,2,0,60,0,1
69224,-64.7619047619048,4,2,0,50,0,1
69309,-64.7619047619048,4,2,0,40,0,1
69394,-64.7619047619048,4,2,0,60,0,1
72121,-64.7619047619048,4,2,0,45,0,1
72292,-80.9523809523809,4,2,0,60,0,1
72803,-80.9523809523809,4,2,0,50,0,1
72974,-53.968253968254,4,2,0,70,0,1
73485,-53.968253968254,4,2,0,60,0,1
73655,-80.9523809523809,4,2,0,60,0,1
74167,-80.9523809523809,4,2,0,50,0,1
74337,-53.968253968254,4,2,0,70,0,1
74678,-53.968253968254,4,2,0,60,0,1
74849,-53.968253968254,4,2,0,50,0,1
75019,-53.968253968254,4,2,0,50,0,1
75104,-53.968253968254,4,2,0,50,0,1
75530,-80.9523809523809,4,2,0,50,0,1
76212,-53.968253968254,4,2,0,50,0,1
76553,-53.968253968254,4,2,0,60,0,1
76724,-53.968253968254,4,2,0,65,0,1
76894,-53.968253968254,4,2,0,70,0,1
77065,-404.761904761905,4,2,0,40,0,0
78258,-64.7619047619048,4,2,0,60,0,1
80772,-80.9523809523809,4,2,0,80,0,0
80900,-80.9523809523809,4,2,0,70,0,0
81411,-80.9523809523809,4,2,0,65,0,0
81752,-80.9523809523809,4,2,0,60,0,0
82093,-80.9523809523809,4,2,0,55,0,0
82434,-80.9523809523809,4,2,0,50,0,0
82775,-80.9523809523809,4,2,0,45,0,0
83116,-80.9523809523809,4,2,0,40,0,0
83329,-80.9523809523809,4,2,0,50,0,0
83371,-80.9523809523809,4,2,0,30,0,0
87079,-80.9523809523809,4,2,0,5,0,0

[Colours]
Combo1 : 128,128,128
Combo2 : 0,255,255
Combo3 : 0,128,255
Combo4 : 128,255,128
Combo5 : 0,255,128
Combo6 : 255,128,0
Combo7 : 255,89,89
Combo8 : 192,192,192

[HitObjects]
233,300,190,69,4,0:0:0:0:
315,316,275,21,0,1:0:0:0:
362,328,360,5,0,1:0:0:0:
320,303,445,101,0,1:0:0:0:
353,338,530,5,0,1:0:0:0:
331,295,616,101,0,1:0:0:0:
339,343,701,5,0,1:0:0:0:
345,294,786,101,0,1:0:0:0:
327,340,871,5,0,1:0:0:0:
357,301,957,101,0,1:0:0:0:
317,330,1042,5,0,1:0:0:0:
362,314,1127,101,0,1:0:0:0:
450,362,1212,86,0,B|434:246|434:246|356:206|356:206|342:95,1,315.00001413682,0|0,1:0|0:0,0:0:0:0:
403,20,1553,53,4,2:2:0:0:
399,36,1724,1,0,0:0:0:0:
111,139,2065,6,0,L|103:88,1,52.5000023561366,2|0,0:0|0:0,0:0:0:0:
182,76,2235,2,0,L|190:127,1,52.5000023561366
438,124,2576,38,0,P|430:159|443:126,1,105.000004712273,2|0,0:0|0:0,0:0:0:0:
403,236,2746,2,0,P|410:261|406:235,1,78.7499998232897
34,308,3087,22,0,L|47:306,1,13.1250005890342,2|0,0:0|0:0,0:0:0:0:
123,293,3258,2,0,L|136:291,1,13.1250005890342
326,367,3641,6,0,L|335:315,13,52.5000023561366
296,241,4280,6,0,B|319:225|319:225|395:216,1,105.000004712273,4|2,2:2|0:2,0:0:0:0:
511,320,4621,2,0,B|488:302|488:302|412:295,1,105.000004712273,4|2,0:3|0:0,0:0:0:0:
153,346,4962,1,4,0:3:0:0:
202,185,5133,6,0,B|207:234|207:234|211:240|211:240|216:289,2,105.000004712273,2|4|2,0:0|0:3|0:0,0:0:0:0:
63,32,5644,1,4,0:3:0:0:
118,223,5815,38,0,B|124:154|124:154|130:145|130:145|138:68,2,157.499999646579,2|4|2,0:0|0:3|0:0,0:0:0:0:
375,131,6326,1,4,0:3:0:0:
313,266,6496,6,0,B|304:175|304:175|296:163|296:163|286:60,2,210.000009424547,2|4|2,0:0|0:3|0:0,0:0:0:0:
509,31,7008,6,0,B|431:9|431:9|367:52,2,157.499999646579,4|2|4,3:3|3:2|3:3,0:0:0:0:
453,184,7860,22,0,B|431:182|431:182|426:178|426:178|400:175,1,52.5000023561366,2|0,0:0|0:0,0:0:0:0:
323,163,8030,2,0,B|301:161|301:161|296:157|296:157|270:154,1,52.5000023561366,4|0,0:3|0:0,0:0:0:0:
147,278,8201,86,0,B|115:235|115:235|130:131,1,157.499999646579,2|4,3:2|3:3,0:0:0:0:
274,21,8712,22,0,B|272:43|272:43|268:48|268:48|265:74,1,52.5000023561366,2|0,0:2|0:0,0:0:0:0:
242,230,8883,2,0,B|240:252|240:252|236:257|236:257|233:283,1,52.5000023561366,4|0,0:3|0:0,0:0:0:0:
368,380,9053,6,0,B|435:387|435:387|463:362,2,105.000004712273,4|2|4,3:3|2:2|3:3,0:0:0:0:
409,302,9565,1,0,0:0:0:0:
250,148,9735,5,4,3:3:0:0:
382,90,9905,1,2,3:2:0:0:
327,280,10076,2,0,B|216:260,1,105.000004712273,4|0,3:3|0:0,0:0:0:0:
63,344,10417,2,0,B|174:324,1,105.000004712273,4|0,3:3|0:0,0:0:0:0:
306,193,10758,1,4,3:3:0:0:
327,280,10928,1,4,3:3:0:0:
68,22,11269,54,2,B|57:40|57:40|63:72,2,52.5000023561366,2|2|2,0:2|0:2|0:1,0:1:0:0:
192,170,11780,6,2,L|197:140,1,26.2500011780683,2|0,0:2|0:2,0:1:0:0:
179,167,11951,2,2,L|183:141,1,24.6500007522583,2|0,0:2|0:2,0:1:0:0:
166,164,12121,2,2,L|171:134,1,22.9500005603027,2|0,0:2|0:2,0:1:0:0:
153,161,12292,2,2,L|157:135,1,21.25,2|0,0:2|0:2,0:1:0:0:
249,41,12462,6,0,B|304:32|304:32|323:20|323:20|346:26|346:26|402:18,1,157.499999646579,4|2,3:2|3:2,0:0:0:0:
501,77,12974,1,0,0:0:0:0:
338,244,13144,6,0,P|325:217|328:168,1,78.7499998232897,2|2,3:2|2:0,0:0:0:0:
381,104,13400,1,2,2:0:0:0:
392,106,13485,2,0,L|443:116,2,39.3749999116449,2|2|2,3:2|2:2|2:2,0:0:0:0:
469,363,13826,22,0,B|434:328|434:328|320:349,1,157.499999646579,0|0,3:0|3:0,0:0:0:0:
265,290,14337,1,0,0:0:0:0:
118,356,14508,101,2,3:2:0:0:
133,352,14593,1,2,0:0:0:0:
114,340,14678,1,2,0:0:0:0:
129,336,14763,1,2,0:0:0:0:
124,346,14849,53,2,3:2:0:0:
124,346,15019,1,0,0:0:0:0:
214,373,15190,22,0,B|220:306|220:306|229:289|229:289|235:218,1,157.499999646579,0|0,3:0|3:0,0:0:0:0:
162,95,15701,2,0,B|152:134|152:134|174:176,1,78.7499998232897,0|2,0:0|3:2,0:0:0:0:
299,172,16042,1,2,0:0:0:0:
309,169,16127,1,2,0:0:0:0:
318,166,16212,2,0,B|333:113|333:113|304:51,1,105.000004712273,2|0,3:1|0:0,0:0:0:0:
21,258,16553,53,0,3:0:0:0:
82,202,16724,2,0,B|132:183|132:183|238:222|238:222|262:285,1,210.000009424547,2|0,0:1|0:0,0:0:0:0:
132,347,17235,86,0,B|169:342|169:342|174:338|174:338|208:333,1,78.7499998232897,2|0,3:2|0:0,0:0:0:0:
347,375,17576,2,0,B|370:334|370:334|369:325|369:325|393:283,1,105.000004712273,2|0,3:1|0:0,0:0:0:0:
490,173,17917,86,0,L|332:152,1,157.499999646579,0|0,3:0|3:0,0:0:0:0:
261,195,18428,2,0,P|241:164|243:123,1,78.7499998232897,0|2,0:0|3:2,0:0:0:0:
362,24,18769,85,2,0:0:0:0:
375,14,18854,1,2,0:0:0:0:
390,9,18940,1,2,3:2:0:0:
406,8,19025,1,2,0:0:0:0:
421,11,19110,1,2,0:0:0:0:
484,260,19280,5,2,3:2:0:0:
477,260,19366,1,2,0:0:0:0:
471,258,19451,1,2,0:0:0:0:
466,254,19536,1,2,0:0:0:0:
462,249,19621,1,2,3:2:0:0:
419,178,19792,1,2,0:1:0:0:
361,317,19962,70,2,B|349:249|349:249|332:233|332:233|318:158,1,157.499999646579,2|0,3:3|3:0,0:1:0:0:
69,349,20474,85,0,0:0:0:0:
73,336,20559,1,0,0:0:0:0:
78,322,20644,2,0,B|129:314|129:314|153:326,1,78.7499998232897,2|0,3:2|0:0,0:0:0:0:
251,252,20985,2,0,B|200:260|200:260|161:240,1,78.7499998232897,0|2,3:2|0:0,0:0:0:0:
78,46,21326,53,2,3:2:0:0:
158,18,21496,1,2,0:0:0:0:
175,18,21582,1,2,0:0:0:0:
191,23,21667,1,2,3:2:0:0:
204,32,21752,1,2,0:0:0:0:
214,46,21837,1,2,0:0:0:0:
278,170,22008,1,0,3:2:0:0:
278,170,22178,86,0,B|292:146|292:120,1,52.5000023561366,4|0,0:0|0:0,0:0:0:0:
151,318,22519,6,0,B|149:355|170:378,1,65.6250029451708,4|0,0:0|0:0,0:0:0:0:
71,66,22860,102,0,B|96:33|87:-8,1,78.7499998232897,4|0,0:0|0:0,0:0:0:0:
0,359,23201,5,4,0:0:0:0:
0,359,23286,1,0,0:0:0:0:
0,359,23371,70,0,B|10:293|10:293|28:278|28:278|39:206,1,157.49999964658,4|2,3:1|3:2,0:0:0:0:
97,150,23883,1,0,0:0:0:0:
264,258,24053,5,2,3:2:0:0:
184,242,24224,1,2,0:0:0:0:
172,239,24309,1,2,0:0:0:0:
160,237,24394,2,2,L|105:225,2,39.3749999116449,2|2|2,3:2|0:0|0:0,0:0:0:0:
391,358,24735,86,0,B|350:293|350:293|368:212,1,157.499999646579,0|0,3:2|3:2,0:0:0:0:
426,155,25246,1,0,0:0:0:0:
335,33,25417,101,2,3:2:0:0:
349,36,25502,1,2,0:0:0:0:
325,42,25587,1,2,0:0:0:0:
339,47,25672,1,2,0:0:0:0:
338,40,25758,85,2,3:2:0:0:
338,40,25928,1,0,0:0:0:0:
208,200,26099,54,0,B|231:180|231:180|244:50,1,157.499999646579,2|2,3:2|3:2,0:0:0:0:
121,18,26610,2,0,L|134:106,1,78.7499998232897,2|2,0:0|3:2,0:0:0:0:
64,187,26951,1,2,0:0:0:0:
56,200,27036,1,2,0:0:0:0:
48,215,27121,2,0,L|100:207,2,39.3749999116449,2|2|2,3:2|0:0|0:0,0:0:0:0:
250,305,27462,21,0,3:2:0:0:
177,346,27633,2,2,B|160:310|160:310|172:265,1,78.7499998232897,2|0,2:2|3:2,2:1:0:0:
303,162,27974,2,2,B|325:203|325:203|311:255,1,92.4000013601505,2|0,2:0|3:2,2:1:0:0:
436,379,28315,2,2,B|411:336|411:336|427:281,1,105.000004712273,2|0,2:0|3:2,2:1:0:0:
498,129,28655,1,0,0:3:0:0:
388,16,28826,54,0,B|398:80|398:80|413:95|413:95|424:166,1,157.499999646579,2|2,3:2|3:2,0:0:0:0:
423,165,29337,2,0,P|389:183|345:171,1,78.7499998232897,2|2,0:0|3:2,0:0:0:0:
290,81,29678,85,2,0:0:0:0:
287,76,29763,1,2,0:0:0:0:
284,71,29849,1,2,3:2:0:0:
282,65,29934,1,2,0:0:0:0:
281,58,30019,1,2,0:0:0:0:
1,106,30190,54,0,B|-25:86|-25:86|99:69,1,157.499999646579,2|2,3:2|3:2,0:0:0:0:
98,69,30701,2,0,P|117:91|125:140,1,78.7499998232897,2|2,0:0|3:2,0:0:0:0:
220,196,31042,53,2,0:0:0:0:
230,182,31127,1,2,0:0:0:0:
236,167,31212,1,2,3:2:0:0:
238,151,31297,1,2,0:0:0:0:
236,136,31383,1,2,0:0:0:0:
491,340,31553,86,0,B|477:365|477:365|452:217|452:217|474:240,1,210.000009424547,2|2,3:2|3:2,0:0:0:0:
474,240,32065,2,0,P|408:229|378:249,1,105.000004712273,2|2,0:0|3:2,0:0:0:0:
296,334,32405,21,2,2:2:0:0:
282,313,32491,1,2,2:2:0:0:
275,289,32576,1,2,3:2:0:0:
273,264,32661,1,2,2:2:0:0:
279,242,32746,1,2,2:2:0:0:
174,310,32917,22,0,B|114:301|114:301|92:276|92:276|4:261,1,157.499999646579,0|0,3:2|3:2,0:0:0:0:
46,352,33428,1,2,0:0:0:0:
160,223,33599,6,0,B|180:189|180:189|168:147,1,78.7499998232897,0|2,3:2|0:0,0:0:0:0:
85,33,33940,2,0,B|65:67|65:67|77:109,1,78.7499998232897,0|0,3:2|0:0,0:0:0:0:
86,111,34195,1,0,0:0:0:0:
96,117,34280,6,0,B|183:110|183:110|207:90|207:90|301:82,2,210.000009424547,4|6|6,3:2|3:3|3:3,0:0:0:0:
439,40,35303,86,0,B|436:62|419:54|415:36|418:19|441:8|470:15|469:58|427:84,1,131.250005890342,4|2,3:3|3:2,0:0:0:0:
478,247,35644,21,4,0:3:0:0:
399,221,35815,1,2,0:0:0:0:
395,207,35900,1,0,0:0:0:0:
399,221,35985,5,4,0:3:0:0:
323,345,36155,1,2,0:0:0:0:
152,366,36326,1,4,0:3:0:0:
155,350,36411,1,0,0:0:0:0:
160,325,36496,1,2,0:0:0:0:
168,285,36582,1,0,0:0:0:0:
177,232,36667,1,4,0:3:0:0:
56,18,36837,5,8,0:3:0:0:
56,18,36922,1,8,0:3:0:0:
56,18,37008,86,0,B|76:32|76:32|96:217,2,210.000009424547,4|6|6,0:3|3:3|0:3,0:0:0:0:
113,360,38030,86,0,B|133:333|169:331|169:331|182:360|218:372,1,131.250005890342,4|2,0:3|0:0,0:0:0:0:
429,323,38371,21,4,0:3:0:0:
413,242,38542,1,2,0:0:0:0:
399,238,38627,1,0,0:0:0:0:
413,242,38712,5,4,0:3:0:0:
244,293,38883,1,2,0:0:0:0:
80,119,39053,1,4,0:3:0:0:
96,122,39138,1,0,0:0:0:0:
121,127,39224,1,2,0:0:0:0:
161,135,39309,1,0,0:0:0:0:
214,144,39394,1,4,0:3:0:0:
419,28,39565,5,8,0:3:0:0:
419,28,39650,1,8,0:3:0:0:
419,28,39735,86,0,B|385:71|385:71|410:169|410:169|376:211,2,210.000009424547,4|6|6,3:2|3:3|0:3,0:0:0:0:
489,347,40758,86,0,B|437:338|437:338|423:299|378:293,1,131.250005890342,4|2,0:3|0:0,0:0:0:0:
92,273,41099,21,4,0:3:0:0:
108,355,41269,1,2,0:0:0:0:
122,359,41354,1,0,0:0:0:0:
108,355,41440,5,4,0:3:0:0:
299,312,41610,1,2,0:0:0:0:
213,187,41780,1,4,0:3:0:0:
216,171,41866,1,0,0:0:0:0:
221,146,41951,1,2,0:0:0:0:
229,106,42036,1,0,0:0:0:0:
238,53,42121,1,4,0:3:0:0:
453,12,42292,5,8,0:3:0:0:
453,12,42377,1,8,0:3:0:0:
453,12,42462,2,4,B|493:31|493:31|419:43|419:43|397:36|397:36|321:47|321:47|361:61,1,262.500011780683,4|4,3:2|0:3,0:3:0:0:
477,208,42974,1,2,0:0:0:0:
379,336,43144,22,0,B|397:318|397:318|403:246|403:246|392:220|392:220|399:144|399:144|415:126,1,226.799995643598,4|4,0:3|0:3,0:0:0:0:
493,291,43655,1,2,0:0:0:0:
307,375,43826,86,0,B|219:383|219:383|194:348|194:348|133:336,1,193.199991919017,4|4,0:3|0:3,0:0:0:0:
60,231,44337,1,2,0:0:0:0:
12,373,44508,22,0,B|50:331|50:331|60:231,1,157.499999646579,4|4,0:3|0:3,0:0:0:0:
41,149,45019,85,2,0:0:0:0:
54,147,45104,1,2,0:0:0:0:
67,145,45190,1,4,3:2:0:0:
377,8,45530,54,0,P|343:46|352:96,1,105.000004712273,4|0,0:3|0:0,0:0:0:0:
468,278,45871,2,0,B|501:244|501:244|482:177,1,105.000004712273,4|0,0:3|0:0,0:0:0:0:
431,125,46212,1,4,0:3:0:0:
337,203,46383,6,0,B|311:216|311:216|213:203,1,105.000004712273,2|4,0:0|0:3,0:0:0:0:
184,142,46724,2,0,B|158:129|158:129|82:138,1,105.000004712273,2|4,0:0|0:3,0:0:0:0:
36,323,47065,2,2,B|98:317|98:317|121:302|121:302|241:289,1,210.000009424547,2|2,2:0|0:2,0:2:0:0:
474,365,47576,2,0,B|498:331|498:331|458:268|458:268|415:272,1,157.50000706841,4|0,3:0|0:0,0:0:0:0:
392,350,47917,6,2,B|380:256|380:256|426:216|413:152,1,210.000009424547,2|2,3:2|3:2,0:2:0:0:
342,5,48428,1,2,0:0:0:0:
499,162,48599,2,2,B|526:120|526:120|507:67|448:48|393:70,1,210.000009424547,4|4,3:3|3:3,0:1:0:0:
256,190,49110,21,8,3:3:0:0:
300,249,49195,1,8,3:3:0:0:
328,181,49280,1,4,3:1:0:0:
54,27,49621,21,4,0:3:0:0:
54,27,49962,2,0,L|71:133,1,78.7499998232897,2|0,3:2|0:0,0:0:0:0:
140,49,50303,86,0,B|146:94|146:94|149:99|149:99|158:151,1,105.000004712273,4|0,1:3|0:0,0:0:0:0:
396,346,50644,54,2,P|424:333|449:303,2,70.0000031415155,4|0|0,0:3|0:0|0:0,0:1:0:0:
444,284,50985,2,2,P|462:259|468:220,2,62.9999998586318,4|0|0,0:3|0:0|0:0,0:1:0:0:
458,211,51326,2,2,P|462:180|448:144,2,56.000000402114,4|0|0,0:3|0:0|0:0,0:1:0:0:
440,142,51667,2,2,P|427:113|397:88,2,49.0000012754553,4|0|0,0:3|0:0|0:0,0:1:0:0:
350,50,52008,22,0,B|304:39|304:39|260:57,1,94.4999997879477,4|0,0:1|0:0,0:0:0:0:
184,98,52263,1,0,0:0:0:0:
181,83,52349,2,0,B|171:38,1,43.0500016074506,4|0,0:3|0:0,0:0:0:0:
356,162,52519,1,0,0:0:0:0:
117,231,52690,6,0,L|131:154,1,78.7499998232897,4|0,0:3|0:0,0:0:0:0:
194,271,53030,2,0,P|178:299|107:311,1,78.7499998232897,4|0,0:3|0:0,0:0:0:0:
38,168,53371,6,2,B|0:221|0:221|55:89|55:89|52:77|52:77|132:155|132:155|132:144|132:144|177:138|177:138|178:131|178:131|180:138|180:138|223:132|223:132|232:125|232:125|224:146|224:146|233:139|233:139|283:237|283:237|280:248|280:248|349:173|349:173|351:183|351:183|357:95|357:95|353:88|353:88|397:64|397:64|403:55|403:55|462:73,2,944.999997879477,4|4|4,0:0|0:0|0:0,0:0:0:0:
370,368,54735,21,0,1:2:0:0:
364,356,54820,1,0,1:2:0:0:
347,342,54905,1,0,1:2:0:0:
311,326,54991,1,0,1:2:0:0:
262,335,55076,1,0,1:2:0:0:
213,375,55161,1,0,1:2:0:0:
132,384,55246,1,0,1:2:0:0:
52,336,55332,1,0,1:2:0:0:
28,230,55417,5,2,1:2:0:0:
35,186,55502,1,0,1:2:0:0:
42,142,55587,1,0,1:2:0:0:
84,120,55672,1,0,1:2:0:0:
121,47,55758,101,2,1:2:0:0:
138,60,55843,1,0,1:2:0:0:
159,56,55928,1,0,1:2:0:0:
181,52,56013,1,0,1:2:0:0:
253,90,56099,22,2,B|336:76|336:76|394:-5|394:-5|485:7,2,262.500011780683,6|2|2,1:1|1:1|1:1,0:1:0:0:
287,0,56951,1,2,3:0:0:0:
451,204,57121,2,0,B|468:144|468:144|429:77,1,131.250005890342,2|2,1:2|3:0,0:0:0:0:
158,290,57462,5,0,1:0:0:0:
293,195,57633,1,2,3:0:0:0:
178,174,57803,1,2,1:2:0:0:
273,313,57974,2,0,B|352:299|352:299|368:279,1,105.000004712273,2|0,3:0|1:0,0:0:0:0:
80,368,58315,101,2,1:2:0:0:
84,352,58400,1,0,1:0:0:0:
88,336,58485,1,0,1:0:0:0:
17,105,58655,1,2,0:0:0:0:
215,44,58826,22,0,B|194:61|194:61|179:138,1,105.000004712273,0|2,1:0|3:0,0:0:0:0:
333,138,59167,2,0,B|318:61|318:61|297:44,1,105.000004712273,0|2,1:0|3:0,0:0:0:0:
67,260,59508,5,0,1:0:0:0:
260,230,59678,1,2,3:0:0:0:
442,203,59849,101,0,1:0:0:0:
364,175,60019,1,2,3:0:0:0:
484,323,60190,5,0,1:0:0:0:
484,323,60360,2,0,B|454:345|454:345|388:362,1,105.000004712273,2|0,3:0|1:0,0:0:0:0:
184,255,60701,1,2,3:1:0:0:
413,187,60871,2,0,B|418:222|418:222|373:311,2,105.000004712273,0|2|0,1:0|3:2|1:0,0:0:0:0:
147,336,61383,69,2,0:2:0:0:
147,336,61553,2,0,B|199:347|199:347|246:318,1,105.000004712273,0|2,1:0|3:0,0:0:0:0:
123,193,61894,2,0,B|167:165|167:165|219:176,1,105.000004712273,0|2,1:0|3:0,0:0:0:0:
36,349,62235,6,0,B|49:355|49:355|92:253,1,105.000004712273,2|2,1:2|3:0,0:0:0:0:
167,81,62576,2,0,B|138:-1|138:-1|121:7,1,105.000004712273,2|0,1:2|0:0,0:0:0:0:
417,74,62917,102,2,B|394:115|394:115|278:129|278:129|245:96,2,210.000009424547,2|0|0,1:1|1:0|1:2,2:1:0:0:
332,13,63769,1,2,0:0:0:0:
329,23,63940,1,2,1:1:0:0:
326,33,64110,1,2,3:0:0:0:
484,369,64280,69,2,1:2:0:0:
218,274,64451,1,2,1:2:0:0:
347,177,64621,101,2,1:2:0:0:
274,335,64792,1,2,1:2:0:0:
137,290,64962,5,2,1:2:0:0:
98,164,65133,1,2,1:2:0:0:
13,378,65303,101,2,1:2:0:0:
86,359,65474,1,2,1:2:0:0:
97,356,65644,37,0,1:0:0:0:
121,250,65729,1,0,1:0:0:0:
201,202,65815,1,0,1:0:0:0:
282,211,65900,1,0,1:0:0:0:
331,251,65985,1,0,1:0:0:0:
378,259,66070,1,0,1:0:0:0:
410,246,66155,1,0,1:0:0:0:
423,230,66241,1,0,1:0:0:0:
363,174,66326,101,2,0:0:0:0:
410,147,66411,85,2,0:0:0:0:
435,98,66496,21,2,0:0:0:0:
426,44,66582,85,2,0:0:0:0:
386,6,66667,21,2,0:0:0:0:
336,28,66752,85,2,0:0:0:0:
342,83,66837,21,2,0:0:0:0:
510,347,67008,6,0,P|492:349|477:338,1,31.5000002261891,2|0,1:2|0:0,0:0:0:0:
428,281,67349,70,0,B|344:248|288:310|288:310|296:313|296:313|236:380|156:347,1,315.00001413682,4|0,1:2|0:0,0:0:0:0:
51,367,67690,86,0,B|81:320|81:320|67:246,1,131.250005890342,2|2,1:0|3:0,0:0:0:0:
116,86,68030,2,0,B|90:36|90:36|19:11,1,131.250005890342,2|2,1:0|3:0,0:0:0:0:
49,161,68371,6,2,B|163:172|163:172|182:118|234:96|285:111,1,262.500011780683,2|0,1:0|1:2,0:1:0:0:
463,315,68883,2,0,B|399:335|399:335|348:296,1,131.250005890342,2|0,0:1|1:0,0:0:0:0:
318,215,69224,101,2,1:2:0:0:
322,198,69309,1,0,1:0:0:0:
326,183,69394,1,0,1:0:0:0:
195,14,69565,1,2,0:0:0:0:
96,130,69735,102,0,B|120:102|120:102|214:95,1,131.250005890342,0|2,1:0|3:2,0:0:0:0:
416,130,70076,2,0,B|392:102|392:102|298:95,1,131.250005890342,0|2,1:0|3:2,0:0:0:0:
46,298,70417,5,0,1:0:0:0:
19,207,70587,1,2,3:3:0:0:
178,337,70758,5,0,1:2:0:0:
209,187,70928,1,2,3:2:0:0:
406,355,71099,102,2,B|369:326|369:326|351:183,1,131.250005890342,0|2,1:0|0:0,0:0:0:0:
348,159,71440,1,0,1:0:0:0:
462,22,71610,2,2,B|452:111|452:111|419:160,2,131.250005890342,2|0|2,3:2|1:0|3:2,0:1:0:0:
45,118,72121,1,2,1:1:0:0:
87,191,72292,54,2,B|253:214|253:214|215:191,1,210.000009424547,4|0,0:0|0:0,0:1:0:0:
178,122,72803,1,0,1:2:0:0:
423,298,72974,22,2,B|449:264|437:213|386:171|308:198|273:298|367:287|358:381,1,314.999999293159,4|0,0:0|0:0,0:1:0:0:
440,379,73485,1,0,1:2:0:0:
505,100,73655,86,2,B|473:67|473:67|411:59|411:59|361:93|361:93|349:133,1,210.000009424547,4|0,0:0|0:0,0:1:0:0:
118,46,74167,1,0,1:2:0:0:
66,169,74337,54,2,B|131:114|213:133,1,157.499999646579,4|0,0:0|0:0,0:1:0:0:
475,243,74678,5,2,0:0:0:0:
434,148,74849,1,0,1:2:0:0:
402,286,75019,1,2,3:1:0:0:
475,329,75190,102,0,B|506:349|506:349|372:382,1,157.499999646579,0|2,1:2|0:0,0:0:0:0:
264,184,75530,2,0,L|367:202,1,105.000004712273,0|2,1:2|0:0,0:0:0:0:
194,230,75871,2,0,L|90:211,1,105.000004712273,0|2,1:2|0:0,0:0:0:0:
16,14,76212,2,2,B|36:-17|36:-17|64:100,1,157.499999646579,2|2,1:3|0:0,2:1:0:0:
261,285,76553,21,0,1:2:0:0:
277,205,76724,1,2,1:3:0:0:
293,125,76894,1,0,1:2:0:0:
244,384,77065,22,0,L|241:364,1,21.0000001507927,2|0,0:0|0:0,0:0:0:0:
162,372,77405,1,2,0:0:0:0:
160,361,77576,1,2,0:0:0:0:
158,351,77746,1,2,0:0:0:0:
86,109,78258,86,2,B|104:58|55:22|55:22|53:93|125:138|150:18|227:191|126:291|-1:270|-1:270|8:123|145:99|182:169|305:152|337:72|337:72|276:67|187:179|249:336|249:336|231:205|325:160|421:153|401:274|526:246|526:246|417:217|387:103|442:21,1,1935.93758688254,4|4,2:0|2:1,1:0:0:0:
501,125,80942,53,2,0:0:0:0:
485,269,81112,1,2,0:0:0:0:
381,359,81283,1,2,0:0:0:0:
369,147,81453,21,2,0:0:0:0:
300,340,81624,1,2,0:0:0:0:
232,148,81794,85,2,0:0:0:0:
254,271,81964,1,2,0:0:0:0:
127,191,82135,21,2,0:0:0:0:
178,251,82305,1,2,0:0:0:0:
61,257,82476,85,2,0:0:0:0:
98,270,82646,1,2,0:0:0:0:
32,341,82817,21,2,0:0:0:0:
50,337,82987,1,2,0:0:0:0:
53,356,83158,1,2,0:0:0:0:
44,346,83328,53,4,0:0:0:0:
256,192,83413,12,0,87079,0:0:0:0:
