osu file format v14

[General]
AudioFilename: audio.mp3
AudioLeadIn: 0
PreviewTime: 55332
Countdown: 0
SampleSet: Soft
StackLeniency: 0.7
Mode: 0
LetterboxInBreaks: 0
WidescreenStoryboard: 0

[Editor]
Bookmarks: 190,87121
DistanceSpacing: 0.8
BeatDivisor: 4
GridSize: 4
TimelineZoom: 1

[Metadata]
Title:Ama Kakeru Rou no Tsubasa, Kurui Nakite Homura ni Otsu
TitleUnicode:天翔ケル蝋ノ翼、狂イ哭キテ焔ニ堕ツ
Artist:Sasaki Sayaka
ArtistUnicode:佐咲紗花
Creator:NewRulerNA
Version:test map b-8 s-4.0-5.2
Source:Silverio Trinity
Tags:visual novel opening light amakakeru kuruinakite
BeatmapID:1469795
BeatmapSetID:694790

[Difficulty]
HPDrainRate:6
CircleSize:4
OverallDifficulty:8
ApproachRate:9
SliderMultiplier:1.7
SliderTickRate:1

[Events]
//Background and Video events
0,0,"BG.jpg",0,0
Video,160,"33pl.avi"
//Break Periods
//Storyboard Layer 0 (Background)
//Storyboard Layer 1 (Fail)
//Storyboard Layer 2 (Pass)
//Storyboard Layer 3 (Foreground)
//Storyboard Sound Samples

[TimingPoints]
190,340.909090909091,4,2,0,80,1,0
2746,-133.333333333333,4,2,0,80,0,0
3258,-200,4,2,0,80,0,0
3599,-100,4,2,0,30,0,0
3940,-100,4,2,0,60,0,0
4280,-100,4,2,0,50,0,0
7349,-100,4,2,0,80,0,0
23371,-55.5555555555556,4,2,0,80,0,0
23712,-100,4,2,0,80,0,0
34280,-55.5555555555556,4,2,0,80,0,0
34621,-100,4,2,0,80,0,0
37008,-55.5555555555556,4,2,0,80,0,0
37349,-100,4,2,0,80,0,0
39735,-55.5555555555556,4,2,0,80,0,0
40076,-100,4,2,0,80,0,0
50985,-111.111111111111,4,2,0,70,0,0
51326,-142.857142857143,4,2,0,50,0,0
51667,-200,4,2,0,40,0,0
52008,-100,4,2,0,80,0,0
55758,-71.4285714285714,4,2,0,80,0,0
67008,-100,4,2,0,80,0,0
67349,-55.5555555555556,4,2,0,80,0,0
67690,-71.4285714285714,4,2,0,80,0,0
77065,-200,4,2,0,80,0,0
78258,-100,4,2,0,80,0,0

[HitObjects]
96,112,190,5,0,3:0:0:0:
93,140,275,1,0,3:0:0:0:
96,168,360,1,0,3:0:0:0:
105,195,445,1,0,3:0:0:0:
152,192,530,1,0,3:0:0:0:
174,208,615,1,0,3:0:0:0:
200,220,700,1,0,3:0:0:0:
228,225,785,1,0,3:0:0:0:
248,182,872,1,0,3:0:0:0:
273,171,957,1,0,3:0:0:0:
297,155,1042,1,0,3:0:0:0:
315,133,1127,1,0,3:0:0:0:
331,109,1212,1,0,3:0:0:0:
96,112,1553,5,8,0:3:0:0:
136,208,1724,2,0,P|140:250|131:291,1,85,4|0,0:3|0:0,0:0:0:0:
96,112,2065,5,2,0:3:0:0:
136,208,2235,2,0,P|127:249|131:291,1,85,2|0,0:3|0:0,0:0:0:0:
96,112,2576,5,2,0:0:0:0:
230,46,2746,2,0,P|198:48|168:56,1,63.7500024318696,2|0,0:0|0:0,0:0:0:0:
96,112,3087,5,2,0:0:0:0:
48,192,3258,2,0,P|47:213|51:234,1,42.5,2|0,0:0|0:0,0:0:0:0:
241,152,3599,5,2,0:0:0:0:
269,149,3684,1,2,0:0:0:0:
297,154,3769,1,2,0:0:0:0:
323,166,3854,1,2,0:0:0:0:
344,216,3940,1,2,0:0:0:0:
386,218,4025,1,2,0:0:0:0:
427,207,4110,1,2,0:0:0:0:
462,184,4195,1,2,0:0:0:0:
400,56,4280,6,2,P|392:112|408:160,1,85,2|0,0:1|0:0,0:1:0:0:
480,336,4622,2,2,P|488:280|472:232,1,85,0|0,0:0|0:0,0:1:0:0:
392,232,4962,1,2,0:1:0:0:
328,288,5133,1,2,0:1:0:0:
243,282,5303,1,2,0:1:0:0:
187,217,5474,2,2,B|200:168|200:168|251:119|227:56,1,170,2|0,0:1|0:0,0:1:0:0:
144,96,5985,1,2,0:1:0:0:
264,152,6155,2,0,P|336:144|376:120,1,85,2|0,0:1|0:0,0:0:0:0:
419,102,6496,1,2,0:1:0:0:
488,152,6667,1,2,0:1:0:0:
428,24,6837,1,2,0:1:0:0:
409,196,7008,1,4,0:3:0:0:
280,112,7349,6,0,P|224:88|176:88,1,85,4|0,0:3|0:0,0:0:0:0:
200,85,7690,2,0,P|215:166|175:239,1,170,12|0,0:3|0:0,0:0:0:0:
288,338,8201,2,0,P|330:331|368:312,1,85,8|0,0:3|0:0,0:0:0:0:
368,311,8542,2,0,P|327:237|343:156,1,170,12|0,0:3|0:0,0:0:0:0:
408,32,9053,2,0,L|432:192,1,127.5,8|0,0:3|0:0,0:0:0:0:
343,156,9394,2,0,L|367:316,1,127.5,12|0,0:3|0:0,0:0:0:0:
376,360,9735,5,12,0:3:0:0:
183,287,9905,1,8,0:3:0:0:
343,156,10076,1,12,0:3:0:0:
296,272,10417,2,0,P|285:317|280:362,1,85,12|0,0:3|0:0,0:0:0:0:
296,272,10758,1,8,0:3:0:0:
264,192,10928,1,12,0:3:0:0:
213,70,11099,5,2,0:0:0:0:
223,121,11269,1,2,0:0:0:0:
262,88,11440,1,2,0:0:0:0:
244,161,11610,5,2,0:0:0:0:
169,70,11780,1,2,0:0:0:0:
285,49,11950,1,2,0:0:0:0:
198,189,12121,5,2,0:0:0:0:
168,16,12291,1,2,0:0:0:0:
333,75,12462,2,0,P|392:64|448:40,1,85,0|0,3:0|0:0,0:0:0:0:
240,136,12803,6,0,L|208:272,1,85,2|0,3:0|0:0,0:0:0:0:
112,184,13144,2,0,P|144:280|144:336,1,127.5,2|0,3:0|0:0,0:0:0:0:
120,360,13485,1,2,3:0:0:0:
232,320,13655,1,0,3:0:0:0:
336,352,13826,2,0,P|384:336|424:312,1,85,2|0,3:3|0:0,0:0:0:0:
328,240,14167,2,0,P|350:194|361:149,1,85,2|0,3:3|0:0,0:0:0:0:
256,48,14508,2,0,L|272:152,1,85,2|0,3:3|0:0,0:0:0:0:
424,232,14849,5,2,3:0:0:0:
340,92,15019,1,0,3:0:0:0:
200,176,15190,2,0,P|112:160|32:80,1,170,2|0,3:0|3:0,0:0:0:0:
248,8,15701,2,0,P|264:96|264:128,1,85,2|0,3:0|0:0,0:0:0:0:
215,259,16042,2,0,P|199:171|199:139,1,85,2|0,3:0|0:0,0:0:0:0:
300,200,16383,2,2,B|342:206|342:206|369:239,1,85,0|0,0:1|0:0,0:1:0:0:
368,238,16724,2,2,B|325:231|325:231|298:198,1,85,0|0,0:0|0:0,0:1:0:0:
208,88,17065,1,0,3:0:0:0:
336,136,17235,6,0,P|384:136|472:64,1,127.5,2|0,3:0|0:0,0:0:0:0:
440,160,17576,2,2,B|432:192|432:192|440:248,1,85,0|0,3:1|0:0,0:1:0:0:
376,344,17917,1,2,3:0:0:0:
352,336,18087,1,0,3:0:0:0:
328,328,18258,1,0,3:0:0:0:
304,320,18428,1,0,3:0:0:0:
272,216,18599,1,0,3:0:0:0:
248,224,18769,1,0,3:0:0:0:
224,232,18940,1,0,3:0:0:0:
200,240,19110,1,0,3:0:0:0:
168,344,19281,1,0,3:0:0:0:
144,336,19451,1,0,3:0:0:0:
120,328,19622,1,0,3:0:0:0:
54,248,19792,1,2,3:1:0:0:
168,80,19962,2,2,B|200:128|200:128|152:248,1,170,0|0,0:0|0:0,0:1:0:0:
54,248,20474,1,0,0:0:0:0:
224,160,20644,5,0,3:0:0:0:
248,152,20814,1,0,3:0:0:0:
272,144,20985,1,0,3:0:0:0:
296,136,21155,1,0,3:0:0:0:
264,280,21326,1,0,3:0:0:0:
288,288,21496,1,0,3:0:0:0:
312,296,21667,1,0,3:0:0:0:
336,304,21837,1,0,3:0:0:0:
376,136,22008,1,0,3:0:0:0:
384,320,22178,1,6,0:3:0:0:
336,304,22519,1,6,0:3:0:0:
288,288,22860,1,6,0:3:0:0:
240,272,23201,1,6,0:3:0:0:
224,56,23371,6,0,B|248:128|248:128|216:200,1,152.999995330811,4|0,0:1|0:0,0:0:0:0:
80,304,23712,6,0,P|72:240|80:200,1,85,2|0,3:0|0:0,0:0:0:0:
16,128,24053,2,0,P|96:112|168:112,1,127.5,2|0,3:0|0:0,0:0:0:0:
192,136,24394,1,2,3:0:0:0:
296,56,24565,1,0,3:0:0:0:
240,216,24735,2,0,P|240:272|256:328,1,85,2|0,3:3|0:0,0:0:0:0:
336,248,25076,2,0,P|375:287|426:315,1,85,2|0,3:3|0:0,0:0:0:0:
510,195,25417,2,0,L|426:201,1,85,2|0,3:3|0:0,0:0:0:0:
264,112,25758,5,2,3:0:0:0:
264,112,25928,1,0,3:0:0:0:
440,120,26099,2,0,B|456:88|448:64|448:64|392:80|336:32,1,170,2|0,3:0|3:0,0:0:0:0:
264,112,26610,2,0,P|208:120|168:112,1,85,2|0,3:0|0:0,0:0:0:0:
80,256,26951,2,0,P|101:203|128:172,1,85,2|0,3:0|0:0,0:0:0:0:
48,24,27292,2,0,P|75:55|93:94,1,85,2|0,3:0|0:0,0:0:0:0:
80,256,27633,1,2,0:1:0:0:
216,200,27803,2,2,B|256:184|256:184|304:192,1,85,0|0,0:0|0:0,0:1:0:0:
297,190,28144,2,2,B|257:206|257:206|209:198,1,85,0|0,0:0|0:0,0:1:0:0:
408,144,28485,6,0,L|424:248,1,85,2|0,3:0|0:0,0:0:0:0:
448,48,28826,2,0,P|344:24|304:24,1,127.5,2|0,3:0|0:0,0:0:0:0:
256,56,29167,1,2,3:0:0:0:
240,240,29337,1,2,0:3:0:0:
220,148,29508,1,0,3:0:0:0:
309,176,29678,1,0,3:0:0:0:
329,268,29849,1,0,3:0:0:0:
259,331,30019,1,0,3:0:0:0:
104,248,30190,2,0,P|104:160|128:104,1,127.5,2|0,3:0|0:0,0:0:0:0:
188,108,30530,1,2,0:3:0:0:
316,196,30701,1,2,3:0:0:0:
224,240,30871,1,0,3:0:0:0:
248,152,31042,1,0,3:0:0:0:
336,120,31212,1,0,3:0:0:0:
416,164,31383,1,0,3:0:0:0:
272,80,31553,6,0,B|209:70|209:70|136:112,1,127.5,2|0,3:0|0:0,0:0:0:0:
88,144,31894,1,2,3:0:0:0:
112,32,32065,1,2,0:3:0:0:
192,176,32235,1,0,3:0:0:0:
192,176,32405,1,0,3:0:0:0:
351,96,32576,1,0,3:0:0:0:
351,96,32746,1,0,3:0:0:0:
277,170,32917,1,2,0:3:0:0:
328,256,33087,1,0,3:2:0:0:
240,296,33258,2,0,P|232:344|232:384,1,85,2|0,0:3|3:0,0:0:0:0:
376,176,33599,1,2,0:1:0:0:
240,296,33769,1,2,0:1:0:0:
120,152,33940,2,2,P|112:88|112:40,1,85,0|0,0:1|0:0,0:1:0:0:
208,152,34280,6,0,B|184:176|184:272|152:304,1,152.999995330811,12|0,0:3|0:0,0:0:0:0:
272,208,34621,6,0,P|344:192|416:192,1,127.5,2|0,3:0|0:0,0:0:0:0:
464,224,34962,2,0,P|480:184|488:112,1,85,2|0,3:0|0:0,0:0:0:0:
416,56,35303,1,0,3:0:0:0:
344,240,35474,2,0,P|351:281|367:321,1,85,2|0,3:3|3:0,0:0:0:0:
304,40,35815,2,0,P|296:81|280:121,1,85,2|0,3:0|3:0,0:0:0:0:
216,216,36155,2,0,P|144:200|72:200,1,127.5,2|0,3:0|0:0,0:0:0:0:
24,232,36496,2,0,P|8:192|0:120,2,85,2|0|0,3:0|0:0|3:0,0:0:0:0:
160,344,37008,6,0,P|240:304|336:296,1,152.999995330811,12|0,0:3|0:0,0:0:0:0:
408,176,37349,6,0,P|416:224|404:324,1,127.5,2|0,3:0|0:0,0:0:0:0:
328,216,37690,2,0,P|284:212|228:216,1,85,2|0,3:0|0:0,0:0:0:0:
280,332,38030,1,0,3:0:0:0:
332,128,38201,2,0,P|336:84|332:28,1,85,2|0,3:0|3:0,0:0:0:0:
176,176,38542,2,0,P|132:180|76:176,1,85,2|0,3:0|3:0,0:0:0:0:
256,160,38883,2,0,P|250:221|256:300,1,127.5,2|0,3:0|0:0,0:0:0:0:
324,328,39224,2,0,P|392:300|432:292,2,85,2|0|0,3:0|0:0|3:0,0:0:0:0:
170,159,39735,6,0,P|168:235|176:312,1,152.999995330811,12|0,0:3|0:0,0:0:0:0:
364,216,40076,6,0,P|436:225|475:238,1,85,2|0,3:0|0:0,0:0:0:0:
264,188,40417,2,0,P|288:144|412:128,1,170,2|0,3:0|3:0,0:0:0:0:
296,296,40928,2,0,P|252:264|176:260,1,127.5,2|0,3:0|0:0,0:0:0:0:
112,296,41269,2,0,P|100:244|108:180,1,85,2|0,3:0|3:0,0:0:0:0:
172,32,41610,2,0,P|171:74|160:115,1,85,2|0,3:0|0:0,0:0:0:0:
280,16,41951,2,0,B|324:40|324:40|328:108|416:144,1,170,2|0,3:0|0:0,0:0:0:0:
324,300,42462,6,2,P|256:256|188:300,1,170,0|0,3:0|0:0,0:1:0:0:
131,120,42974,1,0,0:0:0:0:
129,196,43144,2,2,P|200:159|196:79,1,170,0|0,3:0|0:0,0:1:0:0:
380,120,43655,1,0,0:0:0:0:
314,80,43826,2,2,P|311:160|383:196,1,170,0|0,3:0|0:0,0:1:0:0:
256,336,44337,1,0,3:0:0:0:
324,300,44508,1,2,0:0:0:0:
284,261,44678,1,2,0:0:0:0:
228,261,44848,1,2,0:0:0:0:
188,298,45019,1,2,0:0:0:0:
246,156,45190,6,0,P|248:113|240:72,1,85,0|0,3:0|0:0,0:0:0:0:
126,160,45531,6,0,P|117:201|120:244,1,85,2|0,3:0|0:0,0:0:0:0:
344,156,45871,2,0,P|384:146|422:125,1,85,2|0,3:0|0:0,0:0:0:0:
248,108,46212,1,0,3:3:0:0:
196,204,46383,2,0,P|209:244|231:280,1,85,2|0,3:0|0:0,0:0:0:0:
332,328,46724,2,0,P|400:304|448:296,1,85,2|0,3:0|0:0,0:0:0:0:
256,140,47065,2,0,P|188:116|140:108,1,85,2|0,3:0|0:0,0:0:0:0:
120,308,47405,2,0,P|132:256|64:156,1,170,2|0,3:0|3:0,0:0:0:0:
220,256,47917,6,0,L|312:232,1,85,2|0,3:0|0:0,0:0:0:0:
192,340,48258,1,2,0:3:0:0:
384,184,48428,1,2,3:0:0:0:
276,92,48599,1,0,3:0:0:0:
224,92,48769,1,0,3:0:0:0:
184,112,48940,1,0,3:0:0:0:
132,112,49110,1,0,3:0:0:0:
224,256,49280,2,0,P|301:289|385:285,1,170,2|0,3:0|3:0,0:0:0:0:
320,196,49962,2,0,P|331:112|307:31,1,170,2|0,3:0|3:0,0:0:0:0:
152,116,50644,6,0,L|80:92,2,56.6666666666667,2|2|2,3:2|3:2|3:2,0:0:0:0:
112,184,50985,2,0,L|48:196,2,50.9999984436036,2|2|2,3:2|3:2|3:2,0:0:0:0:
111,262,51326,2,0,L|79:290,2,39.6666654561361,2|2|2,3:2|3:2|3:2,0:0:0:0:
149,330,51667,2,0,L|137:365,2,28.3333333333333,2|2|2,3:2|3:2|3:2,0:0:0:0:
215,369,52008,2,2,B|232:312|232:312|344:264,1,170,2|0,0:0|0:0,0:1:0:0:
408,104,52690,2,0,B|391:161|391:161|279:209,1,170
174,117,53371,6,0,P|135:100|93:92,1,85,4|0,0:0|0:0,0:0:0:0:
361,158,53883,2,0,P|404:123|442:67,1,85,4|0,0:0|0:0,0:0:0:0:
232,300,54394,2,0,P|241:355|271:416,1,85,4|0,0:0|0:0,0:0:0:0:
256,192,54735,1,0,3:0:0:0:
276,180,54820,1,0,3:0:0:0:
296,168,54905,1,0,3:0:0:0:
316,156,54991,1,0,3:0:0:0:
324,116,55076,1,0,3:0:0:0:
348,130,55161,1,0,3:0:0:0:
372,144,55247,1,0,3:0:0:0:
396,159,55332,1,0,3:0:0:0:
424,180,55417,2,0,L|444:272,1,85,2|0,0:0|0:0,0:0:0:0:
324,116,55758,2,0,L|354:-22,1,118.999996368408,2|0,0:0|0:0,0:0:0:0:
256,184,56099,6,0,P|196:160|80:152,1,178.499994552612,6|0,3:3|0:0,0:0:0:0:
16,180,56440,1,6,3:3:0:0:
48,64,56610,1,0,3:0:0:0:
135,226,56780,2,0,P|193:240|248:264,1,118.999996368408,6|0,0:3|0:0,0:0:0:0:
304,320,57121,1,2,0:3:0:0:
172,320,57292,1,0,3:3:0:0:
280,184,57462,1,2,3:0:0:0:
380,204,57633,1,2,3:0:0:0:
444,280,57803,1,2,3:0:0:0:
380,204,57974,1,0,3:0:0:0:
280,184,58144,2,0,P|238:142|218:86,2,118.999996368408,2|0|0,3:3|0:0|0:0,0:0:0:0:
308,88,58655,5,0,0:0:0:0:
204,216,58826,2,0,P|189:273|199:331,1,118.999996368408,6|0,3:3|0:0,0:0:0:0:
300,368,59167,1,4,3:3:0:0:
328,272,59337,2,0,P|362:223|412:193,1,118.999996368408,2|0,3:3|0:3,0:0:0:0:
512,224,59678,1,2,3:3:0:0:
432,296,59849,1,2,3:3:0:0:
308,152,60019,2,0,P|380:88|520:148,1,237.999992736817,6|0,3:0|0:0,0:0:0:0:
229,224,60530,2,0,P|213:166|223:108,1,118.999996368408,6|0,3:3|0:0,0:0:0:0:
412,192,60871,1,6,3:3:0:0:
280,320,61042,1,2,3:2:0:0:
202,326,61213,1,2,3:2:0:0:
235,255,61383,1,2,3:2:0:0:
364,312,61553,6,0,P|428:288|480:232,1,118.999996368408,6|0,3:3|0:0,0:0:0:0:
272,176,61894,2,0,P|300:113|297:37,1,118.999996368408,6|0,3:3|0:0,0:0:0:0:
110,144,62235,2,0,P|86:79|30:27,1,118.999996368408,6|0,3:3|0:0,0:0:0:0:
364,312,62576,2,0,P|428:288|480:232,1,118.999996368408,6|0,3:3|0:0,0:0:0:0:
228,216,62917,2,0,P|140:256|228:328,1,237.999992736817,6|0,3:3|0:0,0:0:0:0:
296,288,63428,2,0,P|354:292|408:318,1,118.999996368408,2|0,3:3|0:0,0:0:0:0:
213,332,63769,1,2,3:3:0:0:
296,288,63940,1,2,3:3:0:0:
332,204,64110,1,2,3:3:0:0:
161,165,64280,5,14,3:3:0:0:
213,332,64451,1,14,3:3:0:0:
420,196,64622,1,14,3:3:0:0:
249,157,64792,1,14,3:3:0:0:
301,324,64963,1,14,3:3:0:0:
508,188,65133,1,14,3:3:0:0:
337,149,65303,1,14,3:3:0:0:
389,316,65474,1,14,3:3:0:0:
432,128,65644,1,0,3:0:0:0:
424,116,65729,1,0,3:0:0:0:
416,104,65815,1,0,3:0:0:0:
408,92,65900,1,0,3:0:0:0:
400,80,65985,2,0,L|316:36,1,59.4999981842042,0|0,3:0|3:0,0:0:0:0:
178,66,66155,2,0,L|134:150,1,59.4999981842042,0|0,3:0|3:0,0:0:0:0:
335,142,66326,6,0,P|250:117|178:66,1,178.499994552612,2|0,0:0|0:0,0:0:0:0:
108,32,66667,2,0,L|43:154,1,118.999996368408,2|0,0:0|0:0,0:0:0:0:
120,304,67008,6,0,P|120:256|100:196,1,85,4|0,0:3|0:0,0:0:0:0:
256,84,67349,2,0,B|212:156|212:156|240:216|244:296,1,229.499992996216,4|0,0:0|0:0,0:0:0:0:
327,276,67690,2,0,P|320:217|304:160,1,118.999996368408,6|0,3:3|0:0,0:0:0:0:
88,188,68030,2,0,P|142:211|200:225,1,118.999996368408,2|0,3:3|0:0,0:0:0:0:
448,200,68371,1,6,3:3:0:0:
400,128,68542,1,0,3:0:0:0:
361,205,68712,1,2,3:3:0:0:
288,76,68883,1,2,3:3:0:0:
176,200,69053,2,0,P|160:264|172:328,2,118.999996368408,2|0|0,3:3|0:0|3:3,0:0:0:0:
288,76,69565,5,2,3:3:0:0:
267,260,69735,1,6,3:3:0:0:
116,148,69905,1,0,3:0:0:0:
302,170,70076,1,6,3:3:0:0:
175,226,70246,1,2,3:3:0:0:
192,88,70416,1,4,3:0:0:0:
302,170,70587,2,0,P|356:156|424:116,1,118.999996368408,2|0,3:3|0:0,0:0:0:0:
192,88,70928,2,0,P|105:162|176:226,1,237.999992736817,6|0,3:3|0:0,0:0:0:0:
240,300,71440,2,0,P|292:264|360:248,1,118.999996368408,2|0,3:3|0:0,0:0:0:0:
480,268,71780,1,2,3:3:0:0:
296,60,72121,5,2,3:0:0:0:
224,136,72292,2,0,B|164:168|164:168|0:84,1,237.999992736817,4|0,3:2|0:0,0:0:0:0:
168,80,72803,1,2,3:0:0:0:
100,224,72974,2,0,B|160:256|160:256|324:172,1,237.999992736817,4|0,0:1|0:0,0:0:0:0:
464,96,73485,1,2,3:0:0:0:
383,17,73655,2,0,B|352:88|352:88|422:232,1,237.999992736817,4|0,0:2|0:0,0:0:0:0:
188,168,74167,1,2,3:0:0:0:
269,89,74337,2,0,B|300:159|300:159|260:240,1,118.999996368408,4|0,0:1|0:0,0:0:0:0:
88,144,74678,5,2,3:0:0:0:
268,88,74849,1,0,0:0:0:0:
196,256,75019,2,0,B|256:292|256:292|344:240|414:289,1,237.999992736817,4|0,0:1|0:0,0:0:0:0:
344,192,75530,2,0,P|348:124|372:60,1,118.999996368408,2|0,3:3|0:0,0:0:0:0:
196,256,75871,2,0,P|213:312|215:371,1,118.999996368408,2|0,3:3|0:0,0:0:0:0:
112,348,76212,1,2,3:3:0:0:
256,184,76383,2,0,B|292:252|300:340|300:340|400:300,1,237.999992736817,4|0,3:3|0:0,0:0:0:0:
464,96,76894,1,4,3:3:0:0:
244,64,77065,6,0,P|257:90|264:119,1,42.5,2|0,0:0|0:0,0:0:0:0:
260,188,77405,1,0,0:0:0:0:
260,188,77576,1,0,0:0:0:0:
360,116,77746,2,0,P|351:144|335:169,1,42.5,2|0,0:0|0:0,0:0:0:0:
192,236,78258,1,4,0:0:0:0:
256,192,78343,12,0,80644,0:0:0:0:
136,200,80943,5,2,0:2:0:0:
196,136,81113,1,2,0:2:0:0:
184,52,81284,1,2,0:2:0:0:
136,200,81454,1,2,0:2:0:0:
148,284,81625,1,2,0:2:0:0:
228,232,81795,1,2,0:2:0:0:
240,316,81966,1,2,0:2:0:0:
268,152,82136,1,2,0:2:0:0:
280,68,82307,1,2,0:2:0:0:
348,116,82477,1,2,0:2:0:0:
426,84,82648,1,2,0:2:0:0:
268,152,82818,1,2,0:2:0:0:
336,204,82988,1,2,0:2:0:0:
348,288,83159,1,2,0:2:0:0:
316,72,83329,1,4,0:3:0:0:
256,192,83414,12,0,87121,0:0:0:0:
