osu file format v14

[General]
AudioFilename: 4Seasons.mp3
AudioLeadIn: 0
PreviewTime: 147236
Countdown: 0
SampleSet: Soft
StackLeniency: 0.7
Mode: 0
LetterboxInBreaks: 1
WidescreenStoryboard: 1

[Editor]
DistanceSpacing: 0.6
BeatDivisor: 4
GridSize: 4
TimelineZoom: 1.9

[Metadata]
Title:4 Seasons
TitleUnicode:4 Seasons
Artist:Sasaki Sayaka
ArtistUnicode:佐咲紗花
Creator:Pururut
Version:Insane
Source:ハルキス
Tags:GIGA galgame haru kiss Spring Breeze
BeatmapID:914045
BeatmapSetID:422895

[Difficulty]
HPDrainRate:7
CircleSize:3.6
OverallDifficulty:7.4
ApproachRate:9
SliderMultiplier:1.8
SliderTickRate:1

[Events]
//Background and Video events
0,0,"bg.jpg",0,0
//Break Periods
//Storyboard Layer 0 (Background)
//Storyboard Layer 1 (Fail)
//Storyboard Layer 2 (Pass)
//Storyboard Layer 3 (Foreground)
//Storyboard Sound Samples

[TimingPoints]
334,326.086956521739,4,1,0,100,1,0
1640,-133.333333333333,4,2,1,60,0,0
11749,-100,4,2,1,60,0,0
19899,-100,4,2,1,40,0,0
20388,-100,4,2,1,60,0,0
22834,-133.333333333333,4,2,1,50,0,0
27725,-133.333333333333,4,2,1,30,0,0
28051,-133.333333333333,4,2,1,50,0,0
32942,-100,4,2,1,50,0,0
55116,-100,4,2,1,60,0,0
67999,-100,4,2,1,80,0,1
91477,-100,4,2,1,80,0,0
147562,-100,4,2,1,80,0,1
171203,-100,4,2,1,80,0,0
215388,-100,4,2,1,80,0,1
238866,-100,4,2,1,80,0,0

[Colours]
Combo1 : 255,128,255
Combo2 : 255,255,128
Combo3 : 0,255,64
Combo4 : 255,128,128

[HitObjects]
144,212,1640,6,0,P|136:264|72:316,1,135.000005149842,2|0,0:0|0:0,0:0:0:0:
40,104,2129,2,0,L|32:192,1,67.5000025749208
200,336,2455,5,0,0:0:0:0:
284,292,2618,1,0,0:0:0:0:
368,336,2781,1,0,0:0:0:0:
368,336,2944,6,0,P|428:348|516:312,1,135.000005149842,2|0,0:0|0:0,0:0:0:0:
284,200,3433,2,0,P|248:212|144:192,1,135.000005149842
376,104,3922,2,0,P|408:152|408:188,1,67.5000025749208
433,34,4249,6,0,P|402:135|416:176,1,135.000005149842,2|0,0:0|0:0,0:0:0:0:
368,280,4738,2,0,P|320:308|236:304,1,135.000005149842
472,312,5227,1,0,0:0:0:0:
472,312,5390,1,0,0:0:0:0:
42,265,5716,6,0,P|50:305|6:385,1,135.000005149842,2|0,0:0|0:0,0:0:0:0:
200,348,6205,2,0,P|244:348|276:364,1,67.5000025749208
434,275,6531,2,0,P|394:283|346:271,1,67.5000025749208
16,144,6857,6,0,P|60:124|148:144,1,135.000005149842,2|0,0:0|0:0,0:0:0:0:
416,184,7345,2,0,P|372:204|284:184,1,135.000005149842,2|0,0:0|0:0,0:0:0:0:
348,92,7835,1,0,0:0:0:0:
280,8,7998,1,0,0:0:0:0:
192,256,8161,6,0,L|120:248,1,67.5000025749208,2|0,0:0|0:0,0:0:0:0:
292,332,8487,2,0,L|364:340,1,67.5000025749208
76,312,8814,2,0,P|32:312|0:304,1,67.5000025749208,2|0,0:0|0:0,0:0:0:0:
408,284,9139,2,0,P|452:284|484:292,1,67.5000025749208
257,182,9465,5,2,0:0:0:0:
248,212,10932,6,0,L|252:288,2,67.5000025749208
344,132,11421,1,0,1:0:0:0:
308,352,11585,1,4,1:0:0:0:
40,72,11911,6,0,L|56:196,1,90,6|0,0:1|0:0,0:0:0:0:
144,228,12237,2,0,L|140:328,1,90,0|2,0:0|1:1,0:0:0:0:
76,372,12481,1,0,0:0:0:0:
76,372,12563,1,0,0:0:0:0:
280,212,12726,1,2,0:1:0:0:
332,344,12889,2,0,L|260:332,1,45
420,284,13052,1,0,0:0:0:0:
420,284,13215,6,0,P|408:244|420:172,1,90,2|0,0:1|0:0,0:0:0:0:
334,34,13541,2,0,P|346:74|334:146,1,90,2|2,0:1|1:1,0:0:0:0:
452,80,13867,1,0,0:0:0:0:
280,212,14030,5,2,0:1:0:0:
64,103,14193,1,2,0:1:0:0:
263,83,14356,1,0,1:0:0:0:
38,295,14519,6,0,L|140:314,1,90,4|0,0:0|0:0,0:0:0:0:
479,261,14845,2,0,P|413:285|354:273,1,90,0|0,0:0|1:0,0:0:0:0:
189,199,15171,1,2,0:1:0:0:
435,140,15335,1,0,0:0:0:0:
335,353,15498,1,0,0:0:0:0:
228,97,15661,2,0,L|225:46,1,45,2|0,1:1|0:0,0:0:0:0:
305,182,15824,6,0,L|299:292,1,90,4|0,0:0|0:0,0:0:0:0:
35,369,16150,1,0,0:0:0:0:
194,260,16313,1,0,0:0:0:0:
194,260,16394,1,0,0:0:0:0:
194,260,16476,1,0,0:0:0:0:
64,206,16639,1,0,0:0:0:0:
199,357,16802,1,0,0:0:0:0:
385,323,16965,1,0,0:0:0:0:
104,311,17128,1,0,1:0:0:0:
104,311,17210,1,0,1:0:0:0:
104,311,17291,1,0,1:0:0:0:
440,225,17618,5,0,0:0:0:0:
440,225,17781,2,0,P|396:231|331:209,1,90
109,73,18107,1,0,1:0:0:0:
187,237,18270,2,0,L|180:143,1,90
60,284,18596,1,0,0:0:0:0:
283,366,18759,2,0,L|273:251,1,90
437,180,19085,5,0,0:0:0:0:
368,356,19249,1,0,0:0:0:0:
159,326,19412,1,0,0:0:0:0:
337,119,19575,2,0,L|338:215,1,90
57,194,19901,6,0,P|107:201|180:170,2,90,4|0|8,0:0|0:0|0:0,0:0:0:0:
228,104,20390,1,0,0:0:0:0:
261,263,20553,2,0,L|249:363,1,90
344,192,20877,1,0,0:0:0:0:
496,288,21040,6,0,P|528:228|496:108,1,180,4|0,0:0|0:0,0:0:0:0:
168,296,21529,2,0,L|64:280,1,90,0|0,1:0|0:0,0:0:0:0:
24,108,21855,2,0,L|132:120,1,90
272,360,22181,5,0,0:1:0:0:
0,212,22344,1,0,0:0:0:0:
224,152,22507,1,4,0:1:0:0:
236,160,22834,6,0,L|232:232,1,67.5000025749208
396,364,23160,2,0,P|408:292|376:220,1,135.000005149842,2|0,0:3|0:0,0:0:0:0:
196,328,23649,1,0,0:0:0:0:
196,328,23812,2,0,L|32:312,1,135.000005149842
144,208,24301,1,0,0:0:0:0:
144,208,24464,2,0,P|152:152|124:64,1,135.000005149842,2|0,0:3|0:0,0:0:0:0:
388,88,24953,5,0,0:0:0:0:
388,88,25116,2,0,L|376:176,1,67.5000025749208
288,244,25442,2,0,L|296:312,1,67.5000025749208
424,312,25768,2,0,P|412:352|392:380,1,67.5000025749208,2|0,3:0|0:0,0:0:0:0:
176,235,26094,2,0,L|180:168,1,67.5000025749208
264,12,26420,2,0,P|292:88|272:160,1,135.000005149842,2|0,0:0|0:0,0:0:0:0:
68,320,27073,2,0,L|0:316,1,67.5000025749208,2|0,0:3|0:0,0:0:0:0:
148,248,27399,1,0,0:0:0:0:
216,368,27562,1,0,0:0:0:0:
282,139,27725,6,0,L|290:275,1,135.000005149842,4|0,0:0|0:0,0:0:0:0:
336,336,28132,1,0,0:0:0:0:
336,336,28214,1,0,0:0:0:0:
85,367,28377,2,0,P|152:382|225:362,1,135.000005149842
0,306,28866,5,0,0:0:0:0:
150,263,29029,2,0,B|165:224|165:224|152:129,1,135.000005149842
254,30,29518,2,0,L|267:124,1,67.5000025749208
282,202,29844,1,0,0:0:0:0:
465,164,30007,1,0,0:0:0:0:
350,46,30170,1,0,0:0:0:0:
461,117,30334,6,0,B|448:153|448:153|464:262,1,135.000005149842
369,372,30823,2,0,P|366:319|348:278,1,67.5000025749208
189,268,31149,1,0,0:0:0:0:
259,340,31312,1,0,0:0:0:0:
287,242,31475,5,0,0:0:0:0:
214,169,31638,2,0,L|141:178,1,67.5000025749208
11,286,31964,2,0,L|84:278,1,67.5000025749208
289,250,32290,1,0,0:0:0:0:
165,92,32412,2,0,L|160:65,11,16.8750006437302
300,103,32942,6,0,P|295:25|287:13,1,90,4|0,0:0|0:0,0:0:0:0:
378,222,33268,2,0,P|407:176|418:115,1,90
227,207,33594,1,0,0:0:0:0:
360,329,33757,2,0,L|484:312,2,90
176,384,34247,6,0,L|62:370,1,90
386,235,34573,1,0,0:0:0:0:
191,157,34736,2,0,L|193:261,1,90
318,99,35062,1,0,0:0:0:0:
279,286,35225,1,0,0:0:0:0:
98,223,35388,1,0,0:0:0:0:
98,223,35551,6,0,L|106:317,1,90
367,288,35877,2,0,P|322:296|272:282,1,90,0|2,0:0|0:3,0:0:0:0:
222,75,36203,2,0,L|218:182,1,90
456,244,36529,2,0,L|462:339,1,90
314,377,36855,1,0,0:0:0:0:
314,377,36937,1,0,0:0:0:0:
314,377,37018,1,0,0:0:0:0:
409,173,37181,6,0,L|408:64,1,90,2|0,0:3|0:0,0:0:0:0:
339,259,37507,1,0,0:0:0:0:
302,123,37670,1,0,0:0:0:0:
242,310,37834,2,0,P|193:315|142:301,1,90
23,71,38160,2,0,P|114:61|163:76,1,135,4|0,0:0|0:0,0:0:0:0:
208,148,38486,5,0,0:0:0:0:
92,216,38649,1,0,0:0:0:0:
310,224,38812,2,0,P|354:228|427:213,1,90
435,51,39138,2,0,P|429:114|442:147,1,90
468,363,39464,2,0,P|474:300|461:267,1,90
399,222,39709,1,0,0:0:0:0:
399,222,39790,1,0,0:0:0:0:
287,333,39953,6,0,B|189:348|134:337|134:337|177:321,1,180
362,267,40442,1,0,0:0:0:0:
362,267,40524,1,0,0:0:0:0:
362,267,40605,2,0,L|353:167,1,90
112,52,40931,6,0,L|120:156,1,90
228,208,41176,1,0,0:0:0:0:
228,208,41257,2,0,L|212:312,1,90
72,348,41584,1,0,0:0:0:0:
120,252,41747,1,0,0:0:0:0:
296,368,41910,6,0,B|384:380|448:348|448:348|424:332,1,180
344,264,42399,2,0,P|332:216|340:176,1,90
468,100,42725,1,0,0:0:0:0:
432,220,42888,1,0,0:0:0:0:
224,164,43051,1,0,0:0:0:0:
376,0,43214,6,0,P|388:48|380:88,1,90
210,74,43540,2,0,L|226:182,1,90
132,248,43866,1,0,0:0:0:0:
128,20,44029,1,0,0:0:0:0:
304,120,44192,1,0,0:0:0:0:
300,244,44355,1,0,0:0:0:0:
400,316,44518,2,0,P|448:316|492:292,1,90
272,360,44763,5,0,0:0:0:0:
272,360,44844,2,0,L|156:368,1,90
40,184,45170,1,0,0:0:0:0:
192,264,45334,2,0,L|76:276,1,90
264,176,45660,1,0,0:0:0:0:
368,336,45823,6,0,L|356:240,1,90
400,8,46149,1,0,0:0:0:0:
460,124,46312,2,0,P|464:172|460:220,1,90
264,304,46638,2,0,L|168:296,1,90
44,84,46964,1,0,0:0:0:0:
44,84,47045,1,0,0:0:0:0:
44,84,47127,1,0,0:0:0:0:
128,192,47290,6,0,P|84:216|24:216,1,90,4|0,0:0|0:0,0:0:0:0:
216,104,47616,1,0,0:0:0:0:
304,308,47779,2,0,L|408:304,2,90
200,356,48268,1,0,0:0:0:0:
384,216,48431,1,0,0:0:0:0:
348,384,48594,1,0,0:0:0:0:
296,172,48757,6,0,L|296:72,1,90
91,211,49083,1,0,0:0:0:0:
49,45,49247,1,0,0:0:0:0:
175,62,49410,2,0,L|174:171,1,90
24,285,49736,1,0,0:0:0:0:
24,285,49817,1,0,0:0:0:0:
24,285,49899,6,0,L|28:403,1,90
147,282,50225,1,0,0:0:0:0:
258,363,50388,1,0,0:0:0:0:
356,217,50551,2,0,L|360:331,1,90
276,138,50877,1,0,0:0:0:0:
445,114,51040,1,0,0:0:0:0:
481,262,51203,5,0,0:0:0:0:
481,262,51366,2,0,L|475:368,2,90
290,70,51855,1,0,0:0:0:0:
275,262,52018,1,0,0:0:0:0:
405,96,52181,1,0,0:0:0:0:
193,187,52344,1,0,0:0:0:0:
377,286,52507,6,0,L|370:179,1,90
119,266,52833,1,0,0:0:0:0:
289,34,52997,2,0,L|285:149,1,90
64,226,53323,1,0,0:0:0:0:
158,105,53486,1,0,0:0:0:0:
257,217,53649,1,0,0:0:0:0:
67,342,53812,5,0,0:0:0:0:
159,301,53975,2,0,L|164:185,1,90
276,11,54301,1,0,0:0:0:0:
358,84,54464,2,0,L|354:200,1,90
352,296,54790,1,0,0:0:0:0:
465,345,54953,1,0,0:0:0:0:
265,383,55116,6,0,P|204:390|139:365,1,90
130,176,55442,2,0,P|142:234|127:282,1,90
41,328,55768,1,0,0:0:0:0:
41,328,55850,1,0,0:0:0:0:
41,328,55931,1,0,0:0:0:0:
55,124,56094,1,0,0:0:0:0:
239,244,56257,1,0,0:0:0:0:
262,368,56420,6,0,L|394:354,1,90
480,129,56747,2,0,L|372:138,1,90
512,258,57073,1,0,0:0:0:0:
276,154,57236,1,0,0:0:0:0:
233,376,57399,1,0,0:0:0:0:
233,376,57562,1,0,0:0:0:0:
420,276,57725,6,0,L|298:274,1,90
77,207,58051,2,0,L|169:209,1,90
407,167,58377,1,0,0:0:0:0:
237,23,58540,1,0,0:0:0:0:
237,23,58703,1,0,0:0:0:0:
126,321,58866,6,0,L|229:301,2,90
44,384,59355,1,0,0:0:0:0:
157,207,59518,1,0,0:0:0:0:
341,331,59681,1,0,0:0:0:0:
208,364,59844,5,0,0:0:0:0:
306,201,60007,1,0,0:0:0:0:
479,286,60170,1,0,0:0:0:0:
479,286,60333,6,0,L|471:182,1,90
318,31,60660,2,0,P|320:85|344:132,1,90
436,99,60986,1,0,0:0:0:0:
436,99,61149,1,0,0:0:0:0:
214,140,61312,1,0,0:0:0:0:
254,347,61475,1,0,0:0:0:0:
369,206,61638,6,0,L|356:325,2,90
121,135,62127,2,0,L|114:45,2,90
158,340,62616,6,0,P|82:345|16:311,1,135
261,260,62942,6,0,L|266:354,1,90
364,153,63268,2,0,L|358:59,1,90
142,151,63594,2,0,P|200:152|244:128,1,90
476,13,63920,2,0,L|486:128,1,90
445,289,64247,5,0,0:0:0:0:
486,384,64410,2,0,P|434:393|389:376,1,90
133,287,64736,1,0,0:0:0:0:
188,384,64899,2,0,L|304:379,1,90
454,256,65225,1,0,0:0:0:0:
283,44,65388,6,0,B|255:92|280:143|280:143|330:160|331:231,1,180
205,285,65877,1,0,0:0:0:0:
442,217,66040,1,0,0:0:0:0:
283,44,66203,5,0,0:0:0:0:
102,216,66366,1,0,0:0:0:0:
128,210,66448,1,0,0:0:0:0:
154,204,66529,1,0,0:0:0:0:
180,200,66611,1,0,0:0:0:0:
206,195,66692,1,0,0:0:0:0:
