osu file format v14

[General]
AudioFilename: 4Seasons.mp3
AudioLeadIn: 0
PreviewTime: 67833
Countdown: 0
SampleSet: Soft
StackLeniency: 0.7
Mode: 0
LetterboxInBreaks: 0
WidescreenStoryboard: 1

[Editor]
DistanceSpacing: 1.2
BeatDivisor: 2
GridSize: 4
TimelineZoom: 1.200006

[Metadata]
Title:4 Seasons
TitleUnicode:4 Seasons
Artist:Sasaki Sayaka
ArtistUnicode:佐咲紗花
Creator:Narcissu
Version:Normal
Source:ハルキス
Tags:GIGA galgame haru kiss Spring Breeze
BeatmapID:1790907
BeatmapSetID:857149

[Difficulty]
HPDrainRate:4
CircleSize:3
OverallDifficulty:4
ApproachRate:5
SliderMultiplier:0.999999999999999
SliderTickRate:1

[Events]
//Background and Video events
0,0,"bg.jpg",0,0
//Break Periods
2,194881,203916
//Storyboard Layer 0 (Background)
//Storyboard Layer 1 (Fail)
//Storyboard Layer 2 (Pass)
//Storyboard Layer 3 (Foreground)
//Storyboard Sound Samples

[TimingPoints]
1638,326.086956521739,4,2,1,50,1,0
1638,-133.333333333333,4,2,1,50,0,0
2453,-133.333333333333,4,2,1,20,0,0
2942,-133.333333333333,4,2,1,40,0,0
4246,-133.333333333333,4,2,1,50,0,0
6203,-133.333333333333,4,2,1,40,0,0
6855,-133.333333333333,4,2,1,50,0,0
7344,-133.333333333333,4,2,1,40,0,0
8159,-133.333333333333,4,2,1,40,0,0
9464,-133.333333333333,4,2,1,50,0,0
10768,-133.333333333333,4,2,1,60,0,0
11909,-125,4,2,1,60,0,1
11991,-125,4,2,1,60,0,0
22507,-133.333333333333,4,2,1,60,0,0
32942,-125,4,2,1,60,0,0
67996,-125,4,2,1,60,0,1
91148,-125,4,2,1,60,0,0
91474,-125,4,2,1,60,0,1
91556,-125,4,2,1,60,0,0
102072,-125,4,2,1,60,0,0
147561,-125,4,2,1,60,0,1
171203,-125,4,2,1,60,0,0
181474,-125,4,2,1,60,0,1
181556,-125,4,2,1,60,0,0
194681,-125,4,2,1,60,0,0
205116,-125,4,2,1,60,0,0
215387,-125,4,2,1,60,0,1
238540,-125,4,2,1,60,0,0
238866,-125,4,2,1,60,0,1
238947,-125,4,2,1,60,0,0

[Colours]
Combo1 : 255,0,0
Combo2 : 255,255,128
Combo3 : 0,255,64
Combo4 : 255,128,128
Combo5 : 255,128,255

[HitObjects]
48,132,1638,6,0,P|24:224|108:344,1,225.000008583069
172,300,2942,2,0,L|292:292,2,112.500004291534
176,212,4246,6,0,P|176:156|156:76,1,112.500004291534
292,56,5224,2,0,P|292:112|312:192,1,112.500004291534
432,208,6203,1,0,0:0:0:0:
444,296,6529,1,0,0:0:0:0:
360,264,6855,6,0,P|296:264|224:288,1,112.500004291534
28,324,8159,2,0,P|60:340|116:336,1,75.000002861023
84,252,8811,2,0,P|113:232|138:181,1,75.000002861023
48,172,9464,5,0,0:0:0:0:
45,134,11420,6,0,L|49:190,1,37.5000014305115
140,148,11909,6,0,L|280:132,1,120
332,72,12724,1,0,0:0:0:0:
332,72,12887,1,0,0:0:0:0:
424,100,13214,2,0,P|456:152|452:232,1,120
404,288,14029,1,0,0:0:0:0:
404,288,14192,1,0,0:0:0:0:
316,244,14518,6,0,B|236:244|236:244|188:272,1,120
124,320,15333,2,0,P|80:316|32:292,1,79.9999999999999
12,268,15822,2,0,L|8:124,1,120
72,76,16637,1,0,0:0:0:0:
164,108,16964,1,0,0:0:0:0:
244,52,17290,6,0,P|312:52|376:64,1,120
404,200,18268,2,0,P|336:200|272:188,1,120
164,108,19246,2,0,P|156:64|128:28,1,79.9999999999999
68,104,19898,5,0,0:0:0:0:
36,196,20224,1,0,0:0:0:0:
132,204,20551,2,0,P|148:244|148:308,1,79.9999999999999
136,328,21040,2,0,L|284:320,1,120
352,316,21855,1,0,0:0:0:0:
448,308,22181,1,0,0:0:0:0:
480,216,22507,22,0,P|472:136|432:72,1,150.000005722046
256,80,23811,2,0,P|249:154|212:218,1,150.000005722046
116,68,25116,6,0,P|148:100|164:144,1,75.000002861023
72,148,25768,2,0,P|83:191|72:240,1,75.000002861023
36,300,26420,2,0,P|88:348|188:352,1,150.000005722046
228,296,27398,1,0,0:0:0:0:
308,332,27724,6,0,L|476:324,1,150.000005722046
500,148,29029,2,0,L|332:156,1,150.000005722046
200,56,30333,6,0,L|212:148,2,75.000002861023
112,48,31311,1,0,0:0:0:0:
24,36,31637,2,0,L|16:132,1,75.000002861023
12,200,32290,1,0,0:0:0:0:
12,200,32453,1,0,0:0:0:0:
4,332,32942,22,0,P|60:300|132:308,1,120
248,348,33920,1,0,0:0:0:0:
336,304,34246,1,0,0:0:0:0:
424,340,34572,2,0,P|476:280|464:192,1,160
400,136,35551,6,0,L|312:128,1,79.9999999999999
268,48,36203,2,0,L|168:52,1,79.9999999999999
108,104,36855,2,0,P|128:144|132:204,1,79.9999999999999
52,228,37507,2,0,P|33:263|26:302,1,79.9999999999999
120,292,38159,6,0,L|264:288,1,120
384,284,39137,1,0,0:0:0:0:
480,280,39464,1,0,0:0:0:0:
432,196,39790,2,0,L|444:32,1,160
352,64,40768,2,0,B|272:60|272:60|224:20,1,120
152,68,41583,1,0,0:0:0:0:
64,32,41909,6,0,B|36:64|36:64|24:152,1,120
100,200,42724,2,0,L|104:296,1,79.9999999999999
140,312,43214,2,0,P|216:288|284:304,1,120
340,336,44029,1,0,0:0:0:0:
424,292,44355,1,0,0:0:0:0:
340,244,44681,22,0,P|336:160|404:120,1,160
248,128,45822,2,0,P|196:96|112:108,1,120
68,28,46637,2,0,P|44:60|36:112,1,79.9999999999999
88,176,47290,6,0,B|96:284|96:284|56:348,1,160
184,240,48431,2,0,L|196:384,2,120
304,320,49898,6,0,P|380:320|448:260,1,160
332,176,51040,2,0,L|328:40,1,120
236,36,51855,2,0,L|228:144,1,79.9999999999999
136,136,52507,6,0,P|80:108|-4:120,1,120
48,252,53485,2,0,P|104:280|188:268,1,120
292,220,54464,1,0,0:0:0:0:
300,316,54790,1,0,0:0:0:0:
396,320,55116,22,0,L|484:324,1,79.9999999999999
468,228,55768,2,0,L|380:224,1,79.9999999999999
428,136,56420,2,0,P|428:76|392:20,1,120
256,52,57398,1,0,0:0:0:0:
172,100,57724,6,0,P|125:98|80:72,1,79.9999999999999
12,136,58377,2,0,L|4:244,1,79.9999999999999
32,256,58866,2,0,P|92:236|168:256,1,120
192,332,59681,1,0,0:0:0:0:
288,324,60007,1,0,0:0:0:0:
384,316,60333,6,0,L|392:208,1,79.9999999999999
468,180,60985,2,0,L|476:72,1,79.9999999999999
384,68,61637,2,0,P|352:88|300:96,1,79.9999999999999
216,72,62290,2,0,P|184:52|132:44,1,79.9999999999999
148,140,62942,5,0,0:0:0:0:
63,257,63431,1,0,0:0:0:0:
200,213,63920,1,0,0:0:0:0:
63,168,64409,1,0,0:0:0:0:
148,285,64898,2,0,P|188:300|232:296,1,79.9999999999999
268,280,65387,6,0,B|368:272|456:312|456:312|424:320|392:320,1,240
348,244,66692,2,0,P|332:136|368:8,1,240
292,72,67996,6,0,L|156:64,1,120
76,56,68811,1,0,0:0:0:0:
116,144,69137,1,0,0:0:0:0:
116,144,69301,2,0,P|108:224|72:268,1,120
52,288,69953,1,0,0:0:0:0:
184,344,70442,1,0,0:0:0:0:
184,344,70605,6,0,L|328:336,1,120
344,252,71420,1,0,0:0:0:0:
400,332,71746,1,0,0:0:0:0:
400,332,71909,2,0,P|432:296|432:212,1,120
416,184,72561,2,0,L|424:56,1,120
428,16,73214,6,0,P|368:36|288:20,1,120
228,80,74029,1,0,0:0:0:0:
140,40,74355,1,0,0:0:0:0:
140,40,74518,2,0,B|60:44|60:44|20:68,1,120
20,112,75170,1,0,0:0:0:0:
116,220,75659,1,0,0:0:0:0:
48,288,75985,6,0,P|148:308|204:264,1,160
288,272,76964,1,0,0:0:0:0:
288,272,77127,2,0,L|440:260,1,120
448,176,77942,1,0,0:0:0:0:
432,80,78268,1,0,0:0:0:0:
432,80,78431,22,0,L|252:68,1,160
180,100,79409,1,0,0:0:0:0:
120,24,79735,2,0,P|84:80|92:144,1,120
112,172,80387,1,0,0:0:0:0:
44,300,80877,1,0,0:0:0:0:
44,300,81040,6,0,P|100:276|180:288,1,120
240,328,81855,1,0,0:0:0:0:
240,328,82018,1,0,0:0:0:0:
320,272,82344,2,0,L|452:264,1,120
488,260,82996,2,0,L|492:128,1,120
432,64,83811,6,0,P|400:92|348:96,1,79.9999999999999
284,156,84464,2,0,P|243:142|214:99,1,79.9999999999999
200,72,84953,2,0,L|56:60,1,120
92,156,85768,1,0,0:0:0:0:
20,220,86094,1,0,0:0:0:0:
20,220,86257,6,0,P|12:280|44:340,1,120
132,340,87072,2,0,L|148:236,1,79.9999999999999
192,260,87561,2,0,L|328:256,1,120
388,312,88377,2,0,L|484:300,1,79.9999999999999
476,208,89029,5,0,0:0:0:0:
444,68,89518,1,0,0:0:0:0:
332,160,90007,1,0,0:0:0:0:
280,80,90333,2,0,B|204:88|204:88|136:56|136:56|60:64,1,200
116,152,91474,6,0,P|112:224|64:280,1,120
4,308,92289,1,0,0:0:0:0:
4,308,92452,1,0,0:0:0:0:
84,360,92779,2,0,L|208:356,1,120
300,352,93594,1,0,0:0:0:0:
300,352,93757,1,0,0:0:0:0:
396,344,94083,6,0,B|416:266|416:266|402:213,1,120
464,152,94898,2,0,P|426:137|387:134,1,79.9999999999999
340,148,95387,2,0,P|284:132|244:76,1,120
156,60,96202,1,0,0:0:0:0:
96,136,96529,1,0,0:0:0:0:
148,216,96855,6,0,P|148:284|136:348,1,120
0,300,97833,2,0,P|0:232|12:168,1,120
92,64,98811,2,0,L|180:56,1,79.9999999999999
268,48,99463,5,0,0:0:0:0:
340,108,99789,1,0,0:0:0:0:
416,48,100116,2,0,P|432:88|432:152,1,79.9999999999999
420,168,100605,2,0,L|428:316,1,120
352,348,101420,1,0,0:0:0:0:
256,340,101746,1,0,0:0:0:0:
160,332,102072,22,0,P|116:264|120:184,1,160
184,116,103051,1,0,0:0:0:0:
120,44,103377,2,0,P|160:24|216:24,1,79.9999999999999
272,76,104029,1,0,0:0:0:0:
360,40,104355,1,0,0:0:0:0:
436,96,104681,6,0,L|448:196,1,79.9999999999999
456,272,105333,2,0,L|468:372,1,79.9999999999999
372,324,105985,2,0,L|224:316,1,120
172,268,106801,1,0,0:0:0:0:
84,308,107127,1,0,0:0:0:0:
84,308,107290,6,0,P|44:244|60:152,1,160
136,112,108268,1,0,0:0:0:0:
220,156,108594,2,0,L|344:152,1,120
436,148,109409,1,0,0:0:0:0:
388,64,109735,1,0,0:0:0:0:
388,64,109898,6,0,L|256:48,1,120
124,32,110877,2,0,P|96:88|96:152,1,120
240,148,111855,1,0,0:0:0:0:
220,244,112181,1,0,0:0:0:0:
128,276,112507,22,0,P|108:316|112:380,1,79.9999999999999
200,336,113159,2,0,L|308:332,1,79.9999999999999
376,328,113811,1,0,0:0:0:0:
472,324,114137,1,0,0:0:0:0:
424,240,114464,2,0,L|436:136,1,79.9999999999999
380,80,115116,6,0,P|348:108|284:116,1,79.9999999999999
300,212,115768,2,0,P|259:198|220:146,1,79.9999999999999
224,76,116420,2,0,L|140:68,1,79.9999999999999
80,140,117072,2,0,L|-4:132,1,79.9999999999999
20,228,117724,5,0,0:0:0:0:
40,320,118051,1,0,0:0:0:0:
136,304,118377,2,0,P|180:308|224:340,1,79.9999999999999
304,300,119029,2,0,P|392:320|476:292,1,160
476,208,120007,1,0,0:0:0:0:
488,112,120333,2,0,L|356:100,1,120
328,12,121148,1,0,0:0:0:0:
272,92,121474,6,0,B|240:120|240:120|152:132,1,120
76,88,122289,2,0,L|72:180,1,79.9999999999999
68,216,122779,2,0,P|40:260|44:328,1,120
132,292,123594,1,0,0:0:0:0:
220,328,123920,1,0,0:0:0:0:
304,284,124246,22,0,L|480:276,1,160
440,136,125387,2,0,L|304:128,1,120
224,120,126202,2,0,L|216:36,1,79.9999999999999
120,32,126855,6,0,B|116:136|116:136|64:192,1,160
144,304,127996,2,0,P|88:280|0:292,2,120
284,344,129463,6,0,P|348:296|448:304,1,160
364,164,130605,2,0,L|368:24,1,120
276,68,131420,2,0,L|268:176,1,79.9999999999999
260,244,132072,6,0,P|204:272|120:260,1,120
56,160,133050,2,0,P|112:132|196:144,1,120
260,244,134029,1,0,0:0:0:0:
312,164,134355,1,0,0:0:0:0:
400,204,134681,22,0,L|488:208,1,79.9999999999999
472,112,135333,2,0,L|384:108,1,79.9999999999999
304,68,135985,2,0,P|252:32|176:40,1,120
68,92,136964,1,0,0:0:0:0:
160,120,137289,6,0,P|176:168|176:220,1,79.9999999999999
84,188,137942,2,0,P|73:237|47:282,1,79.9999999999999
28,300,138431,2,0,P|96:296|164:316,1,120
228,356,139246,1,0,0:0:0:0:
320,324,139572,1,0,0:0:0:0:
412,356,139898,6,0,L|420:248,1,79.9999999999999
492,216,140550,2,0,L|500:108,1,79.9999999999999
456,48,141202,2,0,P|424:28|372:20,1,79.9999999999999
344,108,141855,2,0,P|312:128|260:136,1,79.9999999999999
176,120,142507,5,0,0:0:0:0:
59,35,142996,1,0,0:0:0:0:
103,172,143485,1,0,0:0:0:0:
148,35,143974,1,0,0:0:0:0:
31,120,144463,2,0,P|16:160|20:204,1,79.9999999999999
40,240,144952,6,0,B|124:220|184:284|184:284|232:260|288:272,1,240
244,364,146257,2,0,P|348:316|344:204,1,240
252,172,147561,6,0,L|244:52,1,120
148,36,148376,1,0,0:0:0:0:
136,132,148702,1,0,0:0:0:0:
136,132,148866,2,0,L|16:136,1,120
8,184,149518,1,0,0:0:0:0:
104,292,150007,1,0,0:0:0:0:
104,292,150170,6,0,P|168:272|248:284,1,120
300,332,150985,1,0,0:0:0:0:
396,324,151311,1,0,0:0:0:0:
396,324,151474,2,0,B|480:312|480:312|512:264,1,120
504,236,152126,2,0,L|512:108,1,120
476,84,152779,6,0,P|408:96|344:64,1,120
284,20,153594,1,0,0:0:0:0:
200,68,153920,1,0,0:0:0:0:
200,68,154083,2,0,B|120:64|120:64|80:40,1,120
44,20,154735,1,0,0:0:0:0:
12,160,155224,1,0,0:0:0:0:
104,180,155550,6,0,L|108:356,1,160
200,316,156529,1,0,0:0:0:0:
200,316,156692,2,0,P|268:320|328:364,1,120
384,284,157507,1,0,0:0:0:0:
476,312,157833,1,0,0:0:0:0:
476,312,157996,22,0,P|508:252|480:148,1,160
396,156,158974,1,0,0:0:0:0:
448,76,159300,2,0,L|320:60,1,120
280,56,159952,1,0,0:0:0:0:
136,44,160442,1,0,0:0:0:0:
136,44,160605,6,0,P|160:100|148:180,1,120
60,168,161420,1,0,0:0:0:0:
60,168,161583,1,0,0:0:0:0:
112,248,161909,2,0,L|244:240,1,120
260,280,162561,2,0,L|392:284,1,120
436,360,163376,6,0,P|464:328|468:276,1,79.9999999999999
432,204,164029,2,0,P|418:163|375:134,1,79.9999999999999
344,136,164518,2,0,L|332:-8,1,120
240,40,165333,1,0,0:0:0:0:
148,12,165659,1,0,0:0:0:0:
148,12,165822,6,0,B|128:92|128:92|132:148,1,120
36,128,166637,2,0,L|48:232,1,79.9999999999999
56,256,167126,2,0,P|108:272|192:252,1,120
260,300,167942,2,0,P|300:288|356:288,1,79.9999999999999
404,352,168594,5,0,0:0:0:0:
509,254,169083,1,0,0:0:0:0:
376,204,169572,1,0,0:0:0:0:
460,168,169898,2,0,B|448:112|468:40|468:40|432:68|348:48,1,240
268,28,171203,6,0,L|276:172,1,120
164,56,172181,2,0,L|172:200,1,120
60,80,173159,1,0,0:0:0:0:
64,176,173485,1,0,0:0:0:0:
68,272,173811,6,0,P|132:264|196:292,1,120
416,344,175116,2,0,P|352:352|288:324,1,120
272,244,175931,1,0,0:0:0:0:
336,172,176257,1,0,0:0:0:0:
336,172,176420,6,0,L|344:28,1,120
244,156,177398,2,0,L|252:12,1,120
144,136,178376,1,0,0:0:0:0:
148,40,178702,1,0,0:0:0:0:
64,84,179028,6,0,P|52:156|88:216,2,120
144,136,180333,2,0,B|196:128|196:128|252:144|252:144|308:136,1,160
356,60,181311,1,0,0:0:0:0:
356,60,181474,22,0,P|408:52|476:96,1,120
396,148,182290,1,0,0:0:0:0:
464,216,182616,1,0,0:0:0:0:
464,216,182779,2,0,L|472:368,1,120
380,308,183594,1,0,0:0:0:0:
292,348,183920,1,0,0:0:0:0:
292,348,184083,6,0,P|228:348|172:320,1,120
84,348,184898,2,0,L|76:256,1,79.9999999999999
160,224,185551,2,0,B|172:120|172:120|156:56,1,160
256,68,186529,1,0,0:0:0:0:
256,68,186692,6,0,P|316:88|388:72,1,120
440,12,187507,1,0,0:0:0:0:
464,104,187833,1,0,0:0:0:0:
396,172,188159,2,0,P|388:216|392:268,1,79.9999999999999
368,344,188811,2,0,P|333:324|302:298,1,79.9999999999999
296,204,189464,5,0,0:0:0:0:
296,204,189627,2,0,P|240:196|160:236,2,120
192,304,191094,2,0,P|144:296|104:260,2,79.9999999999999
288,300,192072,1,0,0:0:0:0:
288,300,192235,1,0,0:0:0:0:
384,292,192561,6,0,L|388:156,1,120
480,284,193540,2,0,L|484:148,1,120
292,180,194681,1,0,0:0:0:0:
136,144,205116,6,0,P|96:192|104:276,2,120
184,228,206420,2,0,P|205:286|282:321,2,120
280,228,207724,6,0,L|288:88,2,120
368,264,209029,2,0,L|376:404,2,120
456,232,210333,5,0,0:0:0:0:
440,136,210659,2,0,L|272:128,1,160
256,88,211474,2,0,P|204:64|116:88,1,120
48,68,212290,2,0,L|56:160,1,79.9999999999999
64,244,212942,5,0,0:0:0:0:
72,340,213268,2,0,P|112:352|176:352,1,79.9999999999999
232,308,213920,1,0,0:0:0:0:
232,308,214083,6,0,B|320:324|384:268|384:268|376:360,1,240
472,328,215387,6,0,L|488:176,1,120
496,112,216203,1,0,0:0:0:0:
408,148,216529,1,0,0:0:0:0:
408,148,216693,2,0,P|348:140|300:96,1,120
300,56,217345,1,0,0:0:0:0:
168,116,217834,1,0,0:0:0:0:
168,116,217997,6,0,L|32:112,1,120
8,200,218812,1,0,0:0:0:0:
104,208,219138,1,0,0:0:0:0:
104,208,219301,2,0,B|112:292|112:292|92:352,1,120
140,352,219953,2,0,L|268:344,1,120
308,344,220606,6,0,P|296:276|328:212,1,120
396,184,221421,1,0,0:0:0:0:
480,136,221747,1,0,0:0:0:0:
480,136,221910,2,0,B|476:56|476:56|452:16,1,120
408,16,222562,1,0,0:0:0:0:
284,88,223051,1,0,0:0:0:0:
200,40,223377,6,0,P|140:68|32:40,1,160
40,148,224356,1,0,0:0:0:0:
40,148,224519,2,0,L|28:280,1,120
104,324,225334,1,0,0:0:0:0:
188,280,225660,1,0,0:0:0:0:
188,280,225823,22,0,P|268:272|344:316,1,160
412,252,226801,1,0,0:0:0:0:
476,324,227127,2,0,P|504:272|492:196,1,120
472,176,227779,1,0,0:0:0:0:
508,36,228269,1,0,0:0:0:0:
508,36,228432,6,0,P|452:60|372:48,1,120
308,16,229247,1,0,0:0:0:0:
308,16,229410,1,0,0:0:0:0:
220,52,229736,2,0,L|228:184,1,120
232,220,230388,2,0,L|112:216,1,120
48,288,231203,6,0,P|20:256|16:204,1,79.9999999999999
60,136,231856,2,0,P|74:95|117:66,1,79.9999999999999
148,84,232345,2,0,L|292:72,1,120
364,64,233160,1,0,0:0:0:0:
324,152,233486,1,0,0:0:0:0:
324,152,233649,6,0,B|304:232|304:232|308:288,1,120
400,244,234464,2,0,L|412:348,1,79.9999999999999
416,372,234953,2,0,P|364:356|280:376,1,120
220,312,235769,2,0,L|200:208,1,79.9999999999999
112,216,236421,5,0,0:0:0:0:
7,314,236910,1,0,0:0:0:0:
140,364,237399,1,0,0:0:0:0:
188,280,237725,2,0,B|232:284|232:284|260:264|260:264|336:260|404:312,1,200
420,376,238866,6,0,P|460:332|456:248,1,120
404,200,239681,1,0,0:0:0:0:
404,200,239844,1,0,0:0:0:0:
456,120,240171,2,0,L|448:0,1,120
360,32,240986,1,0,0:0:0:0:
268,8,241311,1,0,0:0:0:0:
268,8,241475,6,0,B|268:88|268:88|240:136,1,120
176,60,242290,2,0,P|132:64|84:88,1,79.9999999999999
60,104,242779,2,0,L|52:252,1,120
48,320,243594,1,0,0:0:0:0:
132,276,243921,1,0,0:0:0:0:
212,332,244247,6,0,P|280:332|344:320,1,120
440,232,245225,2,0,P|372:232|308:220,1,120
192,156,246203,2,0,P|213:189|219:228,1,79.9999999999999
124,228,246855,5,0,0:0:0:0:
28,224,247181,1,0,0:0:0:0:
256,192,247344,12,0,250768,0:0:0:0:
