osu file format v14

[General]
AudioFilename: audio.mp3
AudioLeadIn: 0
PreviewTime: 55889
Countdown: 0
SampleSet: Soft
StackLeniency: 0.7
Mode: 0
LetterboxInBreaks: 0
WidescreenStoryboard: 1

[Editor]
DistanceSpacing: 1.3
BeatDivisor: 4
GridSize: 32
TimelineZoom: 2.699999

[Metadata]
Title:Recollections
TitleUnicode:Recollections
Artist:Sasaki Rico
ArtistUnicode:佐々木李子
Creator:Lasse
Version:Insane
Source:怪獣倶楽部 ~空想特撮青春記~
Tags:Mabuta no Ura ni Utsuru Mono 瞼の裏に映るもの riko japanese rock pop female vocals opening theme full version 高橋 浩一郎 Kouichiro Takahashi
BeatmapID:1981239
BeatmapSetID:948717

[Difficulty]
HPDrainRate:6
CircleSize:4
OverallDifficulty:8
ApproachRate:9
SliderMultiplier:1.6
SliderTickRate:1

[Events]
//Background and Video events
0,0,"a.jpg",0,0
//Break Periods
2,115250,119172
//Storyboard Layer 0 (Background)
//Storyboard Layer 1 (Fail)
//Storyboard Layer 2 (Pass)
//Storyboard Layer 3 (Foreground)
//Storyboard Sound Samples

[TimingPoints]
534,304.568527918782,4,2,1,50,1,0
534,-142.857142857143,4,2,1,50,0,0
2970,-142.857142857143,4,2,1,55,0,0
4797,-142.857142857143,4,2,1,56,0,0
4950,-142.857142857143,4,2,1,58,0,0
5102,-142.857142857143,4,2,1,60,0,0
5254,-111.111111111111,4,2,1,62,0,0
7691,-111.111111111111,4,2,2,62,0,0
7995,-111.111111111111,4,2,1,62,0,0
10127,-100,4,2,1,65,0,0
12031,-100,4,2,1,30,0,0
12107,-100,4,2,1,65,0,0
12564,-100,4,2,2,65,0,0
12869,-100,4,2,1,65,0,0
14468,-100,4,2,1,30,0,0
14544,-100,4,2,1,65,0,0
15001,-100,4,2,2,65,0,0
15305,-100,4,2,1,65,0,0
16904,-100,4,2,1,30,0,0
16980,-100,4,2,1,65,0,0
17437,-100,4,2,2,65,0,0
17742,-100,4,2,1,65,0,0
19417,-100,4,2,1,68,0,0
22158,-100,4,2,1,50,0,0
22462,-125,4,2,2,52,0,0
22767,-125,4,2,1,52,0,0
23148,-125,4,2,1,22,0,0
23224,-125,4,2,1,52,0,0
24899,-125,4,2,2,52,0,0
25204,-125,4,2,1,52,0,0
25584,-125,4,2,1,22,0,0
25660,-125,4,2,1,52,0,0
27336,-125,4,2,2,52,0,0
27640,-125,4,2,1,52,0,0
28021,-125,4,2,1,18,0,0
28097,-125,4,2,1,52,0,0
28630,-125,4,2,1,18,0,0
28706,-125,4,2,1,52,0,0
29239,-125,4,2,1,18,0,0
29315,-125,4,2,1,52,0,0
29772,-125,4,2,2,52,0,0
29924,-125,4,2,1,52,0,0
31143,-125,4,2,1,54,0,0
31295,-111.111111111111,4,2,1,56,0,0
32056,-100,4,2,1,64,0,0
32742,-100,4,2,1,34,0,0
32818,-100,4,2,1,64,0,0
34493,-100,4,2,2,64,0,0
34797,-100,4,2,1,64,0,0
35178,-100,4,2,1,34,0,0
35254,-100,4,2,1,64,0,0
36929,-100,4,2,2,64,0,0
37615,-100,4,2,1,34,0,0
37691,-100,4,2,1,64,0,0
39366,-100,4,2,2,64,0,0
39671,-100,4,2,1,64,0,0
41498,-200,4,2,1,60,0,0
41803,-200,4,2,1,32,0,0
41955,-142.857142857143,4,2,2,48,0,0
46828,-125,4,2,2,50,0,0
49264,-125,4,2,2,52,0,0
51701,-100,4,2,2,60,0,0
52919,-100,4,2,2,62,0,0
54138,-166.666666666667,4,2,2,64,0,0
54899,-200,4,2,2,42,0,0
55051,-200,4,2,1,66,0,0
55965,-133.333333333333,4,2,1,50,0,0
56422,-71.4285714285714,4,2,1,76,0,1
56879,-83.3333333333333,4,2,1,76,0,1
58325,-83.3333333333333,4,2,1,32,0,1
58402,-83.3333333333333,4,2,1,76,0,1
58858,-71.4285714285714,4,2,2,76,0,1
59087,-71.4285714285714,4,2,1,32,0,1
59163,-83.3333333333333,4,2,1,76,0,1
61295,-71.4285714285714,4,2,2,76,0,1
61752,-83.3333333333333,4,2,1,76,0,1
61980,-71.4285714285714,4,2,1,32,0,1
62056,-83.3333333333333,4,2,1,76,0,1
63731,-71.4285714285714,4,2,2,76,0,1
64036,-83.3333333333333,4,2,1,76,0,1
64950,-83.3333333333333,4,2,2,76,0,1
65254,-83.3333333333333,4,2,1,72,0,1
65711,-83.3333333333333,4,2,1,74,0,1
66092,-83.3333333333333,4,2,1,74,0,0
66168,-71.4285714285714,4,2,1,76,0,1
66473,-83.3333333333333,4,2,1,76,0,1
68072,-83.3333333333333,4,2,1,32,0,1
68148,-83.3333333333333,4,2,1,76,0,1
68605,-71.4285714285714,4,2,2,76,0,1
68833,-71.4285714285714,4,2,1,76,0,1
68909,-83.3333333333333,4,2,1,76,0,1
71041,-71.4285714285714,4,2,2,76,0,1
71346,-83.3333333333333,4,2,1,76,0,1
71726,-83.3333333333333,4,2,1,32,0,1
71803,-83.3333333333333,4,2,1,76,0,1
73478,-71.4285714285714,4,2,2,76,0,1
73935,-83.3333333333333,4,2,1,76,0,1
75457,-62.5,4,2,1,76,0,1
75610,-83.3333333333333,4,2,1,74,0,0
75914,-90.9090909090909,4,2,2,70,0,1
76371,-100,4,2,1,70,0,1
78351,-83.3333333333333,4,2,2,70,0,1
78808,-100,4,2,1,70,0,1
80787,-76.9230769230769,4,2,2,74,0,1
81092,-90.9090909090909,4,2,1,74,0,1
82006,-87.719298245614,4,2,1,74,0,1
82462,-90.9090909090909,4,2,1,74,0,1
82691,-90.9090909090909,4,2,1,32,0,1
82767,-90.9090909090909,4,2,1,74,0,1
83224,-71.4285714285714,4,2,2,75,0,1
83528,-71.4285714285714,4,2,1,75,0,1
84442,-83.3333333333333,4,2,1,75,0,0
85660,-100,4,2,1,65,0,0
87564,-100,4,2,1,30,0,0
87640,-100,4,2,1,65,0,0
88097,-100,4,2,2,65,0,0
88402,-100,4,2,1,65,0,0
90001,-100,4,2,1,30,0,0
90077,-100,4,2,1,65,0,0
90534,-100,4,2,2,65,0,0
90838,-100,4,2,1,65,0,0
92437,-100,4,2,1,30,0,0
92513,-100,4,2,1,65,0,0
92970,-100,4,2,2,65,0,0
93275,-100,4,2,1,65,0,0
94950,-100,4,2,1,62,0,0
95254,-111.111111111111,4,2,1,58,0,0
95559,-125,4,2,2,50,0,0
99823,-125,4,2,2,52,0,0
100432,-200,4,2,2,54,0,0
100508,-200,4,2,2,48,0,0
101650,-166.666666666667,4,2,2,54,0,0
101726,-166.666666666667,4,2,2,48,0,0
102869,-125,4,2,2,54,0,0
104848,-166.666666666667,4,2,2,44,0,0
105153,-100,4,2,1,64,0,0
105838,-100,4,2,1,34,0,0
105914,-100,4,2,1,64,0,0
107589,-100,4,2,2,64,0,0
108275,-100,4,2,1,34,0,0
108351,-100,4,2,2,64,0,0
110711,-100,4,2,1,34,0,0
110787,-100,4,2,2,64,0,0
114594,-200,4,2,2,60,0,0
114671,-200,4,2,2,5,0,0
115051,-200,4,2,2,50,0,0
119772,-166.666666666667,4,2,2,44,0,0
121752,-166.666666666667,4,2,2,50,0,0
122056,-200,4,2,3,54,0,0
122361,-111.111111111111,4,2,2,60,0,0
124188,-125,4,2,2,60,0,0
124493,-156.25,4,2,2,52,0,0
124797,-100,4,2,2,60,0,0
126016,-100,4,2,2,62,0,0
127234,-100,4,2,2,64,0,0
128300,-142.857142857143,4,2,2,60,0,0
128376,-142.857142857143,4,2,2,20,0,0
128909,-142.857142857143,4,2,2,60,0,0
129518,-66.6666666666667,4,2,1,76,0,1
129975,-83.3333333333333,4,2,1,76,0,1
131422,-83.3333333333333,4,2,1,32,0,1
131498,-83.3333333333333,4,2,1,76,0,1
131955,-71.4285714285714,4,2,2,76,0,1
132183,-71.4285714285714,4,2,1,32,0,1
132259,-83.3333333333333,4,2,1,76,0,1
134391,-71.4285714285714,4,2,2,76,0,1
134848,-83.3333333333333,4,2,1,76,0,1
135077,-83.3333333333333,4,2,1,32,0,1
135153,-83.3333333333333,4,2,1,76,0,1
136828,-71.4285714285714,4,2,2,76,0,1
137132,-83.3333333333333,4,2,1,76,0,1
138046,-83.3333333333333,4,2,2,76,0,1
138351,-83.3333333333333,4,2,1,72,0,1
138808,-83.3333333333333,4,2,1,74,0,1
139188,-83.3333333333333,4,2,1,74,0,0
139264,-71.4285714285714,4,2,1,76,0,1
139569,-83.3333333333333,4,2,1,76,0,1
141168,-83.3333333333333,4,2,1,32,0,1
141244,-83.3333333333333,4,2,1,76,0,1
141701,-71.4285714285714,4,2,2,76,0,1
141929,-71.4285714285714,4,2,1,32,0,1
142006,-83.3333333333333,4,2,1,76,0,1
144138,-71.4285714285714,4,2,2,76,0,1
144442,-83.3333333333333,4,2,1,76,0,1
144823,-83.3333333333333,4,2,1,32,0,1
144899,-83.3333333333333,4,2,1,76,0,1
146574,-71.4285714285714,4,2,2,76,0,1
147031,-83.3333333333333,4,2,1,76,0,1
148554,-62.5,4,2,1,76,0,1
148706,-83.3333333333333,4,2,1,76,0,0
149011,-90.9090909090909,4,2,2,70,0,1
149468,-90.9090909090909,4,2,2,70,0,1
151447,-83.3333333333333,4,2,2,70,0,1
151904,-90.9090909090909,4,2,2,70,0,1
153884,-76.9230769230769,4,2,2,74,0,1
154188,-90.9090909090909,4,2,2,74,0,1
155102,-87.719298245614,4,2,2,74,0,1
155559,-90.9090909090909,4,2,2,74,0,1
155787,-90.9090909090909,4,2,2,32,0,1
155863,-90.9090909090909,4,2,2,74,0,1
156320,-71.4285714285714,4,2,2,75,0,1
156777,-90.9090909090909,4,2,2,75,0,1
157006,-90.9090909090909,4,2,2,32,0,1
157082,-90.9090909090909,4,2,2,72,0,1
157539,-111.111111111111,4,2,2,64,0,0
157843,-111.111111111111,4,2,2,60,0,0
157995,-111.111111111111,4,2,2,62,0,0
158148,-111.111111111111,4,2,2,58,0,0
158300,-111.111111111111,4,2,2,60,0,0
158757,-100,4,2,2,60,0,0
160737,-166.666666666667,4,2,1,50,0,0
160889,-166.666666666667,4,2,99,5,0,0
161193,-76.9230769230769,4,2,1,65,0,0
161650,-90.9090909090909,4,2,1,65,0,0
163630,-76.9230769230769,4,2,2,65,0,0
163858,-76.9230769230769,4,2,2,30,0,0
163935,-90.9090909090909,4,2,1,65,0,0
164315,-90.9090909090909,4,2,1,30,0,0
164391,-90.9090909090909,4,2,1,65,0,0
166066,-76.9230769230769,4,2,2,65,0,0
166371,-90.9090909090909,4,2,1,65,0,0
168503,-76.9230769230769,4,2,2,65,0,0
168808,-90.9090909090909,4,2,1,65,0,0
170635,-111.111111111111,4,2,1,65,0,0
170863,-125,4,2,1,30,0,0
170940,-71.4285714285714,4,2,1,70,0,0
171244,-83.3333333333333,4,2,1,70,0,0
171980,-83.3333333333333,4,2,1,60,0,0
172158,-83.3333333333333,4,2,1,70,0,0
173376,-71.4285714285714,4,2,2,70,0,0
173605,-71.4285714285714,4,2,2,30,0,0
173681,-83.3333333333333,4,2,1,70,0,0
175660,-71.4285714285714,4,2,1,70,0,0
175813,-71.4285714285714,4,2,2,72,0,0
176041,-71.4285714285714,4,2,2,30,0,0
176117,-83.3333333333333,4,2,1,72,0,0
176422,-76.9230769230769,4,2,1,72,0,0
176650,-76.9230769230769,4,2,2,30,0,0
176726,-83.3333333333333,4,2,1,72,0,0
177031,-71.4285714285714,4,2,1,72,0,0
177259,-71.4285714285714,4,2,2,30,0,0
177336,-83.3333333333333,4,2,1,72,0,0
177640,-76.9230769230769,4,2,1,72,0,0
177869,-76.9230769230769,4,2,2,30,0,0
177944,-83.3333333333333,4,2,1,72,0,0
178097,-83.3333333333333,4,2,1,70,0,0
178402,-83.3333333333333,4,2,2,72,0,0
179011,-83.3333333333333,4,2,2,70,0,0
179620,-83.3333333333333,4,2,2,68,0,0
180229,-83.3333333333333,4,2,3,66,0,0
180686,-263.157894736842,4,2,1,64,0,0
180838,-250,4,2,99,5,0,0
181752,-250,4,2,1,40,0,0
182056,-142.857142857143,4,2,2,48,0,0
186929,-125,4,2,2,50,0,0
189366,-125,4,2,2,52,0,0
191498,-125,4,2,2,52,0,0
191803,-100,4,2,2,60,0,0
193021,-100,4,2,2,62,0,0
194239,-100,4,2,2,64,0,0
195305,-215.05376344086,4,2,2,60,0,0
195381,-215.05376344086,4,2,2,20,0,0
196676,-215.05376344086,4,2,2,30,0,0
197285,-133.333333333333,4,2,2,50,0,0
197742,-66.6666666666667,4,2,1,76,0,1
198198,-76.9230769230769,4,2,2,76,0,1
199645,-76.9230769230769,4,2,2,32,0,1
199721,-76.9230769230769,4,2,2,76,0,1
200178,-66.6666666666667,4,2,2,76,0,1
200407,-66.6666666666667,4,2,2,32,0,1
200483,-76.9230769230769,4,2,2,76,0,1
202615,-66.6666666666667,4,2,2,76,0,1
202919,-76.9230769230769,4,2,2,76,0,1
203300,-76.9230769230769,4,2,2,32,0,1
203376,-76.9230769230769,4,2,2,76,0,1
205051,-66.6666666666667,4,2,2,76,0,1
205356,-76.9230769230769,4,2,2,76,0,1
206574,-76.9230769230769,4,2,2,72,0,1
207031,-76.9230769230769,4,2,2,74,0,1
207412,-76.9230769230769,4,2,2,74,0,0
207488,-76.9230769230769,4,2,2,74,0,1
207945,-111.111111111111,4,2,2,70,0,1
209924,-76.9230769230769,4,2,2,74,0,1
210153,-76.9230769230769,4,2,2,30,0,1
210229,-111.111111111111,4,2,2,70,0,1
212209,-90.9090909090908,4,2,2,70,0,1
212361,-66.6666666666667,4,2,2,76,0,1
212665,-76.9230769230769,4,2,2,76,0,1
213046,-76.9230769230769,4,2,2,32,0,1
213122,-76.9230769230769,4,2,2,76,0,1
214797,-66.6666666666667,4,2,2,76,0,1
215254,-76.9230769230769,4,2,2,76,0,1
216777,-62.5,4,2,2,76,0,1
216929,-58.8235294117647,4,2,2,76,0,0
217234,-90.9090909090909,4,2,2,70,0,1
217539,-100,4,2,2,70,0,1
219671,-83.3333333333333,4,2,2,70,0,1
220127,-100,4,2,2,70,0,1
222107,-76.9230769230769,4,2,2,74,0,1
222564,-90.9090909090909,4,2,2,74,0,1
223325,-83.3333333333333,4,2,2,74,0,1
223782,-90.9090909090909,4,2,2,74,0,1
224011,-90.9090909090909,4,2,2,30,0,1
224087,-90.9090909090909,4,2,2,74,0,1
224544,-71.4285714285714,4,2,2,74,0,1
224848,-83.3333333333333,4,2,2,74,0,1
226980,-66.6666666666667,4,2,2,75,0,1
227285,-76.9230769230769,4,2,2,75,0,1
228884,-76.9230769230769,4,2,2,30,0,1
228960,-76.9230769230769,4,2,2,75,0,1
229417,-66.6666666666667,4,2,2,75,0,1
229721,-83.3333333333333,4,2,2,75,0,1
230178,-83.3333333333333,4,2,2,76,0,1
230635,-100,4,2,2,75,0,0
232462,-125,4,2,2,50,0,0
232615,-125,4,2,2,55,0,0
232767,-125,4,2,3,50,0,0
233072,-100,4,2,1,65,0,0
234975,-100,4,2,1,30,0,0
235051,-100,4,2,1,65,0,0
235508,-100,4,2,2,65,0,0
237412,-100,4,2,1,30,0,0
237488,-100,4,2,2,65,0,0
239848,-100,4,2,1,30,0,0
239924,-100,4,2,2,65,0,0

[Colours]
Combo1 : 250,190,230
Combo2 : 130,200,230
Combo3 : 255,230,140
Combo4 : 170,245,170

[HitObjects]
130,348,534,6,0,L|122:282,1,55.9999982910157,10|8,0:3|0:3,0:0:0:0:
204,156,1143,1,0,1:0:0:0:
204,156,1599,2,0,B|226:103|190:50|190:50|123:81,1,167.999994873047,10|8,0:3|0:3,0:0:0:0:
103,192,2361,1,0,1:0:0:0:
211,250,2665,1,0,1:0:0:0:
307,148,2970,6,0,L|436:131,1,111.999996582031,10|8,0:3|0:1,0:0:0:0:
512,248,3579,1,0,1:0:0:0:
512,248,4036,2,0,B|483:241|483:241|434:258|434:258|417:348,1,167.999994873047,10|8,0:3|0:3,0:0:0:0:
347,379,4645,1,8,0:3:0:0:
272,301,4797,1,8,0:0:0:0:
349,255,4950,1,8,0:0:0:0:
281,196,5102,1,8,0:0:0:0:
367,137,5254,6,0,B|385:104|385:104|361:27|361:27|345:73,1,143.999995605469,14|8,0:1|0:1,0:0:0:0:
261,95,5711,2,0,L|168:87,1,71.9999978027344,10|0,0:0|0:0,0:0:0:0:
87,110,6016,2,0,P|106:81|90:50,1,71.9999978027344,10|8,0:1|0:1,0:0:0:0:
7,76,6320,5,8,0:0:0:0:
189,88,6473,2,0,B|237:94|237:94|272:118|272:118|328:124,1,143.999995605469,2|8,0:0|0:1,0:0:0:0:
512,127,6929,5,10,0:0:0:0:
415,95,7082,1,2,0:0:0:0:
383,192,7234,1,10,0:1:0:0:
480,224,7386,1,10,0:0:0:0:
355,364,7691,6,0,B|328:351|318:316|318:316|307:352|289:368|263:373,1,143.999995605469,14|8,0:1|0:1,0:0:0:0:
160,294,8148,2,0,L|248:299,1,71.9999978027344,10|0,0:0|0:0,0:0:0:0:
97,207,8452,2,0,L|185:212,1,71.9999978027344,10|0,0:1|0:0,0:0:0:0:
88,110,8757,5,10,0:0:0:0:
0,224,8909,1,10,0:1:0:0:
59,367,9823,1,8,0:1:0:0:
59,356,9899,1,8,0:1:0:0:
59,345,9975,1,8,0:0:0:0:
133,285,10127,6,0,B|163:276|179:244|179:244|195:298|252:303,1,160,14|8,0:1|0:1,0:0:0:0:
342,212,10584,2,0,L|262:224,1,80,10|0,0:0|0:0,0:0:0:0:
388,121,10889,5,10,0:1:0:0:
463,192,11041,1,8,0:1:0:0:
487,92,11193,1,8,0:0:0:0:
373,130,11346,6,0,B|362:174|362:174|377:246|377:246|361:311,1,160,10|8,0:1|0:1,0:0:0:0:
253,340,11803,2,0,B|234:354|234:354|240:296|196:268,1,120,10|0,0:0|0:0,0:0:0:0:
187,266,12107,1,10,0:1:0:0:
102,342,12259,2,0,L|96:242,1,80,10|8,0:1|0:0,0:0:0:0:
0,145,12564,6,0,B|34:177|89:158|89:158|93:124|123:102,1,160,14|8,0:1|0:1,0:0:0:0:
206,15,13021,2,0,B|218:112,1,80,10|0,0:2|0:0,0:0:0:0:
333,170,13325,5,10,0:1:0:0:
386,79,13478,1,8,0:1:0:0:
319,165,13630,1,8,0:0:0:0:
397,261,13782,6,0,B|385:174|385:174|350:143|309:170,1,160,10|8,0:1|0:1,0:0:0:0:
413,274,14239,2,0,P|454:291|512:239,1,120,10|0,0:0|0:0,0:0:0:0:
508,237,14544,1,10,0:0:0:0:
398,173,14696,2,0,L|310:164,1,80,10|8,0:1|0:0,0:0:0:0:
207,255,15001,6,0,B|238:366|238:366|254:313,1,160,14|8,0:1|0:1,0:0:0:0:
130,297,15457,2,0,B|96:291|96:291|81:294|81:294|23:286,1,80,10|0,0:0|0:0,0:0:0:0:
0,169,15762,5,10,0:1:0:0:
96,122,15914,1,8,0:1:0:0:
97,133,15990,1,8,0:1:0:0:
98,144,16066,1,8,0:0:0:0:
177,55,16219,6,0,B|265:22|245:83|333:54,1,160,10|8,0:1|0:1,0:0:0:0:
463,40,16676,2,0,B|438:21|438:21|454:74|424:115,1,120,10|0,0:0|0:0,0:0:0:0:
425,117,16980,1,10,0:1:0:0:
512,231,17132,2,0,P|523:193|504:160,1,80,10|8,0:1|0:0,0:0:0:0:
332,220,17437,6,0,B|300:213|300:213|362:203|362:203|379:212|379:212|425:205,1,160,14|8,2:1|2:1,0:0:0:0:
314,110,17894,1,8,2:2:0:0:
240,157,18046,1,8,2:3:0:0:
219,38,18198,1,10,2:1:0:0:
170,111,18351,1,8,2:1:0:0:
165,122,18427,1,8,2:1:0:0:
160,133,18503,2,0,B|129:123|129:123|111:125|111:125|76:117,1,80,8|8,2:2|2:1,0:0:0:0:
9,226,18808,5,10,2:3:0:0:
123,204,18960,1,8,2:1:0:0:
12,241,19112,1,10,2:2:0:0:
126,219,19264,1,8,2:1:0:0:
82,118,19417,5,10,1:2:0:0:
15,256,19569,1,10,1:2:0:0:
221,373,22158,1,8,1:3:0:0:
222,362,22234,1,8,1:3:0:0:
223,351,22310,1,8,1:3:0:0:
156,292,22462,6,0,B|120:274|120:274|77:299|30:277,1,128,14|8,0:1|0:0,0:0:0:0:
0,190,22919,2,0,L|29:88,1,96,2|0,0:0|0:0,0:0:0:0:
33,86,23224,2,0,P|74:73|121:81,1,64,2|8,0:0|0:0,0:0:0:0:
183,123,23528,2,0,P|230:128|287:8,1,192,2|8,0:0|0:0,0:0:0:0:
291,17,24442,5,8,0:0:0:0:
322,90,24594,1,10,0:3:0:0:
380,6,24747,1,8,0:0:0:0:
425,93,24899,6,0,B|447:130|447:130|438:172|438:172|461:213,1,128,14|8,0:1|0:0,0:0:0:0:
512,273,25356,2,0,P|501:229|459:209,1,96,2|0,0:0|0:0,0:0:0:0:
449,220,25660,2,0,B|362:207,1,64,2|8,0:0|0:0,0:0:0:0:
268,239,25965,2,0,B|261:194|303:174|303:174|284:240|327:277,1,192,2|8,0:0|0:0,0:0:0:0:
326,277,26879,5,8,0:0:0:0:
256,239,27031,1,10,0:3:0:0:
219,326,27183,1,8,0:0:0:0:
142,244,27336,6,0,P|131:172|168:99,1,128,14|8,0:1|0:0,0:0:0:0:
246,78,27792,2,0,B|267:177,1,96,2|0,0:0|0:0,0:0:0:0:
278,173,28097,2,0,B|264:106,1,64,2|8,0:0|0:0,0:0:0:0:
178,32,28402,2,0,P|134:16|87:22,1,96,2|0,0:0|0:0,0:0:0:0:
79,32,28706,2,0,L|64:104,1,64,2|8,0:0|0:0,0:0:0:0:
0,174,29011,2,0,B|31:167|31:167|52:181|52:181|100:177,1,96,2|0,0:0|0:0,0:0:0:0:
102,183,29315,2,0,L|129:269,1,64,10|0,0:0|0:0,0:0:0:0:
85,328,29620,1,10,0:0:0:0:
185,366,29772,6,0,B|207:362|207:362|218:368|218:368|251:362,1,64,14|8,0:1|0:1,0:0:0:0:
259,363,30001,1,8,0:1:0:0:
271,362,30077,2,0,L|288:287,1,64,8|8,0:0|0:1,0:0:0:0:
316,204,30381,1,10,0:1:0:0:
393,262,30534,2,0,P|425:277|459:276,1,64,8|8,0:0|0:1,0:0:0:0:
308,191,30838,2,0,P|276:176|242:177,1,64,10|8,0:1|0:1,0:0:0:0:
412,129,31143,5,8,0:1:0:0:
420,118,31219,1,8,0:1:0:0:
429,109,31295,2,0,B|455:100|455:100|472:107|472:107|522:108,2,71.9999978027344,8|8|8,0:0|0:1|0:1,0:0:0:0:
308,191,31752,5,10,0:0:0:0:
259,77,31904,1,10,0:0:0:0:
171,199,32056,6,0,B|145:206|119:184|119:184|157:137|130:80,1,160,14|8,0:1|0:1,0:0:0:0:
19,51,32513,2,0,B|46:38|46:38|25:86|47:125,1,120,10|0,0:0|0:0,0:0:0:0:
62,130,32818,2,0,L|159:123,1,80,10|8,0:1|0:1,0:0:0:0:
215,52,33122,1,8,0:0:0:0:
352,118,33275,6,0,B|295:100|295:100|277:69|277:69|201:48,1,160,2|8,0:0|0:1,0:0:0:0:
347,18,33731,2,0,L|436:2,1,80,10|0,0:0|0:0,0:0:0:0:
506,93,34036,5,10,0:3:0:0:
434,19,34188,1,8,0:0:0:0:
374,104,34341,1,10,0:3:0:0:
446,199,34493,6,0,B|476:238|476:238|447:354,1,160,14|8,0:1|0:1,0:0:0:0:
312,377,34950,2,0,L|297:250,1,120,10|0,0:0|0:0,0:0:0:0:
289,244,35254,2,0,B|236:221|236:221|201:267|148:266,1,160,10|10,0:1|0:2,0:0:0:0:
40,208,35711,6,0,B|82:161|30:89|30:89|2:134,1,160,10|8,0:1|0:1,0:0:0:0:
40,208,36168,1,8,0:0:0:0:
204,372,36473,5,8,0:0:0:0:
212,244,36625,1,10,0:0:0:0:
183,368,36777,1,10,0:0:0:0:
318,311,36929,6,0,B|361:302|361:302|398:319|417:336|417:336|468:328,1,160,14|8,0:1|0:1,0:0:0:0:
510,207,37386,2,0,P|478:159|491:92,1,120,10|0,0:0|0:0,0:0:0:0:
499,90,37691,2,0,P|499:135|472:164,1,80,10|8,0:1|0:1,0:0:0:0:
397,194,37995,1,10,0:0:0:0:
312,118,38148,6,0,B|289:83|304:37|304:37|257:12|228:52,1,160,2|8,0:0|0:1,0:0:0:0:
154,150,38605,2,0,P|203:153|218:112,1,80,10|0,0:0|0:0,0:0:0:0:
111,66,38909,1,10,0:1:0:0:
68,199,39061,1,8,0:0:0:0:
245,364,39366,6,0,B|260:307|260:307|257:273|257:273|278:196,1,160,14|8,0:1|0:1,0:0:0:0:
316,86,39823,1,10,0:0:0:0:
384,149,39975,1,8,0:3:0:0:
399,151,40051,1,8,0:3:0:0:
414,151,40127,2,0,L|508:138,1,80,8|8,0:0|0:1,0:0:0:0:
306,98,40432,5,10,0:1:0:0:
424,163,40584,2,0,L|503:152,1,80,10|8,0:0|0:1,0:0:0:0:
372,18,40889,5,8,0:1:0:0:
296,110,41041,1,10,0:1:0:0:
220,47,41193,1,8,0:3:0:0:
213,36,41270,1,8,0:3:0:0:
207,25,41346,1,8,0:0:0:0:
135,83,41498,6,0,B|122:138|122:138|109:113,1,80,10|0,0:0|0:0,0:0:0:0:
67,193,41955,6,0,L|200:185,1,111.999996582031,14|8,2:1|2:1,0:0:0:0:
275,198,42412,2,0,P|258:176|277:155,1,55.9999982910157,2|8,2:0|2:1,0:0:0:0:
356,180,42716,2,0,P|373:202|354:223,1,55.9999982910157,2|8,2:0|2:1,0:0:0:0:
298,282,43021,1,2,2:0:0:0:
298,282,43173,2,0,L|165:290,1,111.999996582031,8|8,2:1|2:1,0:0:0:0:
48,214,43782,2,0,P|30:159|62:106,1,111.999996582031,10|8,2:1|2:1,0:0:0:0:
118,59,44239,1,2,2:0:0:0:
182,116,44391,6,0,B|228:147|228:147|277:113,1,111.999996582031,14|8,2:1|2:1,0:0:0:0:
435,173,45001,2,0,B|388:140|388:140|342:171,1,111.999996582031,10|8,2:3|2:1,0:0:0:0:
287,234,45457,1,2,2:0:0:0:
287,234,45610,2,0,B|241:265|241:265|194:232,2,111.999996582031,10|8|8,2:1|2:1|2:1,0:0:0:0:
373,358,46523,2,0,L|437:354,1,55.9999982910157,10|0,2:3|2:0,0:0:0:0:
499,282,46828,6,0,P|515:227|483:143,1,128,14|8,0:1|0:1,0:0:0:0:
433,87,47285,2,0,B|412:152,1,64,2|8,0:0|0:1,0:0:0:0:
337,206,47589,2,0,B|325:135,1,64,2|8,0:0|0:1,0:0:0:0:
263,74,47894,1,2,0:0:0:0:
263,74,48046,2,0,B|213:62|213:62|188:74|188:74|119:61,1,128,8|10,0:1|0:1,0:0:0:0:
0,155,48655,1,10,0:1:0:0:
36,317,48960,1,10,0:1:0:0:
215,349,49264,6,0,B|267:340|267:340|288:351|288:351|359:344,2,128,14|8|8,0:1|0:1|0:1,0:0:0:0:
71,263,50178,2,0,P|59:232|74:192,1,64,10|0,0:1|0:0,0:0:0:0:
121,140,50483,2,0,L|107:8,2,128,10|8|8,0:1|0:1|0:1,0:0:0:0:
220,278,51396,6,0,L|283:274,1,64,10|0,0:1|0:0,0:0:0:0:
425,193,51701,5,14,0:0:0:0:
404,97,51853,1,8,0:1:0:0:
332,163,52006,1,8,0:1:0:0:
421,202,52158,5,14,0:0:0:0:
410,105,52310,1,8,0:1:0:0:
332,163,52462,1,8,0:1:0:0:
419,214,52615,6,0,L|513:251,1,80,14|8,0:0|0:1,0:0:0:0:
292,277,52919,5,14,0:0:0:0:
332,163,53072,1,8,0:1:0:0:
217,180,53224,1,8,0:1:0:0:
305,278,53376,5,14,0:0:0:0:
332,163,53528,1,8,0:1:0:0:
220,195,53681,1,8,0:1:0:0:
315,283,53833,6,0,B|341:296|341:296|353:314|353:314|380:325,1,80,14|8,0:0|0:1,0:0:0:0:
512,331,54138,6,0,B|485:343|468:376|468:376|489:314|462:272|462:272|485:239|481:189,1,239.999992675781,14|0,0:1|0:0,0:0:0:0:
373,79,55051,5,8,1:3:0:0:
381,201,55204,1,8,1:3:0:0:
46,361,55965,2,0,L|36:288,1,60.0000022888184,2|0,0:0|0:0,0:0:0:0:
38,302,56422,6,0,B|112:288|112:288|161:326|161:326|247:342,1,223.999993164063,14|8,0:1|0:1,0:0:0:0:
417,305,56879,2,0,B|459:331|459:331|430:367,1,95.9999970703126,10|0,0:0|0:0,0:0:0:0:
323,266,57183,1,10,0:1:0:0:
374,175,57336,2,0,P|408:150|473:147,1,95.9999970703126,10|8,0:1|0:0,0:0:0:0:
298,271,57640,6,0,B|260:239|260:239|260:168|209:100,1,191.999994140625,2|8,2:1|0:1,0:0:0:0:
106,12,58097,2,0,B|89:62|89:62|103:97|103:97|81:146,1,143.999995605469,10|0,0:0|0:0,0:0:0:0:
76,164,58402,1,10,0:1:0:0:
196,122,58554,2,0,L|318:97,1,95.9999970703126,10|8,0:1|0:0,0:0:0:0:
459,93,58858,6,0,B|415:97|394:125|394:125|406:69|366:22,1,167.999994873047,14|0,0:1|0:0,0:0:0:0:
363,22,59163,2,0,L|252:3,1,95.9999970703126,10|8,0:1|0:0,0:0:0:0:
130,65,59468,2,0,B|149:70|174:89|174:89|171:64|175:33,1,95.9999970703126,2|8,0:0|0:1,0:0:0:0:
59,144,59772,2,0,L|71:242,1,95.9999970703126,10|8,0:1|0:0,0:0:0:0:
155,375,60077,6,0,B|135:344|98:334|98:334|159:314|163:239,1,191.999994140625,2|8,0:1|0:1,0:0:0:0:
103,171,60534,1,8,0:0:0:0:
182,62,60686,1,10,0:1:0:0:
265,128,60838,1,10,0:3:0:0:
283,137,60914,1,8,0:3:0:0:
302,141,60990,1,8,0:3:0:0:
323,140,61066,1,8,0:3:0:0:
342,134,61143,1,10,0:3:0:0:
311,22,61295,6,0,B|292:91|292:91|300:171|300:171|276:239,1,223.999993164063,14|8,0:1|0:1,0:0:0:0:
200,366,61752,2,0,B|182:260|182:260|147:313,1,143.999995605469,10|0,0:0|0:0,0:0:0:0:
155,308,62056,1,10,0:1:0:0:
302,326,62209,2,0,B|333:327|333:327|350:342|350:342|401:348,1,95.9999970703126,10|8,0:1|0:0,0:0:0:0:
222,229,62513,6,0,B|187:208|187:208|158:207|158:207|112:176|112:176|107:101,1,191.999994140625,2|8,0:0|0:1,0:0:0:0:
118,13,62970,1,8,0:0:0:0:
199,116,63122,1,2,0:0:0:0:
256,38,63275,1,8,0:1:0:0:
282,163,63427,1,10,0:3:0:0:
293,170,63503,1,8,0:3:0:0:
305,176,63579,1,8,0:0:0:0:
429,145,63731,6,0,B|420:89|420:89|345:158|345:158|399:252,1,223.999993164063,14|8,0:1|0:1,0:0:0:0:
386,226,64112,1,8,0:1:0:0:
395,236,64188,2,0,L|502:222,1,95.9999970703126,10|8,0:0|0:1,0:0:0:0:
305,176,64493,1,10,0:1:0:0:
280,296,64645,1,10,2:2:0:0:
395,236,64797,1,8,2:2:0:0:
292,162,64950,6,0,B|231:140|231:140|174:157|174:157|97:134,1,191.999994140625,14|8,2:1|3:2,0:0:0:0:
95,141,65330,1,8,3:2:0:0:
80,143,65407,2,0,P|56:103|75:50,1,95.9999970703126,8|8,3:3|3:3,0:0:0:0:
206,0,65711,5,8,1:2:0:0:
209,20,65787,1,8,1:2:0:0:
213,41,65863,1,8,1:2:0:0:
218,61,65940,1,8,1:2:0:0:
221,82,66016,1,8,1:2:0:0:
226,103,66092,1,8,1:2:0:0:
230,124,66168,6,0,B|265:192|342:173|342:173|359:120|418:109,1,223.999993164063,14|8,0:1|0:1,0:0:0:0:
418,111,66549,1,8,0:1:0:0:
432,108,66625,2,0,P|457:59|437:23,1,95.9999970703126,10|0,0:0|0:0,0:0:0:0:
323,33,66929,1,10,0:1:0:0:
418,111,67082,2,0,L|514:132,1,95.9999970703126,10|8,0:1|0:0,0:0:0:0:
312,25,67386,6,0,B|247:15|247:15|201:53|201:53|104:53,1,191.999994140625,2|8,0:2|0:1,0:0:0:0:
0,83,67843,2,0,B|22:47|22:47|20:113|72:144,1,143.999995605469,10|0,0:0|0:0,0:0:0:0:
73,143,68148,1,10,0:1:0:0:
53,269,68300,2,0,P|12:252|42:228,1,95.9999970703126,10|8,0:1|0:0,0:0:0:0:
176,131,68605,6,0,B|234:142|234:142|265:183|265:183|330:201,1,167.999994873047,14|0,0:1|0:0,0:0:0:0:
334,201,68909,2,0,L|363:150,2,47.9999985351563,10|8|8,0:1|0:1|0:2,0:0:0:0:
219,335,69214,2,0,P|200:289|234:232,1,95.9999970703126,2|8,0:0|0:1,0:0:0:0:
333,331,69518,2,0,B|372:335|372:335|385:348|385:348|432:356,1,95.9999970703126,10|8,0:1|0:0,0:0:0:0:
221,225,69823,6,0,B|191:198|141:200|141:200|121:211|121:211|76:222|35:193,1,191.999994140625,2|8,0:0|0:1,0:0:0:0:
0,107,70280,1,8,0:0:0:0:
90,20,70432,2,0,B|128:29|128:29|139:43|139:43|176:55,1,95.9999970703126,2|8,0:0|0:1,0:0:0:0:
299,19,70737,1,10,0:1:0:0:
329,115,70889,1,10,0:0:0:0:
459,103,71041,6,0,B|403:28|304:71|304:71|329:114,1,223.999993164063,14|8,0:1|0:1,0:0:0:0:
406,212,71498,2,0,B|513:235|513:235|471:187,1,143.999995605469,10|0,0:0|0:0,0:0:0:0:
478,200,71803,1,10,0:1:0:0:
401,304,71955,2,0,B|369:314|369:314|357:340|357:340|318:357,1,95.9999970703126,10|8,0:1|0:0,0:0:0:0:
207,264,72259,6,0,B|232:131|232:131|179:171,1,191.999994140625,2|8,0:1|0:1,0:0:0:0:
115,229,72716,1,8,0:0:0:0:
49,90,72869,1,2,0:0:0:0:
27,183,73021,1,8,0:1:0:0:
143,75,73173,1,10,0:3:0:0:
147,61,73249,1,8,0:3:0:0:
151,47,73325,1,8,0:0:0:0:
262,139,73478,6,0,B|340:153|340:153|360:186|360:186|457:234,1,223.999993164063,14|8,0:1|0:1,0:0:0:0:
512,66,73935,5,10,0:0:0:0:
467,221,74087,1,8,0:1:0:0:
486,45,74239,5,10,0:0:0:0:
476,207,74391,1,8,0:1:0:0:
456,32,74544,5,10,0:0:0:0:
481,191,74696,1,8,0:1:0:0:
380,74,74848,5,10,0:0:0:0:
368,70,74924,1,8,0:0:0:0:
356,67,75001,1,8,0:3:0:0:
345,64,75077,1,8,0:3:0:0:
333,61,75153,2,0,L|282:51,3,47.9999985351563,8|8|8|8,0:1|0:1|0:1|0:1,0:0:0:0:
270,71,75457,6,0,B|228:58|228:58|189:74|189:74|140:60,1,128,10|10,0:3|0:0,0:0:0:0:
148,62,75914,6,0,B|177:23|177:23|204:159,1,176.000005371094,14|8,0:1|0:1,0:0:0:0:
174,257,76371,1,2,0:0:0:0:
98,189,76523,1,8,0:1:0:0:
98,189,76599,1,8,0:1:0:0:
98,189,76676,1,8,0:0:0:0:
202,148,76828,2,0,L|294:116,1,80,10|0,0:1|0:0,0:0:0:0:
418,28,77132,6,0,B|384:52|378:96|378:96|367:54|331:34,1,160,10|8,0:1|0:0,0:0:0:0:
479,113,77589,2,0,P|503:150|505:201,1,80,10|8,0:1|0:1,0:0:0:0:
461,303,77894,1,10,0:0:0:0:
378,254,78046,1,8,0:1:0:0:
336,365,78198,1,10,0:3:0:0:
247,268,78351,6,0,B|224:209|224:209|240:146|240:146|212:82,1,191.999994140625,14|8,0:1|0:1,0:0:0:0:
151,0,78808,1,2,0:0:0:0:
55,84,78960,1,10,0:1:0:0:
55,84,79036,1,8,0:1:0:0:
55,84,79112,2,0,L|39:189,1,80,8|8,0:0|0:1,0:0:0:0:
8,278,79417,1,2,0:0:0:0:
104,251,79569,1,8,0:3:0:0:
16,358,79721,6,0,L|8:278,1,80,2|8,0:0|0:0,0:0:0:0:
43,163,80026,2,0,P|82:144|126:146,1,80,10|8,0:1|0:1,0:0:0:0:
214,216,80330,1,10,0:0:0:0:
228,95,80483,1,8,0:1:0:0:
118,144,80635,1,10,0:0:0:0:
227,232,80787,6,0,B|277:251|277:251|305:278|305:278|373:291|391:223,1,207.999990478516,14|8,0:1|0:1,0:0:0:0:
390,209,81168,1,8,0:1:0:0:
386,196,81244,2,0,P|372:153|398:103,1,88.000002685547,10|0,0:0|0:0,0:0:0:0:
479,0,81549,2,0,P|493:40|479:81,1,88.000002685547,10|8,0:1|0:1,0:0:0:0:
386,114,81853,1,10,0:0:0:0:
284,38,82006,6,0,B|250:14|250:14|188:21|188:21|149:111,1,182.399997773438,2|8,0:0|0:1,0:0:0:0:
78,207,82462,2,0,B|59:241|59:241|36:141,1,132.00000402832,8|0,0:0|0:0,0:0:0:0:
35,137,82767,1,10,0:1:0:0:
157,94,82919,1,8,0:1:0:0:
106,4,83072,1,8,0:0:0:0:
173,111,83224,6,0,B|196:162|196:162|189:230|189:230|230:269|230:269|296:227,1,223.999993164063,14|8,0:1|0:1,0:0:0:0:
419,135,83681,5,10,0:0:0:0:
281,237,83833,1,8,0:1:0:0:
434,127,83985,5,10,0:0:0:0:
296,229,84138,1,8,0:1:0:0:
334,76,84290,5,10,0:0:0:0:
393,278,84442,1,10,0:0:0:0:
487,361,85660,6,0,B|507:340|507:340|483:247|483:247|454:309,1,160,14|8,0:1|0:1,0:0:0:0:
360,345,86117,2,0,L|255:335,1,80,10|0,0:0|0:0,0:0:0:0:
94,269,86422,5,10,0:1:0:0:
128,366,86574,1,8,0:1:0:0:
195,288,86726,1,8,0:0:0:0:
76,258,86879,6,0,B|53:224|53:224|71:102,1,160,10|8,0:1|0:1,0:0:0:0:
228,54,87336,2,0,B|195:79|195:79|152:73|149:22,1,120,10|0,0:0|0:0,0:0:0:0:
157,11,87640,1,10,0:1:0:0:
267,135,87792,2,0,L|349:148,1,80,10|8,0:1|0:0,0:0:0:0:
512,38,88097,6,0,B|503:111|439:115|439:115|394:75,1,160,14|8,0:1|0:1,0:0:0:0:
271,139,88554,2,0,L|353:152,1,80,10|0,0:2|0:0,0:0:0:0:
228,54,88858,5,10,0:1:0:0:
171,142,89011,1,8,0:1:0:0:
238,220,89163,1,8,0:0:0:0:
122,265,89315,6,0,B|106:239|106:239|126:162|126:162|171:142,1,160,10|8,0:1|0:1,0:0:0:0:
244,236,89772,2,0,B|296:244|296:244|313:264|313:264|370:282,1,120,10|0,0:0|0:0,0:0:0:0:
367,270,90077,1,10,0:0:0:0:
459,373,90229,2,0,L|468:281,1,80,10|8,0:1|0:0,0:0:0:0:
381,169,90534,6,0,B|322:177|322:177|291:211|291:211|237:219,1,160,14|8,0:1|0:1,0:0:0:0:
118,265,90990,2,0,L|126:176,1,80,10|0,0:0|0:0,0:0:0:0:
43,41,91295,5,10,0:1:0:0:
0,145,91447,1,8,0:1:0:0:
3,156,91523,1,8,0:1:0:0:
7,167,91599,1,8,0:0:0:0:
135,70,91752,6,0,B|234:51|194:113|291:100,1,160,10|8,0:1|0:1,0:0:0:0:
425,17,92209,2,0,B|409:-2|409:-2|354:25|365:71,1,120,10|0,0:0|0:0,0:0:0:0:
369,86,92513,1,10,0:1:0:0:
466,190,92665,2,0,B|482:155|482:155|457:116,1,80,10|8,0:1|0:0,0:0:0:0:
392,257,92970,6,0,B|340:246|340:246|305:274|305:274|237:285,1,160,14|8,2:1|2:1,0:0:0:0:
161,378,93427,1,8,2:2:0:0:
150,288,93579,1,8,2:3:0:0:
25,368,93731,1,10,2:1:0:0:
59,274,93884,1,8,2:1:0:0:
57,262,93960,1,8,2:1:0:0:
53,250,94036,2,0,L|23:163,1,80,8|8,2:2|2:1,0:0:0:0:
132,20,94341,5,10,2:3:0:0:
113,144,94493,1,8,2:1:0:0:
147,22,94645,1,10,2:2:0:0:
129,147,94797,1,8,2:1:0:0:
230,61,94950,5,4,2:3:0:0:
249,57,95026,1,4,2:3:0:0:
269,54,95102,1,4,2:3:0:0:
289,51,95178,1,4,2:3:0:0:
308,47,95254,2,0,L|356:36,3,35.9999989013672,8|8|8|8,2:3|2:3|2:3|2:3,0:0:0:0:
374,56,95559,6,0,B|343:38|343:38|326:101|326:101|338:126,1,128,14|8,0:1|0:1,0:0:0:0:
389,199,96016,2,0,P|419:199|393:175,1,64,2|8,0:0|0:1,0:0:0:0:
337,125,96320,2,0,L|263:111,1,64,2|8,0:0|0:1,0:0:0:0:
201,60,96625,1,2,0:0:0:0:
201,60,96777,2,0,B|257:90|257:90|279:12,2,128,10|8|8,0:1|0:1|0:1,0:0:0:0:
34,102,97691,2,0,P|15:75|33:52,1,64,10|0,0:1|0:0,0:0:0:0:
111,10,97995,6,0,L|123:145,1,128,14|8,0:1|0:1,0:0:0:0:
68,209,98452,2,0,B|39:221|39:221|49:190,1,64,2|8,0:0|0:1,0:0:0:0:
122,137,98757,2,0,L|213:119,1,64,2|8,0:0|0:1,0:0:0:0:
271,145,99061,1,2,0:0:0:0:
271,145,99214,2,0,B|314:168|311:168|312:216|307:213|343:242,1,128,10|8,0:1|0:0,0:0:0:0:
485,337,99823,5,8,0:1:0:0:
437,249,99975,1,8,0:0:0:0:
386,348,100127,1,10,0:2:0:0:
343,242,100280,1,8,0:1:0:0:
338,233,100356,1,8,0:1:0:0:
334,224,100432,6,0,B|278:214|241:261|241:261|255:208|218:179|218:179|202:198|215:221,1,240,14|0,0:1|0:0,0:0:0:0:
317,316,101650,6,0,B|410:304|382:355|466:349|466:349|443:265|489:217,1,287.999991210938,14|0,0:1|0:0,0:0:0:0:
465,83,102869,6,0,P|436:64|402:57,1,64,14|8,0:1|0:1,0:0:0:0:
400,61,103097,1,8,0:1:0:0:
391,66,103173,2,0,P|357:76|322:74,1,64,8|8,0:0|0:1,0:0:0:0:
249,10,103478,1,10,0:1:0:0:
152,107,103630,2,0,B|162:39,1,64,8|8,0:0|0:1,0:0:0:0:
245,153,103935,5,10,0:1:0:0:
151,199,104087,1,8,0:1:0:0:
243,268,104239,1,8,0:1:0:0:
246,258,104315,1,8,0:1:0:0:
249,249,104391,1,10,0:0:0:0:
140,306,104544,1,10,0:1:0:0:
331,365,104848,6,0,L|379:354,1,47.9999985351563,2|0,0:0|0:0,0:0:0:0:
510,375,105153,6,0,B|488:377|488:377|455:352|455:352|461:252,1,160,14|8,0:1|0:1,0:0:0:0:
493,112,105610,2,0,P|472:165|410:156,1,120,10|0,0:0|0:0,0:0:0:0:
404,152,105914,2,0,P|376:130|308:125,1,80,10|8,0:1|0:1,0:0:0:0:
235,156,106219,1,8,0:0:0:0:
148,72,106371,6,0,B|187:59|187:59|251:87|233:159,1,160,2|8,0:0|0:1,0:0:0:0:
135,242,106828,2,0,L|46:226,1,80,10|0,0:0|0:0,0:0:0:0:
218,163,107132,5,10,0:3:0:0:
250,261,107285,1,8,0:0:0:0:
185,343,107437,1,10,0:3:0:0:
262,252,107589,6,0,B|309:239|309:239|336:294|401:312,1,160,14|8,0:1|0:1,0:0:0:0:
506,384,108046,2,0,B|503:337|503:337|496:321|496:321|493:261,1,120,10|0,0:0|0:0,0:0:0:0:
502,249,108351,2,0,B|521:206|521:206|487:129|487:129|469:151,1,160,10|10,0:1|0:2,0:0:0:0:
316,138,108808,6,0,B|297:95|297:95|331:18|331:18|348:40,1,160,10|8,0:1|0:1,0:0:0:0:
316,138,109264,1,8,0:0:0:0:
108,213,109569,5,8,0:0:0:0:
146,91,109721,1,10,0:0:0:0:
122,221,109874,1,10,0:0:0:0:
243,173,110026,6,0,B|297:164|297:164|342:194|342:194|396:188,1,160,14|8,0:1|0:1,0:0:0:0:
276,262,110483,2,0,B|240:269|240:269|222:303|222:303|167:323,1,120,10|0,0:0|0:0,0:0:0:0:
171,332,110787,2,0,L|146:245,1,80,10|8,0:1|0:1,0:0:0:0:
79,367,111092,1,10,0:0:0:0:
0,242,111244,6,0,B|20:129|20:129|50:175,1,160,2|8,0:0|0:1,0:0:0:0:
148,255,111701,2,0,B|115:280|115:280|96:240,1,80,10|0,0:0|0:0,0:0:0:0:
172,110,112006,1,10,0:1:0:0:
252,220,112158,1,8,0:0:0:0:
405,50,112462,6,0,B|373:23|373:23|326:64|326:64|342:144,1,160,14|8,0:1|0:1,0:0:0:0:
395,265,112919,1,10,0:0:0:0:
501,196,113072,1,8,0:3:0:0:
502,180,113148,1,8,0:3:0:0:
502,164,113224,2,0,L|489:77,1,80,8|8,0:0|0:1,0:0:0:0:
336,118,113528,5,10,0:1:0:0:
424,183,113681,2,0,L|525:158,1,80,10|8,0:0|0:1,0:0:0:0:
378,14,113985,5,8,0:1:0:0:
336,118,114138,1,10,0:1:0:0:
260,44,114290,1,8,0:3:0:0:
248,39,114366,1,8,0:3:0:0:
236,34,114442,1,8,0:0:0:0:
145,75,114594,6,0,B|119:99|119:99|109:129|109:129|103:111|103:111|112:77,1,120,10|14,0:0|0:1,0:0:0:0:
15,343,119772,6,0,L|-6:342,3,15.9999995117188,2|2|2|6,0:0|0:0|0:0|0:0,0:0:0:0:
273,252,121752,1,10,0:3:0:0:
224,355,121904,1,8,0:0:0:0:
175,278,122056,2,0,L|170:228,1,40,10|8,0:3|0:3,0:0:0:0:
248,135,122361,6,0,P|263:201|330:217,1,143.999995605469,14|8,1:1|1:1,0:0:0:0:
434,166,122818,1,8,1:1:0:0:
417,51,122970,1,8,1:1:0:0:
302,32,123122,1,8,1:1:0:0:
248,135,123275,2,0,L|237:224,1,71.9999978027344,8|8,1:1|1:2,0:0:0:0:
237,224,123503,1,8,1:2:0:0:
235,241,123579,6,0,L|191:271,3,35.9999989013672,8|8|8|8,0:2|0:2|0:2|0:2,0:0:0:0:
168,277,123884,2,0,L|121:267,3,35.9999989013672,8|8|8|8,0:2|0:2|0:2|0:2,0:0:0:0:
106,292,124188,2,0,L|88:149,1,128,10|2,1:1|0:0,0:0:0:0:
141,24,124797,5,14,0:2:0:0:
198,105,124950,1,8,0:1:0:0:
295,77,125102,1,8,0:1:0:0:
125,34,125254,5,14,0:2:0:0:
190,111,125407,1,8,0:1:0:0:
283,74,125559,1,8,0:1:0:0:
109,41,125711,6,0,L|9:24,1,80,14|8,0:2|0:1,0:0:0:0:
122,214,126016,5,14,0:2:0:0:
225,183,126168,1,8,0:1:0:0:
192,79,126320,1,8,0:1:0:0:
124,229,126473,5,14,0:2:0:0:
225,190,126625,1,8,0:1:0:0:
182,90,126777,1,8,0:1:0:0:
125,243,126929,6,0,L|143:331,1,80,14|8,0:2|0:1,0:0:0:0:
307,384,127234,5,14,0:2:0:0:
339,310,127386,1,8,0:1:0:0:
222,226,127539,5,10,0:0:0:0:
239,303,127691,1,8,0:1:0:0:
366,227,127843,5,10,0:0:0:0:
353,148,127995,1,8,0:1:0:0:
231,63,128148,5,12,0:0:0:0:
199,221,128300,2,0,B|158:243|158:243|103:206|103:206|118:96,1,223.999993164063,8|8,0:0|0:1,0:0:0:0:
227,22,129061,5,10,0:0:0:0:
228,35,129138,1,8,0:0:0:0:
230,49,129214,1,4,0:3:0:0:
231,63,129290,1,4,0:3:0:0:
233,77,129366,1,8,0:3:0:0:
235,91,129442,1,8,0:3:0:0:
236,105,129518,6,0,B|254:131|286:130|286:130|315:62|390:64|390:64|413:89|421:131,1,240.000009155274,14|8,0:1|0:1,0:0:0:0:
291,220,129975,2,0,P|276:175|287:129,1,95.9999970703126,10|0,0:0|0:0,0:0:0:0:
384,244,130280,1,10,0:1:0:0:
276,306,130432,1,10,0:1:0:0:
174,233,130584,1,10,0:0:0:0:
287,129,130737,6,0,B|304:90|304:90|240:5|240:5|207:77,1,191.999994140625,2|8,2:1|0:1,0:0:0:0:
117,161,131193,2,0,B|7:180|7:180|38:150,1,143.999995605469,10|0,0:0|0:0,0:0:0:0:
47,148,131498,1,10,0:1:0:0:
168,243,131650,2,0,B|184:271|184:271|186:301|186:301|205:334,1,95.9999970703126,10|8,0:1|0:0,0:0:0:0:
375,377,131955,6,0,B|391:321|391:321|382:279|382:279|403:198,1,167.999994873047,14|0,0:1|0:0,0:0:0:0:
412,201,132259,2,0,B|448:197|448:197|471:206|471:206|520:203,1,95.9999970703126,10|8,0:1|0:0,0:0:0:0:
408,91,132564,2,0,B|372:87|372:87|349:96|349:96|300:93,1,95.9999970703126,2|8,0:0|0:1,0:0:0:0:
177,51,132869,2,0,P|219:50|195:18,1,95.9999970703126,10|8,0:1|0:0,0:0:0:0:
90,129,133173,6,0,B|51:253|51:253|31:192,1,191.999994140625,2|8,0:1|0:1,0:0:0:0:
10,104,133630,1,8,0:0:0:0:
177,51,133782,1,10,0:1:0:0:
204,145,133935,1,10,0:3:0:0:
206,161,134011,1,8,0:3:0:0:
208,176,134087,1,8,0:3:0:0:
211,191,134163,1,8,0:3:0:0:
213,207,134239,1,10,0:3:0:0:
341,221,134391,6,0,B|271:167|271:167|177:195|177:195|229:211,1,223.999993164063,14|8,0:1|0:1,0:0:0:0:
349,250,134848,2,0,P|416:230|416:163,1,143.999995605469,10|0,0:0|0:0,0:0:0:0:
407,148,135153,1,10,0:1:0:0:
282,71,135305,2,0,L|272:172,1,95.9999970703126,10|8,0:1|0:0,0:0:0:0:
154,268,135610,6,0,B|118:269|118:269|74:225|74:225|70:118,1,191.999994140625,2|8,0:0|0:1,0:0:0:0:
65,19,136066,1,8,0:0:0:0:
152,127,136219,1,2,0:0:0:0:
192,16,136371,1,8,0:1:0:0:
234,151,136523,1,10,0:3:0:0:
247,155,136599,1,8,0:3:0:0:
260,159,136676,1,8,0:0:0:0:
395,135,136828,6,0,B|395:86|332:45|254:134|328:209,1,223.999993164063,14|8,0:1|0:1,0:0:0:0:
334,219,137209,1,8,0:1:0:0:
344,228,137285,2,0,B|376:223|376:223|396:237|396:237|451:233,1,95.9999970703126,10|8,0:0|0:1,0:0:0:0:
260,159,137589,1,10,0:1:0:0:
205,288,137742,1,10,2:2:0:0:
301,314,137894,1,8,2:2:0:0:
248,167,138046,6,0,B|195:142|195:142|125:190|63:169,1,191.999994140625,14|8,2:1|3:2,0:0:0:0:
55,165,138427,1,8,3:2:0:0:
43,156,138503,2,0,L|32:55,1,95.9999970703126,8|8,3:3|3:3,0:0:0:0:
207,0,138808,5,8,1:2:0:0:
208,20,138884,1,8,1:2:0:0:
210,41,138960,1,8,1:2:0:0:
213,61,139036,1,8,1:2:0:0:
214,82,139112,1,8,1:2:0:0:
217,104,139188,1,8,1:2:0:0:
220,125,139264,6,0,B|286:144|286:144|356:90|356:90|426:119,1,223.999993164063,14|8,0:1|0:1,0:0:0:0:
430,122,139645,1,8,0:1:0:0:
443,127,139721,2,0,B|475:98|475:98|469:22,1,95.9999970703126,10|0,0:0|0:0,0:0:0:0:
330,109,140026,1,10,0:1:0:0:
422,207,140178,2,0,B|470:211|470:211|508:177,1,95.9999970703126,10|8,0:1|0:0,0:0:0:0:
324,98,140483,6,0,B|281:83|281:83|227:113|227:113|209:205,1,191.999994140625,2|8,0:2|0:1,0:0:0:0:
144,325,140940,2,0,B|117:217|117:217|94:276,1,143.999995605469,10|0,0:0|0:0,0:0:0:0:
105,261,141244,1,10,0:1:0:0:
234,308,141396,2,0,B|272:318|272:318|281:332|281:332|324:348,1,95.9999970703126,10|8,0:1|0:0,0:0:0:0:
476,384,141701,6,0,L|497:198,1,167.999994873047,14|0,0:1|0:0,0:0:0:0:
496,202,142006,2,0,L|491:142,2,47.9999985351563,10|8|8,0:1|0:1|0:2,0:0:0:0:
353,241,142310,2,0,P|307:239|279:202,1,95.9999970703126,2|8,0:0|0:1,0:0:0:0:
418,116,142615,2,0,P|464:117|492:154,1,95.9999970703126,10|8,0:1|0:0,0:0:0:0:
351,264,142919,6,0,B|297:267|269:231|269:231|248:178|189:173,1,191.999994140625,2|8,0:0|0:1,0:0:0:0:
76,150,143376,1,8,0:0:0:0:
169,259,143528,2,0,P|196:220|194:173,1,95.9999970703126,2|8,0:0|0:1,0:0:0:0:
111,51,143833,1,10,0:1:0:0:
76,150,143985,1,10,0:0:0:0:
218,66,144138,6,0,B|275:49|325:86|325:86|358:31|417:31,1,223.999993164063,14|8,0:1|0:1,0:0:0:0:
470,170,144594,2,0,B|440:203|440:203|378:181|394:127,1,143.999995605469,10|0,0:0|0:0,0:0:0:0:
404,118,144899,1,10,0:1:0:0:
506,247,145051,2,0,P|521:291|504:339,1,95.9999970703126,10|8,0:1|0:0,0:0:0:0:
349,375,145356,6,0,B|330:338|330:338|345:239|345:239|317:192,1,191.999994140625,2|8,0:1|0:1,0:0:0:0:
254,124,145813,1,8,0:0:0:0:
166,254,145965,1,2,0:0:0:0:
260,271,146117,1,8,0:1:0:0:
159,155,146270,1,10,0:3:0:0:
145,150,146346,1,8,0:3:0:0:
131,144,146422,1,8,0:0:0:0:
261,42,146574,6,0,B|295:15|295:15|360:26|360:26|386:160,1,223.999993164063,14|8,0:1|0:1,0:0:0:0:
512,236,147031,5,10,0:0:0:0:
387,156,147183,1,8,0:1:0:0:
458,317,147336,5,10,0:0:0:0:
392,174,147488,1,8,0:1:0:0:
369,348,147640,5,10,0:0:0:0:
398,192,147792,1,8,0:1:0:0:
276,328,147945,5,10,0:1:0:0:
217,239,148097,1,8,0:0:0:0:
199,232,148173,1,8,0:0:0:0:
180,227,148249,2,0,L|129:216,3,47.9999985351563,8|8|8|8,0:0|0:0|0:0|0:0,0:0:0:0:
110,235,148554,6,0,B|94:256|94:256|67:147,1,128,10|10,0:3|0:0,0:0:0:0:
69,157,149011,6,0,B|172:159|117:223|227:240,1,176.000005371094,14|8,0:1|0:1,0:0:0:0:
289,340,149468,2,0,B|310:249,1,88.000002685547,10|0,0:0|0:0,0:0:0:0:
413,318,149772,1,10,0:1:0:0:
309,254,149924,2,0,B|304:159,1,88.000002685547,10|8,0:1|0:0,0:0:0:0:
431,108,150229,6,0,B|472:132|472:132|488:42|488:42|447:11,1,176.000005371094,10|8,0:1|0:1,0:0:0:0:
348,88,150686,2,0,B|313:78|313:78|293:80|293:80|256:71,1,88.000002685547,10|0,0:0|0:0,0:0:0:0:
143,1,150990,1,10,0:1:0:0:
108,97,151143,1,8,0:1:0:0:
30,9,151295,1,10,0:0:0:0:
2,132,151447,6,0,B|9:267|9:267|60:308,1,191.999994140625,14|8,0:1|0:1,0:0:0:0:
165,354,151904,1,10,0:0:0:0:
239,252,152056,2,0,B|250:157,2,88.000002685547,2|8|8,0:0|0:1|0:1,0:0:0:0:
165,354,152513,1,10,0:0:0:0:
138,254,152665,1,8,0:1:0:0:
275,340,152818,6,0,B|308:343|308:343|321:354|321:354|364:360,1,88.000002685547,2|8,0:0|0:1,0:0:0:0:
239,252,153122,2,0,B|206:246|206:246|190:253|190:253|147:248,1,88.000002685547,10|0,0:0|0:0,0:0:0:0:
305,146,153427,1,10,0:0:0:0:
369,251,153579,1,8,0:1:0:0:
429,142,153731,1,10,0:0:0:0:
300,55,153884,6,0,B|259:24|259:24|188:56|188:56|170:139,1,207.999990478516,14|8,0:1|0:1,0:0:0:0:
77,208,154341,2,0,B|67:176|67:176|66:151|66:151|52:119,1,88.000002685547,10|0,0:0|0:0,0:0:0:0:
162,257,154645,2,0,B|192:256|192:256|208:267|208:267|246:276,1,88.000002685547,10|8,0:1|0:1,0:0:0:0:
295,359,154950,1,10,0:0:0:0:
384,272,155102,6,0,B|407:240|407:240|382:140|382:140|363:180,1,182.399997773438,10|8,0:1|0:1,0:0:0:0:
502,248,155559,2,0,B|522:216|522:216|495:98,1,132.00000402832,10|0,0:0|0:0,0:0:0:0:
493,107,155863,1,10,0:1:0:0:
368,18,156016,1,8,0:1:0:0:
311,113,156168,1,8,0:0:0:0:
175,36,156320,6,0,B|126:6|126:6|61:73|61:73|95:152,1,223.999993164063,14|8,0:1|0:1,0:0:0:0:
182,286,156777,2,0,B|198:186,1,88.000002685547,10|0,0:0|0:0,0:0:0:0:
92,232,157082,5,10,0:1:0:0:
281,245,157234,1,10,0:1:0:0:
99,247,157386,5,10,0:0:0:0:
271,259,157539,2,0,B|320:270|320:270|333:300|333:300|407:328,1,143.999995605469,10|8,0:1|0:1,0:0:0:0:
490,377,157995,2,0,L|508:278,1,71.9999978027344,10|8,0:0|0:1,0:0:0:0:
439,157,158300,5,10,0:0:0:0:
435,168,158376,1,8,0:0:0:0:
432,180,158452,1,4,0:3:0:0:
429,191,158528,1,4,0:3:0:0:
426,203,158605,1,8,0:3:0:0:
423,214,158681,1,8,0:3:0:0:
420,226,158757,1,10,0:1:0:0:
101,384,160737,2,0,B|94:339|94:339|95:343|95:343|94:339|94:339|91:326|91:326|92:331|92:331|91:326|91:326|88:312|88:312|89:317|89:317|88:312|88:312|85:289,1,119.999996337891,2|0,0:0|0:0,0:0:0:0:
102,275,161193,6,0,B|215:244|177:352|287:343,1,207.999990478516,14|8,0:1|0:1,0:0:0:0:
442,384,161650,2,0,L|430:276,1,88.000002685547,10|0,0:0|0:0,0:0:0:0:
328,175,161955,2,0,P|299:198|336:200,1,88.000002685547,10|8,0:1|0:1,0:0:0:0:
423,149,162259,1,10,0:0:0:0:
325,60,162412,6,0,B|263:50|263:50|223:80|223:80|160:69,1,176.000005371094,2|8,0:0|0:1,0:0:0:0:
64,115,162869,2,0,B|50:20,1,88.000002685547,10|0,0:0|0:0,0:0:0:0:
156,85,163173,1,10,0:1:0:0:
78,200,163325,2,0,P|36:201|-1:174,1,88.000002685547,10|0,0:0|0:0,0:0:0:0:
160,69,163630,6,0,B|218:59|218:59|248:82|248:82|321:85,1,155.999992858887,14|0,0:1|0:0,0:0:0:0:
325,84,163935,1,10,0:1:0:0:
461,103,164087,2,0,B|441:73|441:73|447:131|410:162,1,132.00000402832,10|0,0:0|0:0,0:0:0:0:
397,172,164391,2,0,L|294:193,1,88.000002685547,10|0,0:1|0:0,0:0:0:0:
206,151,164696,1,10,0:0:0:0:
319,202,164848,6,0,B|382:220|382:220|406:263|406:263|484:287,1,176.000005371094,2|8,0:1|0:1,0:0:0:0:
328,375,165305,2,0,L|311:284,1,88.000002685547,10|0,0:0|0:0,0:0:0:0:
206,151,165610,5,10,0:0:0:0:
144,257,165762,1,8,0:0:0:0:
53,174,165914,1,8,0:0:0:0:
203,135,166066,6,0,B|265:75|190:-2|190:-2|143:19,1,207.999990478516,14|8,0:1|0:1,0:0:0:0:
206,151,166523,2,0,P|241:177|302:169,1,88.000002685547,10|0,0:0|0:0,0:0:0:0:
140,34,166828,2,0,P|105:8|44:16,1,88.000002685547,10|8,0:1|0:1,0:0:0:0:
0,105,167132,1,10,0:0:0:0:
110,205,167285,6,0,L|292:176,1,176.000005371094,2|8,0:0|0:1,0:0:0:0:
423,181,167742,2,0,B|382:164|382:164|414:132,1,88.000002685547,10|0,0:0|0:0,0:0:0:0:
508,144,168046,1,10,0:1:0:0:
503,249,168198,1,8,0:0:0:0:
423,181,168351,1,8,0:1:0:0:
389,303,168503,6,0,B|345:343|345:343|289:294|289:294|279:210,1,207.999990478516,14|8,0:1|0:1,0:0:0:0:
315,119,168960,1,10,0:0:0:0:
221,28,169112,1,8,0:1:0:0:
208,24,169188,1,8,0:1:0:0:
195,20,169264,2,0,B|166:14|166:14|148:23|148:23|96:15,1,88.000002685547,10|0,0:2|0:1,0:0:0:0:
230,121,169569,2,0,B|259:115|259:115|277:124|277:124|329:116,1,88.000002685547,10|8,0:1|0:0,0:0:0:0:
112,37,169874,5,10,0:1:0:0:
54,125,170026,1,8,0:1:0:0:
129,210,170178,1,10,0:1:0:0:
59,311,170330,1,8,0:1:0:0:
54,298,170407,1,8,0:1:0:0:
49,285,170483,1,8,0:0:0:0:
143,320,170635,6,0,B|165:326|178:328|178:328|188:337|194:345|194:345|220:355|248:370,1,107.999996704102,10|0,0:0|0:0,0:0:0:0:
263,373,170940,6,0,B|297:340|297:340|287:279|287:279|303:233|303:233|302:155,1,223.999993164063,14|8,0:1|0:1,0:0:0:0:
212,34,171396,2,0,B|175:47|175:47|85:22,1,95.9999970703126,10|0,0:1|0:0,0:0:0:0:
302,166,171701,1,10,0:0:0:0:
378,105,171853,2,0,B|395:86|395:86|388:49|388:49|378:64,1,79.9999975585938,10|2,0:1|0:0,0:0:0:0:
285,178,172158,6,0,B|243:228|243:228|293:362,1,191.999994140625,10|8,0:0|0:0,0:0:0:0:
446,384,172615,1,8,0:1:0:0:
420,271,172767,1,8,0:1:0:0:
287,346,172919,2,0,B|248:339|248:339|224:346|224:346|182:337,1,95.9999970703126,10|8,0:0|0:1,0:0:0:0:
64,384,173224,1,10,0:0:0:0:
10,228,173376,6,0,B|26:178|26:178|59:312,1,167.999994873047,14|0,0:1|0:0,0:0:0:0:
66,295,173681,2,0,B|108:314|108:314|141:276,1,95.9999970703126,10|0,0:1|0:0,0:0:0:0:
183,154,173985,1,10,0:1:0:0:
173,151,174061,1,8,0:1:0:0:
163,149,174138,1,8,0:0:0:0:
265,55,174290,2,0,B|295:17|295:17|340:36,1,95.9999970703126,10|0,0:1|0:0,0:0:0:0:
510,121,174594,5,10,0:0:0:0:
406,93,174747,1,8,0:1:0:0:
380,197,174899,1,8,0:2:0:0:
483,223,175051,1,8,0:1:0:0:
510,121,175204,1,8,0:1:0:0:
507,111,175280,1,8,0:1:0:0:
504,101,175356,2,0,L|395:71,1,95.9999970703126,8|8,0:0|0:1,0:0:0:0:
234,22,175660,5,8,0:0:0:0:
250,19,175737,1,8,0:0:0:0:
266,15,175813,2,0,B|311:25|311:25|333:72|333:72|293:178,1,167.999994873047,6|0,0:0|0:0,0:0:0:0:
302,150,176117,2,0,B|192:131,1,95.9999970703126,10|8,0:1|0:0,0:0:0:0:
77,267,176422,6,0,B|75:156|75:156|102:200,1,155.999992858887,2|0,0:1|0:0,0:0:0:0:
109,204,176726,2,0,B|219:223,1,95.9999970703126,10|8,0:1|0:0,0:0:0:0:
334,355,177031,6,0,B|353:322|353:322|299:245|299:245|288:279,1,167.999994873047,2|0,0:1|0:0,0:0:0:0:
281,292,177336,2,0,B|171:311,1,95.9999970703126,10|8,0:1|0:0,0:0:0:0:
14,346,177640,6,0,B|32:370|32:370|40:325|40:325|28:293|28:293|36:249,1,155.999992858887,2|0,0:0|0:0,0:0:0:0:
33,235,177945,2,0,L|16:135,2,95.9999970703126,10|8|8,0:1|0:0|0:0,0:0:0:0:
186,308,178402,5,14,0:1:0:0:
132,174,178630,1,8,0:0:0:0:
206,50,178858,1,8,0:0:0:0:
300,29,179011,5,14,0:1:0:0:
252,149,179239,1,8,0:0:0:0:
312,264,179468,1,8,0:0:0:0:
395,284,179620,5,14,0:1:0:0:
348,174,179848,1,8,0:0:0:0:
388,61,180077,1,8,0:0:0:0:
464,37,180229,5,10,0:3:0:0:
420,130,180457,1,4,0:3:0:0:
319,100,180686,2,0,B|272:86|230:89|218:124|194:131|156:109|155:72|199:56|224:81,1,212.799997402344,10|0,0:1|0:0,0:0:0:0:
222,79,182056,6,0,L|238:217,1,111.999996582031,14|8,2:1|2:1,0:0:0:0:
170,244,182513,2,0,P|145:230|117:230,1,55.9999982910157,2|8,2:0|2:1,0:0:0:0:
100,313,182818,2,0,P|124:326|152:326,1,55.9999982910157,2|8,2:0|2:1,0:0:0:0:
235,306,183122,1,2,2:0:0:0:
235,306,183275,2,0,L|370:291,1,111.999996582031,8|8,2:1|2:1,0:0:0:0:
487,201,183884,2,0,P|501:145|473:86,1,111.999996582031,10|8,2:1|2:1,0:0:0:0:
423,35,184341,1,2,2:0:0:0:
345,67,184493,6,0,B|303:61|303:61|282:69|282:69|229:62,1,111.999996582031,14|8,2:1|2:1,0:0:0:0:
91,149,185102,2,0,B|133:143|133:143|154:151|154:151|207:144,1,111.999996582031,10|8,2:3|2:1,0:0:0:0:
275,196,185559,1,2,2:0:0:0:
275,196,185711,2,0,B|321:202|321:202|342:194|342:194|384:200,2,111.999996582031,10|8|8,2:1|2:1|2:1,0:0:0:0:
166,324,186625,2,0,L|99:314,1,55.9999982910157,10|0,2:3|2:0,0:0:0:0:
31,384,186929,6,0,B|25:342|25:342|30:300|30:300|19:244,1,128,14|8,0:1|0:1,0:0:0:0:
6,162,187386,2,0,B|27:87,1,64,2|8,0:0|0:1,0:0:0:0:
118,116,187691,2,0,B|116:50,1,64,2|8,0:0|0:1,0:0:0:0:
202,14,187995,1,2,0:0:0:0:
202,14,188148,2,0,B|239:34|239:34|254:80|254:80|290:108,1,128,8|10,0:1|0:1,0:0:0:0:
437,39,188757,1,10,0:1:0:0:
510,187,189061,1,10,0:1:0:0:
356,278,189366,6,0,B|304:269|304:269|283:283|283:283|212:273,2,128,14|8|8,0:1|0:1|0:1,0:0:0:0:
510,187,190280,2,0,P|517:156|496:118,1,64,10|0,0:1|0:0,0:0:0:0:
437,79,190584,2,0,B|385:70|385:70|364:84|364:84|293:74,2,128,10|8|8,0:1|0:1|0:1,0:0:0:0:
498,236,191498,6,0,L|476:314,1,64,10|0,0:1|0:0,0:0:0:0:
341,365,191803,5,14,0:0:0:0:
359,261,191955,1,8,0:1:0:0:
271,204,192107,1,8,0:1:0:0:
354,358,192259,5,14,0:0:0:0:
363,253,192412,1,8,0:1:0:0:
271,204,192564,1,8,0:1:0:0:
367,350,192716,6,0,L|445:313,1,80,14|8,0:0|0:1,0:0:0:0:
361,114,193021,5,14,0:0:0:0:
271,204,193173,1,8,0:1:0:0:
239,79,193325,1,8,0:1:0:0:
358,125,193478,5,14,0:0:0:0:
260,207,193630,1,8,0:1:0:0:
239,79,193782,1,8,0:1:0:0:
354,137,193935,6,0,L|340:219,1,80,14|8,0:0|0:1,0:0:0:0:
213,375,194239,5,14,0:2:0:0:
154,309,194391,1,8,0:1:0:0:
260,207,194544,5,10,0:0:0:0:
297,286,194696,1,8,0:1:0:0:
434,178,194848,5,10,0:0:0:0:
354,137,195001,1,8,0:1:0:0:
395,335,195153,5,12,0:0:0:0:
509,227,195305,2,0,B|439:171|341:210|322:320|322:320|358:345|395:336,1,334.800010472718,8|0,0:0|0:1,0:0:0:0:
503,81,197285,2,0,L|486:7,1,60.0000022888184,2|0,0:0|0:0,0:0:0:0:
489,22,197742,6,0,B|447:2|447:2|366:48|366:48|403:171,1,240.000009155274,14|8,0:1|0:1,0:0:0:0:
460,269,198198,2,0,B|510:256|510:256|474:214,1,103.999995239258,10|0,0:0|0:0,0:0:0:0:
336,255,198503,1,10,0:1:0:0:
407,358,198655,2,0,L|524:338,1,103.999995239258,10|8,0:1|0:0,0:0:0:0:
325,238,198960,6,0,B|272:238|272:238|219:292|219:292|128:314,1,207.999990478516,2|8,2:1|0:1,0:0:0:0:
0,349,199417,2,0,B|22:348|44:357|44:357|26:299|58:248,1,155.999992858887,10|0,0:0|0:0,0:0:0:0:
74,242,199721,1,10,0:1:0:0:
47,96,199874,2,0,P|1:94|9:140,1,103.999995239258,10|8,0:1|0:0,0:0:0:0:
182,216,200178,6,0,B|246:211|246:211|288:246|288:246|352:268,1,180.000006866455,14|0,0:1|0:0,0:0:0:0:
364,276,200483,2,0,L|387:166,1,103.999995239258,10|8,0:1|0:0,0:0:0:0:
451,54,200787,2,0,P|494:47|467:79,1,103.999995239258,2|8,0:0|0:1,0:0:0:0:
324,119,201092,2,0,B|288:109|288:109|260:118|260:118|210:107,1,103.999995239258,10|8,0:1|0:0,0:0:0:0:
68,77,201396,6,0,B|104:40|104:40|159:36|204:60|204:60|223:110,1,207.999990478516,2|8,0:1|0:1,0:0:0:0:
157,200,201853,1,8,0:0:0:0:
211,325,202006,1,10,0:1:0:0:
306,272,202158,1,10,0:3:0:0:
309,249,202234,1,8,0:3:0:0:
306,228,202310,1,8,0:3:0:0:
300,207,202386,1,8,0:3:0:0:
287,191,202462,1,10,0:3:0:0:
144,180,202615,6,0,B|220:212|220:212|282:180|374:186,1,240.000009155274,14|8,0:1|0:1,0:0:0:0:
512,217,203072,2,0,B|491:179|491:179|492:243|445:279,1,155.999992858887,10|0,0:0|0:0,0:0:0:0:
434,296,203376,1,10,0:1:0:0:
374,186,203528,2,0,B|343:58,1,103.999995239258,10|8,0:1|0:0,0:0:0:0:
186,2,203833,6,0,B|161:61|161:61|182:143|182:143|150:214,1,207.999990478516,2|8,0:0|0:1,0:0:0:0:
98,289,204290,1,8,0:0:0:0:
0,172,204442,1,2,0:0:0:0:
0,273,204594,1,8,0:1:0:0:
84,142,204747,1,10,0:3:0:0:
76,128,204823,1,8,0:3:0:0:
68,114,204899,1,8,0:0:0:0:
174,40,205051,6,0,B|230:21|270:59|270:59|281:78|281:78|329:117|390:89,1,240.000009155274,14|8,0:1|0:1,0:0:0:0:
402,83,205432,1,8,0:1:0:0:
416,78,205508,2,0,P|429:42|368:21,1,103.999995239258,10|8,0:0|0:1,0:0:0:0:
299,137,205813,1,10,0:1:0:0:
400,194,205965,1,10,2:2:0:0:
293,265,206117,1,8,2:2:0:0:
418,337,206270,6,0,B|458:318|458:318|454:211|454:211|399:193,1,207.999990478516,14|8,2:1|3:2,0:0:0:0:
384,197,206650,1,8,3:2:0:0:
368,199,206726,2,0,L|257:176,1,103.999995239258,8|8,3:3|3:3,0:0:0:0:
66,99,207031,5,8,1:2:0:0:
85,91,207107,1,8,1:2:0:0:
107,84,207183,1,8,1:2:0:0:
128,80,207259,1,8,1:2:0:0:
151,72,207336,1,8,1:2:0:0:
173,66,207412,1,8,1:2:0:0:
195,60,207488,6,0,B|239:44|239:44|295:103|295:103|255:207,1,207.999990478516,14|8,0:1|0:1,0:0:0:0:
171,243,207945,2,0,B|156:149,1,71.9999978027344,10|0,0:1|0:0,0:0:0:0:
77,315,208249,1,10,0:0:0:0:
77,315,208402,2,0,B|62:221,1,71.9999978027344,10|0,0:1|0:0,0:0:0:0:
0,143,208706,5,10,0:0:0:0:
62,230,208858,1,8,0:1:0:0:
92,100,209011,1,8,0:0:0:0:
169,186,209163,2,0,B|249:193,1,71.9999978027344,10|8,0:1|0:1,0:0:0:0:
389,130,209468,5,10,0:0:0:0:
342,228,209620,1,8,0:1:0:0:
240,192,209772,1,8,0:0:0:0:
389,130,209924,6,0,B|407:97|407:97|380:17|380:17|352:53,1,155.999992858887,14|0,0:1|0:0,0:0:0:0:
350,55,210229,2,0,L|255:37,1,71.9999978027344,10|0,0:1|0:0,0:0:0:0:
184,77,210534,1,10,0:1:0:0:
180,63,210610,1,8,0:1:0:0:
176,49,210686,1,8,0:0:0:0:
68,0,210838,5,10,0:1:0:0:
0,83,210990,1,8,0:1:0:0:
84,138,211143,1,8,0:0:0:0:
13,258,211295,6,0,B|-4:171,1,71.9999978027344,10|8,0:1|0:0,0:0:0:0:
101,309,211599,2,0,B|118:222,1,71.9999978027344,10|8,0:1|0:1,0:0:0:0:
120,224,211828,1,8,0:1:0:0:
126,211,211904,1,8,0:0:0:0:
215,310,212056,1,8,0:1:0:0:
278,237,212209,2,0,P|274:207|307:213,1,44.0000013427735,8|8,0:0|0:0,0:0:0:0:
359,219,212361,6,0,B|301:239|301:239|246:184|246:184|284:65,1,240.000009155274,14|8,0:1|0:1,0:0:0:0:
405,0,212818,2,0,B|436:44|436:44|417:94|417:94|452:164,1,155.999992858887,10|0,0:0|0:0,0:0:0:0:
447,156,213122,1,10,0:2:0:0:
512,269,213275,1,8,0:3:0:0:
512,269,213351,1,8,0:3:0:0:
512,269,213427,1,8,0:0:0:0:
391,345,213579,6,0,B|329:326|329:326|270:358|270:358|174:341,1,207.999990478516,14|8,0:1|0:1,0:0:0:0:
97,384,214036,1,8,0:0:0:0:
28,280,214188,1,10,0:3:0:0:
109,236,214341,1,10,0:0:0:0:
30,135,214493,1,10,0:3:0:0:
24,120,214569,1,8,0:3:0:0:
18,105,214645,1,8,0:0:0:0:
162,67,214797,6,0,B|188:29|188:29|107:24|107:24|139:171,1,240.000009155274,14|8,0:1|0:1,0:0:0:0:
246,301,215254,5,10,0:0:0:0:
135,154,215407,1,8,0:1:0:0:
167,361,215559,5,10,0:0:0:0:
139,174,215711,1,8,0:1:0:0:
69,364,215863,5,10,0:0:0:0:
144,194,216016,1,8,0:1:0:0:
259,323,216168,5,10,0:0:0:0:
276,328,216244,1,8,0:0:0:0:
293,333,216320,1,8,0:3:0:0:
309,337,216396,1,8,0:3:0:0:
326,341,216473,2,0,L|399:355,3,51.999997619629,8|8|8|8,0:1|0:1|0:1|0:1,0:0:0:0:
397,367,216777,6,0,B|437:347|437:347|455:316|455:316|505:295,1,128,10|10,0:3|0:0,0:0:0:0:
499,298,217234,6,0,B|463:313|463:313|384:286|399:205,1,176.000005371094,14|8,0:1|0:1,0:0:0:0:
430,99,217691,1,2,0:0:0:0:
509,192,217843,1,10,0:1:0:0:
509,192,217919,1,8,0:1:0:0:
509,192,217995,1,8,0:0:0:0:
398,207,218148,2,0,L|310:191,1,80,10|0,0:1|0:0,0:0:0:0:
202,230,218452,6,0,B|277:259|277:259|320:191,1,160,10|8,0:1|0:0,0:0:0:0:
239,112,218909,2,0,L|151:96,1,80,10|8,0:1|0:1,0:0:0:0:
289,0,219214,1,10,0:0:0:0:
349,86,219366,1,8,0:1:0:0:
435,0,219518,1,10,0:1:0:0:
499,127,219671,6,0,B|479:199|479:199|493:244|493:244|470:331,1,191.999994140625,14|8,0:1|0:1,0:0:0:0:
395,380,220127,1,2,0:1:0:0:
301,296,220280,1,10,0:1:0:0:
301,296,220356,1,8,0:1:0:0:
301,296,220432,2,0,L|287:199,1,80,8|8,0:0|0:1,0:0:0:0:
206,140,220737,1,2,0:0:0:0:
272,72,220889,1,8,0:1:0:0:
159,39,221041,6,0,B|130:35|130:35|109:41|109:41|57:33,1,80,2|8,0:0|0:2,0:0:0:0:
0,145,221346,2,0,B|29:141|29:141|50:147|50:147|102:139,1,80,10|8,0:1|0:1,0:0:0:0:
198,241,221650,1,10,0:0:0:0:
206,140,221803,1,8,0:1:0:0:
85,227,221955,1,10,0:0:0:0:
207,259,222107,6,0,B|248:269|279:268|279:268|309:308|309:308|348:318|392:342,1,207.999990478516,14|8,0:1|0:1,0:0:0:0:
405,351,222488,1,8,0:1:0:0:
418,362,222564,2,0,P|447:331|437:272,1,88.000002685547,10|0,0:0|0:0,0:0:0:0:
339,201,222869,2,0,P|318:162|330:121,1,88.000002685547,10|8,0:1|0:1,0:0:0:0:
386,27,223173,1,10,0:0:0:0:
512,140,223325,6,0,B|443:118|443:118|395:139|395:139|329:122,1,191.999994140625,10|8,0:1|0:1,0:0:0:0:
198,118,223782,2,0,B|230:23|230:23|249:76,1,132.00000402832,10|0,0:0|0:0,0:0:0:0:
245,70,224087,1,10,0:1:0:0:
105,144,224239,1,8,0:1:0:0:
205,204,224391,1,8,0:0:0:0:
62,267,224544,6,0,B|31:221|31:221|77:107|77:107|105:144,1,223.999993164063,14|8,0:1|0:1,0:0:0:0:
115,160,224924,1,8,0:1:0:0:
126,175,225001,2,0,B|160:212|160:212|220:200,1,95.9999970703126,10|0,0:0|0:0,0:0:0:0:
351,134,225305,5,10,0:1:0:0:
245,71,225457,1,8,0:1:0:0:
342,148,225610,1,8,0:0:0:0:
204,203,225762,6,0,P|171:121|245:71,1,191.999994140625,2|8,0:0|0:1,0:0:0:0:
333,163,226219,2,0,B|373:173|373:173|386:187|386:187|428:198,1,95.9999970703126,10|0,0:0|0:0,0:0:0:0:
508,87,226523,5,10,0:1:0:0:
440,192,226676,1,8,0:1:0:0:
404,47,226828,1,8,0:0:0:0:
305,177,226980,6,0,B|253:190|223:189|223:189|188:247|188:247|145:249|83:273,1,240.000009155274,14|8,0:1|0:1,0:0:0:0:
84,278,227361,1,8,0:1:0:0:
65,288,227437,2,0,P|39:244|56:176,1,103.999995239258,10|0,0:0|0:0,0:0:0:0:
135,32,227742,5,10,0:1:0:0:
213,113,227894,2,0,B|252:122|252:122|268:146|268:146|301:157,1,103.999995239258,10|8,0:1|0:0,0:0:0:0:
473,128,228198,6,0,B|491:83|491:83|431:-5|431:-5|411:44,1,207.999990478516,2|8,0:1|0:1,0:0:0:0:
301,157,228655,2,0,L|192:166,1,103.999995239258,10|0,0:0|0:0,0:0:0:0:
0,137,228960,5,10,0:1:0:0:
70,232,229112,1,8,0:1:0:0:
85,77,229264,1,8,0:0:0:0:
202,181,229417,6,0,B|240:197|281:206|281:206|295:249|295:249|346:269|396:306,1,240.000009155274,14|8,0:1|0:1,0:0:0:0:
406,316,229797,1,8,0:1:0:0:
421,327,229874,2,0,P|450:289|443:241,1,95.9999970703126,10|0,0:0|0:0,0:0:0:0:
335,101,230178,5,10,0:0:0:0:
328,122,230254,1,8,0:0:0:0:
323,143,230330,1,4,0:3:0:0:
317,164,230407,1,4,0:3:0:0:
312,186,230483,1,8,0:3:0:0:
306,207,230559,1,8,0:3:0:0:
301,228,230635,1,10,0:1:0:0:
78,379,232462,1,8,0:3:0:0:
76,369,232539,1,8,0:3:0:0:
75,359,232615,2,0,L|63:278,1,64,8|8,0:2|0:3,0:0:0:0:
66,295,233072,6,0,B|117:276|117:276|139:332|193:340,1,160,14|8,0:1|0:1,0:0:0:0:
287,243,233528,2,0,L|207:255,1,80,10|0,0:0|0:0,0:0:0:0:
26,175,233833,5,10,0:1:0:0:
73,82,233985,1,8,0:1:0:0:
45,182,234138,1,8,0:0:0:0:
149,113,234290,6,0,B|209:117|209:117|231:137|231:137|300:151,1,160,10|8,0:1|0:1,0:0:0:0:
428,91,234747,2,0,P|410:31|476:19,1,120,10|0,0:0|0:0,0:0:0:0:
462,14,235051,1,10,0:1:0:0:
511,141,235204,2,0,B|504:169|504:169|506:190|506:190|497:224,1,80,10|8,0:1|0:0,0:0:0:0:
428,353,235508,6,0,B|452:295|396:244|396:244|348:272,1,160,14|8,0:1|0:1,0:0:0:0:
286,346,235965,2,0,B|183:329,1,80,10|0,0:2|0:0,0:0:0:0:
21,321,236270,5,10,0:1:0:0:
114,277,236422,1,8,0:1:0:0:
105,380,236574,1,8,0:0:0:0:
8,310,236726,6,0,B|-9:196|-9:196|24:143,1,160,10|8,0:1|0:1,0:0:0:0:
121,56,237183,2,0,L|141:177,1,120,10|0,0:0|0:0,0:0:0:0:
143,186,237488,1,10,0:0:0:0:
238,275,237640,2,0,L|251:191,1,80,10|8,0:1|0:0,0:0:0:0:
394,121,237945,6,0,B|336:102|336:102|294:119|294:119|242:104,1,160,14|8,0:1|0:1,0:0:0:0:
118,27,238402,2,0,B|214:13,1,80,10|0,0:0|0:0,0:0:0:0:
48,184,238706,5,10,0:1:0:0:
0,97,238858,1,8,0:1:0:0:
5,86,238935,1,8,0:1:0:0:
11,76,239011,1,8,0:0:0:0:
118,27,239163,6,0,B|175:39|175:39|190:78|190:78|252:109,1,160,10|8,0:1|0:1,0:0:0:0:
377,8,239620,2,0,B|360:-5|360:-5|323:45|323:45|345:81,1,120,10|0,0:0|0:0,0:0:0:0:
347,86,239924,1,10,0:1:0:0:
470,174,240077,2,0,B|437:152|437:152|386:157,1,80,10|8,0:1|0:0,0:0:0:0:
272,266,240381,6,0,B|292:308|292:308|322:176,1,160,14|8,2:1|2:1,0:0:0:0:
243,104,240838,1,8,2:2:0:0:
203,209,240990,1,8,2:3:0:0:
133,74,241143,1,10,2:1:0:0:
119,195,241295,1,8,2:1:0:0:
18,79,241447,1,8,0:0:0:0:
35,202,241599,1,8,0:1:0:0:
133,74,241752,5,10,0:3:0:0:
203,209,241904,1,10,0:0:0:0:
221,225,241980,1,8,0:0:0:0:
244,234,242056,1,4,0:3:0:0:
269,234,242132,1,4,0:3:0:0:
292,224,242209,1,8,0:3:0:0:
311,208,242285,1,8,0:3:0:0:
322,185,242361,2,0,L|338:106,1,80,10|8,0:1|0:0,0:0:0:0:
