osu file format v14

[General]
AudioFilename: audio.mp3
AudioLeadIn: 0
PreviewTime: 49689
Countdown: 0
SampleSet: Soft
StackLeniency: 0.7
Mode: 0
LetterboxInBreaks: 0
WidescreenStoryboard: 0

[Editor]
DistanceSpacing: 1
BeatDivisor: 4
GridSize: 32
TimelineZoom: 1.7

[Metadata]
Title:Play the world (TV Size)
TitleUnicode:Play the world (TV Size)
Artist:Sasaki Rico
ArtistUnicode:佐々木李子
Creator:Sotarks
Version:Expert
Source:痛いのは嫌なので防御力に極振りしたいと思います。
Tags:Itai no wa Iya Nanode Bougyoryoku ni Kyokufuri Shitai to Omoimasu I Don't Want Get Hurt, so I'll Max Out My Defense. anime japanese ending ed jrock bofuri Basensorex [_Eli_] Elinor Kowari
BeatmapID:2344578
BeatmapSetID:1121997

[Difficulty]
HPDrainRate:5.2
CircleSize:3.8
OverallDifficulty:8.7
ApproachRate:9
SliderMultiplier:1.72
SliderTickRate:1

[Events]
//Background and Video events
0,0,"bg.jpg",0,0
Video,-338,"video.mp4"
//Break Periods
//Storyboard Layer 0 (Background)
//Storyboard Layer 1 (Fail)
//Storyboard Layer 2 (Pass)
//Storyboard Layer 3 (Foreground)
//Storyboard Layer 4 (Overlay)
//Storyboard Sound Samples

[TimingPoints]
-1021,340.909090909091,4,2,22,62,1,0
172,-108.695652173913,4,2,22,62,0,0
1535,-108.695652173913,4,2,22,82,0,0
2558,-108.695652173913,4,2,22,62,0,0
3069,-98.0392156862745,4,2,22,72,0,0
13979,-121.951219512195,4,2,22,52,0,0
22331,-121.951219512195,4,2,22,62,0,0
22842,-121.951219512195,4,2,22,72,0,0
23354,-121.951219512195,4,2,22,82,0,0
23524,-121.951219512195,4,2,22,42,0,0
24035,-121.951219512195,4,2,22,52,0,0
24888,-108.695652173913,4,2,22,62,0,0
35797,-121.951219512195,4,2,22,52,0,0
43979,-108.695652173913,4,2,22,62,0,0
46706,-108.695652173913,4,2,22,72,0,0
49433,-108.695652173913,4,2,22,82,0,0
49774,-108.695652173913,4,2,22,52,0,0
50456,-108.695652173913,4,2,22,62,0,0
50797,-89.2857142857143,4,2,22,82,0,0
72615,-81.9672131147541,4,2,22,82,0,0
80797,-98.0392156862745,4,2,22,72,0,0
86251,-312.5,4,2,22,52,0,0
86336,-312.5,4,2,22,22,0,0

[Colours]
Combo1 : 138,255,252
Combo2 : 255,74,251
Combo3 : 211,255,81
Combo4 : 255,74,74

[HitObjects]
205,151,172,5,0,1:2:0:0:
205,151,257,1,0,1:2:0:0:
205,151,342,1,14,1:2:0:0:
325,285,513,1,0,1:2:0:0:
416,84,683,1,0,1:2:0:0:
190,292,854,5,14,1:2:0:0:
420,202,1024,1,0,1:2:0:0:
160,62,1194,5,10,1:2:0:0:
300,257,1365,1,0,1:2:0:0:
409,0,1535,5,14,1:2:0:0:
58,199,1876,5,10,1:2:0:0:
473,277,2047,6,0,B|337:239|406:384|237:334,1,237.359992031983,14|0,1:2|1:2,0:2:0:0:
181,229,2729,6,0,P|186:247|191:267,1,39.5599986719971,10|2,1:2|1:2,1:2:0:0:
327,191,2899,2,0,P|340:147|344:136,1,39.5599986719971,2|2,1:2|1:2,1:2:0:0:
235,55,3069,6,0,P|165:45|106:136,1,175.440001070801,6|8,1:2|0:2,0:2:0:0:
278,272,3581,2,0,P|359:234|466:231,1,175.440001070801,0|0,3:2|1:2,0:2:0:0:
320,113,4092,1,8,0:2:0:0:
194,208,4263,1,0,1:2:0:0:
345,374,4433,6,0,P|281:317|166:348,1,175.440001070801,2|8,1:2|0:2,0:2:0:0:
304,207,4944,1,0,3:2:0:0:
128,111,5115,1,0,1:2:0:0:
166,241,5285,1,0,1:2:0:0:
271,72,5456,1,8,0:2:0:0:
214,154,5626,5,0,1:2:0:0:
214,154,5711,1,0,1:2:0:0:
214,154,5797,2,0,B|317:132|258:217|402:189,1,175.440001070801,2|8,1:2|0:2,0:2:0:0:
458,141,6308,1,0,3:2:0:0:
333,349,6479,2,0,P|264:337|256:213,1,175.440001070801,2|8,1:2|0:2,0:2:0:0:
359,106,6990,1,0,1:2:0:0:
306,267,7160,6,0,P|296:188|280:148,1,87.7200005354004,2|0,1:2|0:2,0:2:0:0:
446,72,7501,2,0,P|435:114|433:158,1,87.7200005354004,10|0,0:2|3:2,0:2:0:0:
237,23,7842,2,0,P|142:79|166:151,1,175.440001070801,2|8,1:2|0:2,0:2:0:0:
312,175,8354,5,8,1:2:0:0:
312,175,8439,1,8,1:2:0:0:
312,175,8524,2,0,P|192:200|125:244,1,175.440001070801,6|8,1:2|0:2,0:2:0:0:
322,93,9035,2,0,P|385:131|373:251,1,175.440001070801,0|0,3:2|1:2,0:2:0:0:
239,351,9547,1,10,0:2:0:0:
418,297,9717,1,0,1:2:0:0:
211,132,9888,6,0,P|143:151|129:227,1,131.580000803101,2|0,1:2|0:2,0:2:0:0:
125,241,10229,2,0,P|206:211|234:216,1,87.7200005354004,10|0,0:2|3:2,0:2:0:0:
300,31,10569,2,0,P|219:1|191:6,1,87.7200005354004,2|0,1:2|1:2,0:2:0:0:
317,210,10910,1,10,0:2:0:0:
437,73,11081,5,0,1:2:0:0:
437,73,11166,1,0,1:2:0:0:
437,73,11251,2,0,B|330:52|387:143|247:113,1,175.440001070801,6|8,1:2|0:2,0:2:0:0:
100,62,11763,1,0,3:2:0:0:
232,196,11933,1,0,1:2:0:0:
127,152,12104,1,0,1:2:0:0:
300,31,12274,1,8,0:2:0:0:
123,238,12444,6,0,P|217:251|300:307,1,175.440001070801,6|0,1:2|1:2,0:2:0:0:
150,331,12956,1,8,0:2:0:0:
259,162,13126,1,0,1:2:0:0:
259,162,13211,1,0,1:2:0:0:
259,162,13297,2,0,P|255:134|245:113,1,43.8600002677002,8|8,1:2|1:2,0:2:0:0:
103,63,13467,2,0,P|96:84|94:106,1,43.8600002677002,0|0,1:2|1:2,0:2:0:0:
213,232,13638,1,0,1:2:0:0:
251,252,13723,1,0,1:2:0:0:
294,252,13808,1,8,1:2:0:0:
333,232,13893,1,0,1:2:0:0:
358,195,13979,6,0,P|366:142|342:30,1,141.0400021521,2|0,1:2|1:2,0:2:0:0:
272,22,14490,1,2,0:2:0:0:
211,83,14660,1,2,1:2:0:0:
129,74,14831,1,0,0:2:0:0:
237,166,15001,1,2,1:2:0:0:
237,166,15172,2,0,P|280:245|254:309,1,141.0400021521,2|0,0:2|0:2,0:2:0:0:
165,358,15683,1,2,1:2:0:0:
165,358,15854,2,0,P|155:289|196:233,1,141.0400021521,2|0,0:2|0:2,0:2:0:0:
267,290,16365,1,2,1:2:0:0:
332,230,16535,1,0,3:2:0:0:
424,296,16706,6,0,P|354:316|339:331,1,70.5200010760498,2|0,1:2|0:2,0:2:0:0:
485,218,17047,1,2,1:2:0:0:
485,218,17217,2,0,P|458:195|425:183,1,70.5200010760498,2|0,0:2|1:2,0:2:0:0:
332,230,17558,1,2,0:2:0:0:
243,166,17729,1,0,1:2:0:0:
288,86,17899,2,0,L|303:240,1,141.0400021521,2|0,0:2|0:2,0:2:0:0:
199,314,18410,2,0,L|210:230,1,70.5200010760498,0|0,1:2|0:2,0:2:0:0:
116,169,18751,2,0,L|123:203,3,35.2600005380249,2|0|0|0,1:2|0:2|0:2|0:2,0:2:0:0:
242,165,19092,2,0,L|250:131,3,35.2600005380249,0|0|0|0,1:2|0:2|0:2|0:2,0:2:0:0:
171,57,19433,6,0,P|206:20|298:23,1,141.0400021521,2|0,1:2|1:2,0:2:0:0:
369,112,19944,1,2,0:2:0:0:
451,67,20115,1,2,1:2:0:0:
377,27,20285,1,0,0:2:0:0:
448,152,20456,1,2,1:2:0:0:
448,152,20626,2,2,P|436:199|435:232,1,70.5200010760498,2|2,0:2|1:2,0:2:0:0:
446,309,20967,1,2,0:2:0:0:
337,199,21138,1,0,1:2:0:0:
337,199,21308,2,0,P|352:258|367:359,1,141.0400021521,2|0,0:2|0:2,0:2:0:0:
257,258,21819,2,0,P|246:305|240:341,1,70.5200010760498,2|0,1:2|0:2,0:2:0:0:
183,144,22160,5,2,1:2:0:0:
146,220,22331,1,8,0:2:0:0:
288,178,22501,1,10,0:2:0:0:
143,73,22672,1,8,0:2:0:0:
257,258,22842,1,10,0:2:0:0:
224,39,23013,1,8,0:2:0:0:
111,301,23183,1,10,0:2:0:0:
390,104,23354,1,10,0:2:0:0:
385,151,24035,5,0,1:2:0:0:
385,151,24121,1,0,1:2:0:0:
385,151,24206,2,0,P|393:200|398:233,1,70.5200010760498,8|0,1:2|1:2,0:2:0:0:
304,279,24461,1,0,1:2:0:0:
304,279,24546,2,0,P|309:244|315:209,1,70.5200010760498,8|8,1:2|1:2,0:2:0:0:
270,130,24802,1,8,1:2:0:0:
270,130,24888,6,0,B|175:121|227:187|115:182,1,158.239994687988,4|8,1:2|0:2,0:2:0:0:
229,46,25399,1,2,3:2:0:0:
67,128,25569,1,2,1:2:0:0:
145,287,25740,1,0,1:2:0:0:
307,205,25910,1,10,0:2:0:0:
123,62,26081,6,0,L|109:254,1,158.239994687988,2|0,1:2|1:2,0:2:0:0:
103,361,26592,1,10,0:2:0:0:
67,128,26763,2,2,L|96:320,1,158.239994687988,2|2,0:2|1:2,0:2:0:0:
204,220,27274,1,10,0:2:0:0:
326,314,27444,5,0,1:2:0:0:
326,314,27530,1,0,1:2:0:0:
326,314,27615,2,0,P|380:294|417:288,1,79.1199973439942,14|0,1:2|1:2,0:2:0:0:
288,107,27956,1,10,0:2:0:0:
186,326,28126,5,6,1:2:0:0:
491,169,28467,5,10,1:2:0:0:
190,1,28808,6,0,P|138:47|167:143,1,158.239994687988,6|0,1:2|1:2,0:2:0:0:
323,226,29319,1,8,0:2:0:0:
223,95,29490,1,0,3:2:0:0:
289,301,29660,1,0,1:2:0:0:
376,120,29831,1,0,1:2:0:0:
239,234,30001,1,10,0:2:0:0:
375,298,30172,5,10,1:2:0:0:
375,298,30257,1,8,1:2:0:0:
375,298,30342,1,6,1:2:0:0:
297,151,30513,2,0,P|282:225|278:263,1,79.1199973439942,2|8,0:2|0:2,0:2:0:0:
404,43,30854,2,0,P|425:126|434:202,1,158.239994687988,2|0,3:2|0:2,0:2:0:0:
291,40,31365,2,0,P|236:18|198:17,1,79.1199973439942,10|0,0:2|1:2,0:2:0:0:
145,52,31621,1,0,1:2:0:0:
145,52,31706,2,0,P|109:109|173:174,1,158.239994687988,2|8,1:2|0:2,0:2:0:0:
260,189,32217,5,2,3:2:0:0:
155,241,32388,1,2,1:2:0:0:
42,295,32558,1,0,1:2:0:0:
243,265,32729,1,10,0:2:0:0:
79,209,32899,5,10,1:2:0:0:
79,209,32984,1,8,1:2:0:0:
79,209,33069,1,4,1:2:0:0:
171,144,33240,1,0,1:2:0:0:
232,235,33410,1,8,0:2:0:0:
140,300,33581,1,0,3:2:0:0:
260,148,33751,5,2,1:2:0:0:
332,337,33922,1,2,1:2:0:0:
157,222,34092,1,10,0:2:0:0:
368,42,34263,1,6,1:2:0:0:
368,42,34604,5,2,1:2:0:0:
260,228,34774,1,8,0:2:0:0:
133,18,34944,1,6,1:2:0:0:
133,18,35285,5,2,1:2:0:0:
171,13,35370,1,0,1:2:0:0:
204,34,35455,1,8,1:2:0:0:
216,70,35540,1,8,1:3:0:0:
230,98,35626,1,4,1:3:0:0:
249,112,35711,1,4,1:3:0:0:
270,115,35797,6,0,P|326:81|413:116,1,141.0400021521,6|0,1:2|0:2,0:2:0:0:
441,163,36308,1,0,1:2:0:0:
303,300,36479,2,0,P|204:270|147:272,1,141.0400021521,8|0,0:2|3:2,0:2:0:0:
103,309,36990,1,8,0:2:0:0:
334,181,37160,5,6,1:2:0:0:
256,214,37331,2,0,P|195:166|214:85,1,141.0400021521,8|0,0:2|1:2,0:2:0:0:
293,35,37842,2,0,P|283:86|280:124,1,70.5200010760498,8|0,0:2|0:2,0:2:0:0:
215,30,38183,1,8,0:2:0:0:
355,79,38354,1,8,0:3:0:0:
180,206,38524,6,0,P|96:181|23:182,1,141.0400021521,6|0,1:2|3:2,0:2:0:0:
102,104,39035,1,0,1:2:0:0:
278,296,39206,2,0,P|339:234|400:239,1,141.0400021521,8|0,0:2|3:2,0:2:0:0:
464,272,39717,1,8,0:2:0:0:
337,76,39888,5,2,1:2:0:0:
400,147,40058,2,0,P|454:130|472:104,1,70.5200010760498,8|0,0:2|1:2,0:2:0:0:
251,32,40399,1,0,1:2:0:0:
207,98,40569,2,0,P|214:153|239:178,1,70.5200010760498,8|0,1:2|3:2,0:2:0:0:
284,223,40910,2,0,P|299:254|299:289,1,70.5200010760498,8|0,1:2|3:2,0:2:0:0:
182,361,41251,6,0,P|288:326|339:328,1,141.0400021521,6|0,1:2|3:2,0:2:0:0:
394,363,41763,1,0,1:2:0:0:
167,197,41933,2,0,P|99:232|108:303,1,141.0400021521,10|0,0:2|1:2,0:2:0:0:
450,120,42444,6,0,B|365:123|416:182|296:183,1,141.0400021521,6|4,1:2|1:2,0:2:0:0:
247,147,42956,1,0,1:2:0:0:
412,196,43126,1,0,1:2:0:0:
313,40,43297,1,8,1:2:0:0:
333,69,43382,1,4,1:3:0:0:
337,103,43467,1,8,1:2:0:0:
325,135,43552,1,8,1:2:0:0:
299,157,43638,1,8,1:2:0:0:
272,179,43723,1,8,1:3:0:0:
259,211,43808,1,4,1:3:0:0:
263,246,43893,1,4,1:3:0:0:
284,274,43979,6,0,P|340:254|408:249,1,118.679996015991,6|0,1:2|0:2,0:2:0:0:
428,267,44319,1,10,0:2:0:0:
253,94,44490,1,0,3:2:0:0:
375,325,44660,1,2,1:2:0:0:
320,142,44831,1,0,1:2:0:0:
219,336,45001,2,0,P|163:314|123:311,1,79.1199973439942,10|0,0:2|0:2,0:2:0:0:
136,83,45342,6,0,P|220:114|227:166,1,118.679996015991,2|0,1:2|0:2,0:2:0:0:
221,171,45683,1,10,0:2:0:0:
83,255,45854,1,0,3:2:0:0:
299,187,46024,1,2,1:2:0:0:
105,162,46194,1,2,1:2:0:0:
105,162,46280,1,2,1:2:0:0:
105,162,46365,2,0,L|115:218,1,39.5599986719971,10|0,1:2|1:2,1:2:0:0:
237,288,46535,2,0,L|244:250,1,39.5599986719971,2|0,1:2|1:2,1:2:0:0:
188,84,46706,1,6,1:2:0:0:
196,99,47047,6,0,L|132:83,1,39.5599986719971,10|0,1:2|1:2,1:2:0:0:
291,30,47217,1,2,1:2:0:0:
291,30,47302,1,0,1:2:0:0:
291,30,47388,2,0,L|329:20,1,39.5599986719971,8|0,1:2|1:2,1:2:0:0:
352,91,47558,6,0,L|314:101,1,39.5599986719971,2|0,1:2|1:2,1:2:0:0:
171,18,47729,2,0,L|209:28,1,39.5599986719971,8|0,1:2|1:2,1:2:0:0:
258,163,47899,1,2,1:2:0:0:
258,163,47984,1,0,1:2:0:0:
258,163,48069,1,8,1:2:0:0:
259,182,48154,1,8,1:2:0:0:
260,202,48239,1,8,1:2:0:0:
262,222,48324,1,8,1:2:0:0:
263,241,48410,6,0,L|266:284,1,39.5599986719971,8|8,1:3|1:3,1:2:0:0:
166,370,48581,2,0,L|163:330,1,39.5599986719971,8|8,1:3|1:3,1:2:0:0:
75,199,48751,5,4,1:3:0:0:
113,188,48836,1,4,1:3:0:0:
150,197,48921,1,4,1:3:0:0:
182,220,49006,1,4,1:3:0:0:
198,256,49092,1,8,1:2:0:0:
220,289,49177,1,8,1:2:0:0:
253,308,49262,1,8,1:2:0:0:
293,310,49347,1,0,1:2:0:0:
329,296,49433,5,10,1:2:0:0:
121,276,49604,1,10,1:2:0:0:
296,150,49774,2,0,P|284:193|274:241,1,79.1199973439942,2|0,0:2|1:2,0:2:0:0:
220,135,50030,1,0,1:2:0:0:
220,135,50115,2,0,P|208:178|206:198,1,39.5599986719971,10|0,1:2|1:2,0:2:0:0:
355,222,50285,2,0,P|359:202|365:183,1,39.5599986719971,0|0,1:2|1:2,0:2:0:0:
151,251,50456,1,14,0:2:0:0:
151,251,50797,6,0,P|88:232|47:229,1,96.3200011757813,6|0,1:2|0:2,0:2:0:0:
305,312,51138,2,0,P|350:296|398:290,1,96.3200011757813,10|0,0:2|0:2,0:2:0:0:
234,365,51479,1,2,1:2:0:0:
364,209,51649,1,0,1:2:0:0:
211,134,51819,2,0,P|224:216|238:270,1,96.3200011757813,10|0,0:2|0:2,0:2:0:0:
374,59,52160,6,0,P|310:35|271:35,1,96.3200011757813,2|0,1:2|0:2,0:2:0:0:
143,206,52501,1,10,0:2:0:0:
311,130,52672,1,0,0:2:0:0:
134,66,52842,1,2,1:2:0:0:
296,273,53013,1,0,1:2:0:0:
109,188,53183,1,10,0:2:0:0:
315,87,53354,1,0,0:2:0:0:
142,318,53524,6,0,P|78:303|38:277,1,96.3200011757813,2|0,1:2|0:2,0:2:0:0:
165,71,53865,2,0,P|207:49|255:40,1,96.3200011757813,10|0,0:2|0:2,0:2:0:0:
389,237,54206,1,2,1:2:0:0:
213,175,54376,1,0,1:2:0:0:
341,43,54547,2,0,P|356:116|366:163,1,96.3200011757813,10|0,0:2|0:2,0:2:0:0:
229,277,54888,6,0,P|168:255|131:253,1,96.3200011757813,2|0,1:2|0:2,0:2:0:0:
402,335,55229,2,0,P|449:329|493:310,1,96.3200011757813,10|0,0:2|0:2,0:2:0:0:
275,154,55569,1,2,1:2:0:0:
436,88,55740,1,0,1:2:0:0:
325,261,55910,1,10,0:2:0:0:
168,109,56081,5,8,1:2:0:0:
168,109,56166,1,8,1:2:0:0:
168,109,56251,2,0,P|226:33|326:57,2,192.640002351563,6|8|0,1:2|0:2|1:2,0:2:0:0:
242,332,57104,1,0,1:2:0:0:
78,210,57274,1,10,0:2:0:0:
248,120,57444,1,2,0:2:0:0:
115,309,57615,6,0,P|40:284|15:261,1,96.3200011757813,0|0,1:2|0:2,0:2:0:0:
166,85,57956,1,10,0:2:0:0:
279,257,58126,2,0,B|399:260|328:182|471:191,1,192.640002351563,2|0,0:2|1:2,0:0:0:0:
288,170,58638,1,10,0:2:0:0:
438,279,58808,1,2,0:2:0:0:
402,56,58979,6,0,P|389:128|383:181,1,96.3200011757813,2|0,1:2|0:2,0:2:0:0:
213,258,59319,2,0,P|206:210|197:163,1,96.3200011757813,10|0,0:2|0:2,0:2:0:0:
287,19,59660,1,2,1:2:0:0:
124,97,59831,1,0,1:2:0:0:
320,217,60001,1,10,0:0:0:0:
219,101,60172,5,2,1:2:0:0:
219,101,60257,1,0,1:2:0:0:
219,101,60342,2,0,P|297:51|379:114,1,192.640002351563,2|8,1:2|0:2,0:2:0:0:
237,253,60854,1,2,0:2:0:0:
414,181,61024,2,0,P|404:250|397:309,1,96.3200011757813,2|0,1:2|1:2,0:2:0:0:
259,165,61365,1,10,0:2:0:0:
211,164,61450,1,8,0:3:0:0:
169,187,61535,1,4,0:3:0:0:
144,227,61620,1,4,0:3:0:0:
141,275,61706,6,0,P|223:309|253:307,1,96.3200011757813,6|0,1:2|0:2,0:2:0:0:
153,46,62047,2,0,P|105:54|65:79,1,96.3200011757813,10|0,0:2|0:2,0:2:0:0:
226,218,62388,1,2,1:2:0:0:
362,94,62558,1,0,1:2:0:0:
224,0,62729,2,0,P|244:87|254:137,1,96.3200011757813,10|0,0:2|0:2,0:2:0:0:
304,294,63069,6,0,P|314:246|325:200,1,96.3200011757813,2|0,1:2|0:2,0:2:0:0:
183,289,63410,1,10,0:2:0:0:
398,230,63581,1,0,0:2:0:0:
203,155,63751,1,2,1:2:0:0:
328,336,63922,1,0,1:2:0:0:
319,105,64092,2,0,P|299:176|292:217,1,96.3200011757813,10|0,0:2|0:2,0:2:0:0:
154,26,64433,6,0,P|79:25|51:57,1,96.3200011757813,2|0,1:2|0:2,0:2:0:0:
75,239,64774,2,0,P|117:259|163:248,1,96.3200011757813,10|0,0:2|0:2,0:2:0:0:
270,52,65115,1,2,1:2:0:0:
122,163,65285,1,0,1:2:0:0:
325,264,65456,1,10,0:2:0:0:
226,138,65626,5,0,1:2:0:0:
226,138,65711,1,0,1:2:0:0:
226,138,65797,2,0,P|217:199|209:254,1,96.3200011757813,2|0,1:2|0:2,0:2:0:0:
394,65,66138,2,0,P|403:126|411:181,1,96.3200011757813,10|0,0:2|1:2,0:2:0:0:
403,196,66393,1,8,1:2:0:0:
403,196,66479,1,2,1:2:0:0:
283,77,66649,1,0,1:2:0:0:
435,273,66819,2,0,P|373:228|289:242,1,144.480001763672,10|8,0:2|1:2,0:2:0:0:
254,290,67160,6,0,B|132:312|197:215|62:248,2,192.640002351563,6|8|0,1:2|0:2|1:2,0:2:0:0:
126,157,68013,1,0,1:2:0:0:
185,333,68183,1,10,0:2:0:0:
321,179,68354,1,2,0:2:0:0:
80,75,68524,6,0,P|104:170|118:264,1,192.640002351563,0|10,1:2|0:2,0:2:0:0:
278,104,69035,2,0,P|351:73|435:163,1,192.640002351563,2|0,0:2|1:2,0:0:0:0:
285,280,69547,1,10,0:2:0:0:
155,158,69717,1,2,0:2:0:0:
254,9,69888,6,0,P|244:93|232:219,1,192.640002351563,2|8,1:2|0:2,0:2:0:0:
378,344,70399,1,0,1:2:0:0:
378,344,70484,1,0,1:2:0:0:
378,344,70569,2,0,P|440:290|376:203,1,192.640002351563,2|8,1:2|0:2,0:2:0:0:
194,308,71081,1,0,0:2:0:0:
438,133,71251,6,2,B|311:141|393:210|249:222,1,192.640002351563,2|10,1:2|0:2,0:2:0:0:
111,158,71763,1,10,1:2:0:0:
111,158,71848,1,8,1:2:0:0:
111,158,71933,2,0,P|127:101|135:90,1,48.1600005878906,10|0,1:2|1:2,1:2:0:0:
285,118,72104,2,0,P|269:61|261:50,1,48.1600005878906,8|0,1:3|1:2,1:2:0:0:
184,19,72274,1,4,1:3:0:0:
184,19,72359,1,4,1:3:0:0:
184,19,72444,1,4,1:3:0:0:
184,19,72530,1,4,1:3:0:0:
184,19,72615,6,0,L|202:142,1,104.919995677429,14|0,0:2|1:2,0:2:0:0:
245,373,72956,2,0,L|261:270,1,104.919995677429,10|0,0:2|1:2,0:2:0:0:
300,34,73297,1,10,0:2:0:0:
172,253,73467,1,2,1:2:0:0:
300,34,73638,1,10,0:2:0:0:
93,131,73808,1,2,1:2:0:0:
346,155,73979,5,12,0:2:0:0:
184,19,74149,1,0,1:2:0:0:
308,260,74319,1,8,0:2:0:0:
477,50,74490,1,0,1:2:0:0:
244,125,74660,2,0,L|267:239,1,104.919995677429,10|0,0:2|1:2,0:2:0:0:
434,356,75001,2,0,L|454:253,1,104.919995677429,10|0,0:2|1:2,0:2:0:0:
267,31,75342,6,0,B|130:17|216:128|52:111,1,209.839991354859,14|8,0:2|0:2,0:2:0:0:
258,225,75854,1,2,1:2:0:0:
65,40,76024,2,0,L|46:178,1,104.919995677429,10|0,0:2|1:2,0:2:0:0:
166,315,76365,1,10,0:2:0:0:
290,97,76535,1,2,1:2:0:0:
65,239,76706,5,12,0:2:0:0:
334,341,76876,1,2,1:2:0:0:
184,87,77047,1,10,0:2:0:0:
244,308,77217,1,0,1:2:0:0:
402,61,77388,1,8,0:2:0:0:
149,181,77558,1,0,1:2:0:0:
423,291,77729,1,10,0:2:0:0:
180,177,77899,1,2,1:2:0:0:
349,0,78069,5,14,0:2:0:0:
244,308,78240,1,0,1:2:0:0:
38,64,78410,1,2,1:2:0:0:
339,231,78581,6,0,L|317:355,1,104.919995677429,14|0,0:2|0:2,0:2:0:0:
81,148,78922,2,0,L|103:272,1,104.919995677429,14|0,0:2|0:2,0:2:0:0:
327,24,79263,1,14,0:2:0:0:
17,238,79604,5,10,0:2:0:0:
396,112,79774,2,0,P|314:50|173:192,1,314.759987032288,14|0,0:2|1:2,0:2:0:0:
333,339,80456,1,8,1:2:0:0:
376,311,80541,1,8,1:2:0:0:
388,262,80626,1,8,1:2:0:0:
361,218,80711,1,8,1:2:0:0:
311,207,80797,6,0,B|201:198|260:278|127:258,1,175.440001070801,6|8,1:2|0:2,0:2:0:0:
245,103,81308,1,0,3:2:0:0:
111,43,81479,2,0,P|131:106|140:155,1,87.7200005354004,0|0,1:2|1:2,0:0:0:0:
217,204,81819,1,8,0:2:0:0:
311,58,81990,1,0,1:2:0:0:
136,222,82160,6,0,P|177:289|280:281,1,175.440001070801,2|8,1:2|0:2,0:2:0:0:
403,201,82672,1,0,3:2:0:0:
247,121,82842,2,0,P|267:188|274:233,1,87.7200005354004,0|0,1:2|1:2,0:0:0:0:
361,74,83183,1,8,0:2:0:0:
213,9,83354,1,0,1:2:0:0:
340,170,83524,6,0,P|428:144|530:135,1,175.440001070801,6|8,1:2|0:2,0:2:0:0:
303,22,84035,1,0,3:2:0:0:
366,308,84206,2,0,P|433:256|409:179,1,175.440001070801,2|8,1:2|0:2,0:2:0:0:
209,87,84717,5,0,1:2:0:0:
209,87,84802,1,0,0:0:0:0:
209,87,84888,2,0,P|151:97|122:120,1,87.7200005354004,2|0,1:2|0:2,0:2:0:0:
98,329,85229,2,0,P|135:351|178:355,1,87.7200005354004,10|0,0:2|3:2,0:2:0:0:
207,331,85484,1,0,0:0:0:0:
207,331,85569,2,0,L|197:266,1,43.8600002677002,2|0,1:2|0:0,0:2:0:0:
188,172,85740,1,0,0:0:0:0:
311,251,85910,1,8,0:2:0:0:
311,251,85996,1,0,0:0:0:0:
311,251,86081,1,8,1:2:0:0:
311,251,86166,1,8,1:2:0:0:
311,251,86251,6,0,B|181:286|250:176|101:217,1,220.16,6|0,1:2|0:0,0:2:0:0:
