osu file format v14

[General]
AudioFilename: audio.mp3
AudioLeadIn: 0
PreviewTime: -1
Countdown: 1
SampleSet: Normal
StackLeniency: 0.7
Mode: 0
LetterboxInBreaks: 0
WidescreenStoryboard: 0

[Editor]
DistanceSpacing: 0.3
BeatDivisor: 8
GridSize: 16
TimelineZoom: 2.399999

[Metadata]
Title:YURUSU
TitleUnicode:YURUSU
Artist:Sasaki Eri
ArtistUnicode:Sasaki Eri
Creator:Topu
Version:TBD
Source:ゆるキャン△
Tags:
BeatmapID:1588563
BeatmapSetID:754578

[Difficulty]
HPDrainRate:6
CircleSize:4
OverallDifficulty:6
ApproachRate:9.2
SliderMultiplier:1.8
SliderTickRate:1

[Events]
//Background and Video events
0,0,"67403262_p0.png",0,0
//Break Periods
2,43941,45171
2,75274,77171
2,99941,101171
//Storyboard Layer 0 (Background)
//Storyboard Layer 1 (Fail)
//Storyboard Layer 2 (Pass)
//Storyboard Layer 3 (Foreground)
//Storyboard Sound Samples

[TimingPoints]
408,666.666666666667,4,1,0,60,1,0
408,-153.846153846153,4,1,0,60,0,0
1408,-133.333333333333,4,1,0,60,0,0
3074,-153.846153846153,4,1,0,60,0,0
4074,-133.333333333333,4,1,0,60,0,0
4174,-66.6666666666667,4,1,0,60,0,0
6741,-133.333333333333,4,1,0,60,0,0
11408,-95.2380952380952,4,1,0,60,0,0
11741,-80,4,1,0,60,0,0
12074,-50,4,1,0,60,0,0
12908,-133.333333333333,4,1,0,60,0,0
17074,-66.6666666666667,4,1,0,60,0,0
17408,-50,4,1,0,60,0,0
18241,-66.6666666666667,4,1,0,60,0,0
22074,-60.6060606060606,4,1,0,60,0,0
22408,-57.1428571428571,4,1,0,60,0,0
22741,-50,4,1,0,60,0,0
25408,-105.263157894737,4,1,0,60,0,0
25908,-66.6666666666667,4,1,0,60,0,0
27074,-66.6666666666667,4,1,0,60,0,0
28074,-100,4,1,0,60,0,0
29741,-66.6666666666667,4,1,0,60,0,0
30741,-76.9230769230769,4,1,0,60,0,0
31074,-66.6666666666667,4,1,0,60,0,0
31741,-100,4,1,0,60,0,0
35074,-33,4,1,0,60,0,0
37741,-100,4,1,0,60,0,0
40408,-33,4,1,0,60,0,0
41408,-200,4,1,0,60,0,0
46908,-66.6666666666667,4,1,0,60,0,0
49241,-79.9999999999999,4,1,0,60,0,0
52074,-58.8235294117647,4,1,0,60,0,0
55908,-33,4,1,0,60,0,0
56408,-45,4,1,0,60,0,0
67741,-200,4,1,0,60,0,0
68408,-133.333333333333,4,1,0,60,0,0
69185,-200,4,1,0,60,0,0
71741,-33,4,1,0,60,0,0
78074,-45,4,1,0,60,0,0
78741,-33,4,1,0,60,0,0
80074,-46.9416785206259,4,1,0,60,0,0
80408,-33,4,1,0,60,0,0
81408,-46.9416785206259,4,1,0,60,0,0
83074,-66.6666666666667,4,1,0,60,0,0
83408,-52.6315789473684,4,1,0,60,0,0
85408,-66.6666666666667,4,1,0,60,0,0
86741,-200,4,1,0,60,0,0
88408,-66.6666666666667,4,1,0,60,0,0
88908,-33,4,1,0,60,0,0
89741,-66.6666666666667,4,1,0,60,0,0
90241,-33,4,1,0,60,0,0
91074,-66.6666666666667,4,1,0,60,0,0
92074,-33,4,1,0,60,0,0
93741,-66.6666666666667,4,1,0,60,0,0
94241,-33,4,1,0,60,0,0
95074,-66.6666666666667,4,1,0,60,0,0
95574,-33,4,1,0,60,0,0
96574,-66.6666666666667,4,1,0,60,0,0
103741,-50,4,1,0,60,0,0
107241,-33,4,1,0,60,0,0
108074,-50,4,1,0,60,0,0
109908,-33,4,1,0,60,0,0
110574,-66.6666666666667,4,1,0,60,0,0
117908,-50,4,1,0,60,0,0
118741,-100,4,1,0,60,0,0
120574,-45,4,1,0,60,0,0
121741,-66.6666666666667,4,1,0,60,0,0

[HitObjects]
93,218,408,6,0,P|89:142|96:112,1,87.749995983124
123,45,1074,1,0,0:0:0:0:
105,86,1408,2,0,P|87:149|96:230,1,135.000005149842
103,255,2574,1,0,0:0:0:0:
221,191,3074,6,0,P|294:167|328:167,1,87.749995983124
304,192,3741,1,0,0:0:0:0:
304,224,3907,1,0,0:0:0:0:
304,256,4074,2,0,P|361:256|458:232,1,135.000005149842
463,226,5241,1,0,0:0:0:0:
347,177,5741,6,0,P|341:139|314:104,3,67.5000025749208
307,93,6407,1,0,0:0:0:0:
343,244,6741,2,0,B|355:182|347:138|325:114,1,135.000005149842
307,93,7907,1,0,0:0:0:0:
255,191,8408,1,0,0:0:0:0:
256,192,8574,12,0,10408,0:0:0:0:
146,117,11074,5,0,0:0:0:0:
139,256,11408,2,0,P|97:230|89:203,1,47.2499985580445
232,235,11741,2,0,P|237:265|227:299,1,56.25
158,176,12074,2,0,P|185:148|240:128,1,90
231,128,12574,1,0,0:0:0:0:
323,152,12908,2,0,P|286:109|255:98,1,67.5000025749208
243,93,13408,1,0,0:0:0:0:
146,117,13741,5,0,0:0:0:0:
122,144,13908,1,0,0:0:0:0:
148,289,14241,1,0,0:0:0:0:
223,220,14574,1,0,0:0:0:0:
251,233,14741,2,0,P|299:262|338:291,1,101.250003862381
223,220,15408,1,0,0:0:0:0:
384,240,15741,1,0,0:0:0:0:
342,184,15908,1,0,0:0:0:0:
279,149,16074,1,0,0:0:0:0:
146,117,16407,5,0,0:0:0:0:
261,52,16741,1,0,0:0:0:0:
275,153,17074,2,0,P|336:161|377:131,1,67.5000025749208
341,65,17408,2,0,P|394:82|432:112,1,90
389,248,17908,1,0,0:0:0:0:
389,248,18241,2,0,P|298:235|252:195,1,135.000005149842
259,76,18741,1,0,0:0:0:0:
146,117,19074,5,0,0:0:0:0:
138,141,19241,1,0,0:0:0:0:
33,218,19574,1,0,0:0:0:0:
75,319,19908,1,0,0:0:0:0:
110,300,20074,2,0,P|200:276|314:303,1,202.500007724762
169,213,20741,1,0,0:0:0:0:
157,198,21074,1,0,0:0:0:0:
148,182,21158,1,0,0:0:0:0:
144,163,21241,1,0,0:0:0:0:
143,144,21324,1,0,0:0:0:0:
148,128,21408,1,0,0:0:0:0:
155,115,21491,1,0,0:0:0:0:
164,111,21574,1,0,0:0:0:0:
171,116,21658,1,0,0:0:0:0:
177,124,21741,6,0,L|176:199,1,67.5000025749208
256,256,22074,2,0,L|256:160,1,74.2500007081032
336,128,22408,2,0,L|336:240,1,78.7500007510185
416,192,22741,2,0,L|416:64,1,90
416,48,23241,1,0,0:0:0:0:
256,192,24074,1,0,0:0:0:0:
146,117,24408,5,0,0:0:0:0:
146,117,24574,1,0,0:0:0:0:
155,289,24908,1,0,0:0:0:0:
299,240,25241,1,0,0:0:0:0:
320,213,25408,2,0,P|347:190|454:162,1,128.249996575356
347,143,26074,1,0,0:0:0:0:
180,218,26408,1,0,0:0:0:0:
180,218,26491,1,0,0:0:0:0:
180,218,26574,1,0,0:0:0:0:
300,77,26741,1,0,0:0:0:0:
303,262,26908,1,0,0:0:0:0:
143,117,27074,6,0,L|121:42,1,67.5000025749208
169,196,27408,1,0,0:0:0:0:
169,196,27741,1,0,0:0:0:0:
91,264,28074,2,0,P|159:292|223:285,1,135
265,249,28908,2,0,L|355:281,1,90
179,207,29408,1,0,0:0:0:0:
140,117,29741,6,0,B|140:116|123:50,1,67.5000025749208
143,117,30241,1,0,0:0:0:0:
88,209,30741,2,0,L|110:277,1,58.4999973220826
188,313,31074,2,0,P|228:322|243:333,3,33.7500012874604
253,255,31408,2,0,P|288:253|301:248,3,33.7500012874604
249,186,31741,1,0,0:0:0:0:
235,168,31824,1,0,0:0:0:0:
226,149,31907,1,0,0:0:0:0:
219,133,31990,1,0,0:0:0:0:
208,119,32074,1,0,0:0:0:0:
188,109,32157,1,0,0:0:0:0:
171,108,32240,1,0,0:0:0:0:
157,112,32324,1,0,0:0:0:0:
146,119,32408,6,0,B|43:224|43:224|149:324,1,272.727272727273
176,218,33741,2,0,B|270:115|270:115|166:20,1,272.727272727273
146,119,35074,2,0,B|43:224|43:224|149:324,1,272.727272727273
176,218,35574,2,0,B|270:115|270:115|166:20,1,272.727272727273
146,119,36074,1,0,0:0:0:0:
146,119,37408,5,0,0:0:0:0:
112,224,37741,2,0,L|380:200,1,270
380,247,39074,2,0,L|112:224,1,270
112,224,40408,2,0,L|398:198,1,270
315,125,40908,1,0,0:0:0:0:
231,58,41074,1,0,0:0:0:0:
128,41,41241,1,0,0:0:0:0:
60,145,41408,2,0,B|99:171|160:195|160:195|201:143|219:98|219:98|212:111|212:111|198:140,1,270
128,85,43741,1,0,0:0:0:0:
246,47,45741,5,0,0:0:0:0:
253,82,45908,1,0,0:0:0:0:
72,144,46074,1,0,0:0:0:0:
54,185,46241,1,0,0:0:0:0:
70,294,46574,5,0,0:0:0:0:
105,317,46741,1,0,0:0:0:0:
143,336,46908,2,0,B|194:336|276:278,1,135.000005149842
284,265,47408,1,0,0:0:0:0:
368,322,47741,5,0,0:0:0:0:
399,294,47908,1,0,0:0:0:0:
208,144,48074,1,0,0:0:0:0:
216,101,48241,1,0,0:0:0:0:
310,55,48408,1,0,0:0:0:0:
403,100,48574,1,0,0:0:0:0:
285,166,48908,1,0,0:0:0:0:
289,122,49241,2,0,B|214:110|138:143|53:133,1,225
49,132,50074,5,0,0:0:0:0:
300,67,50408,1,0,0:0:0:0:
77,238,50574,1,0,0:0:0:0:
300,67,50741,1,0,0:0:0:0:
77,238,50908,1,0,0:0:0:0:
37,312,51074,1,0,0:0:0:0:
114,355,51241,1,0,0:0:0:0:
153,284,51574,1,0,0:0:0:0:
214,225,51908,1,0,0:0:0:0:
214,225,52074,2,0,B|229:189|252:164|323:149|335:220|315:245|281:271|281:271|342:273|312:302|312:302|355:314,1,306.000005836487
413,293,53074,5,0,0:0:0:0:
404,254,53241,1,0,0:0:0:0:
210,182,53408,1,0,0:0:0:0:
236,115,53574,1,0,0:0:0:0:
210,182,53741,1,0,0:0:0:0:
263,44,53908,1,0,0:0:0:0:
179,254,54241,1,0,0:0:0:0:
92,86,54574,1,0,0:0:0:0:
161,111,55908,6,0,B|161:43|161:43|161:132,1,136.363636363636
62,190,56408,2,0,P|77:251|126:267,1,100
77,249,56741,2,0,P|134:223|190:240,1,100
165,323,57074,1,0,0:0:0:0:
165,323,57158,1,0,0:0:0:0:
165,323,57241,2,0,L|291:318,1,100
331,273,57574,2,0,L|232:282,1,100
263,344,57908,1,0,0:0:0:0:
232,282,58074,1,0,0:0:0:0:
225,221,58241,1,0,0:0:0:0:
245,156,58408,5,0,0:0:0:0:
245,156,58491,1,0,0:0:0:0:
245,156,58574,2,0,L|383:143,1,100
388,73,58908,2,0,L|261:89,1,100
255,51,59241,1,0,0:0:0:0:
201,79,59408,1,0,0:0:0:0:
136,152,59574,1,0,0:0:0:0:
88,61,59741,5,0,0:0:0:0:
88,61,59824,1,0,0:0:0:0:
88,61,59908,2,0,B|101:118|28:177|28:177|112:192|106:277|106:277|185:232|235:325,1,400
234,323,60658,1,0,0:0:0:0:
256,353,60741,2,0,L|365:311,1,100
427,275,61074,5,0,0:0:0:0:
349,317,61241,1,0,0:0:0:0:
427,275,61408,1,0,0:0:0:0:
427,275,61574,2,0,L|446:140,1,100
389,215,61908,1,0,0:0:0:0:
389,215,62241,2,0,L|412:106,1,100
346,130,62574,1,0,0:0:0:0:
346,130,62658,1,0,0:0:0:0:
346,130,62741,2,0,B|301:83|259:59|198:59|163:89|166:136|185:171|261:187|261:187|236:273,1,400
217,350,63574,5,0,0:0:0:0:
217,350,63658,1,0,0:0:0:0:
217,350,63741,2,0,L|92:312,1,100
58,205,64074,1,0,0:0:0:0:
42,293,64241,1,0,0:0:0:0:
58,205,64408,2,0,L|188:188,1,100
185,188,64741,1,0,0:0:0:0:
168,272,64908,2,0,L|294:258,1,100
310,333,65241,1,0,0:0:0:0:
342,328,65324,1,0,0:0:0:0:
369,323,65408,2,0,B|519:238|340:158|348:69|382:48|415:42|415:42|448:44|484:61|505:157|316:234|499:349,1,700
399,315,67074,5,0,0:0:0:0:
442,235,67241,2,0,L|455:180,2,50
359,214,67491,1,0,0:0:0:0:
368,175,67574,1,0,0:0:0:0:
379,136,67658,1,0,0:0:0:0:
378,100,67741,2,0,P|371:88|368:84,1,11.25
278,110,67908,2,0,P|281:97|279:95,1,11.25
183,135,68074,1,0,0:0:0:0:
75,131,68408,5,0,0:0:0:0:
86,230,68630,1,0,0:0:0:0:
106,263,68741,1,0,0:0:0:0:
259,140,68963,1,0,0:0:0:0:
249,176,69185,2,0,L|239:212,1,30
220,289,69519,1,0,0:0:0:0:
405,267,69741,5,0,0:0:0:0:
366,333,69908,1,0,0:0:0:0:
326,184,70074,1,0,0:0:0:0:
299,329,70241,1,0,0:0:0:0:
223,167,70408,1,0,0:0:0:0:
31,154,70741,5,0,0:0:0:0:
32,81,70908,1,0,0:0:0:0:
125,214,71074,1,0,0:0:0:0:
101,62,71241,1,0,0:0:0:0:
223,167,71408,1,0,0:0:0:0:
384,351,71741,6,2,P|380:285|322:255,1,136.363636363636
327,318,72074,2,0,P|268:289|267:224,1,136.363636363636
223,167,72408,1,0,0:0:0:0:
228,175,73074,1,0,0:0:0:0:
228,175,73408,1,0,0:0:0:0:
87,34,73963,5,0,0:0:0:0:
87,34,74074,1,0,0:0:0:0:
51,177,74241,1,0,0:0:0:0:
129,113,74408,1,0,0:0:0:0:
100,258,74574,1,0,0:0:0:0:
184,202,74741,1,0,0:0:0:0:
158,336,74963,1,0,0:0:0:0:
158,336,75074,1,0,0:0:0:0:
340,69,77741,5,0,0:0:0:0:
264,113,77908,1,0,0:0:0:0:
264,113,77991,1,0,0:0:0:0:
264,113,78074,2,0,L|288:248,1,100
363,286,78408,2,0,L|343:160,1,100
421,215,78658,1,0,0:0:0:0:
419,198,78741,2,0,B|414:115|314:89|266:115,1,136.363636363636
331,107,79074,2,0,P|397:140|410:228,1,136.363636363636
353,280,79574,6,0,B|292:327|292:327|200:277,1,136.363636363636
167,246,79908,1,0,0:0:0:0:
101,136,80074,2,0,L|70:268,1,95.8636392780809
23,164,80408,2,0,L|55:20,1,136.363636363636
36,262,80741,1,0,0:0:0:0:
36,262,80824,1,0,0:0:0:0:
36,262,80908,2,0,B|104:235|104:235|164:285,1,136.363636363636
208,185,81241,1,0,0:0:0:0:
236,322,81408,2,0,P|312:334|330:160,1,287.590917834243
208,185,82074,2,0,L|384:308,1,191.727278556162
388,81,82574,5,0,0:0:0:0:
433,157,82741,1,0,0:0:0:0:
391,226,82908,1,0,0:0:0:0:
412,261,82991,1,0,0:0:0:0:
439,299,83074,2,0,P|381:328|353:338,1,67.5000025749208
277,304,83408,2,0,P|226:277|177:266,1,85.4999977169037
106,234,83741,2,0,P|173:193|219:188,1,85.4999977169037
310,122,84074,5,0,0:0:0:0:
310,122,84241,2,0,B|268:148|268:148|318:186|268:255,1,170.999995433807
260,269,84658,1,0,0:0:0:0:
252,284,84741,1,0,0:0:0:0:
172,317,84908,2,0,P|172:257|202:210,1,85.4999977169037
217,160,85241,1,0,0:0:0:0:
326,61,85408,1,0,0:0:0:0:
326,61,85491,1,0,0:0:0:0:
326,61,85574,1,0,0:0:0:0:
360,214,85741,5,0,0:0:0:0:
241,256,85908,2,0,L|309:282,1,67.5000025749208
486,218,86241,2,0,L|425:267,1,67.5000025749208
360,214,86574,1,0,0:0:0:0:
241,256,86741,2,0,L|309:282,1,67.5
486,218,87408,2,0,L|425:267,1,67.5000025749208
360,214,88074,5,0,0:0:0:0:
377,111,88408,2,0,L|217:97,1,135.000005149842
157,75,88908,2,0,L|342:52,1,136.363636363636
88,277,89408,5,0,0:0:0:0:
270,251,89741,2,0,P|191:204|136:198,1,135.000005149842
43,174,90241,2,0,P|117:152|212:148,1,136.363636363636
365,294,90741,5,0,0:0:0:0:
400,193,91074,2,0,B|388:249|384:257|375:258|285:256,1,135.000005149842
240,240,91574,2,0,B|252:182|256:176|265:173|336:176,1,135.000005149842
384,256,92074,2,0,L|416:96,1,136.363636363636
336,80,92408,5,0,0:0:0:0:
432,192,92574,1,0,0:0:0:0:
432,208,92741,1,0,0:0:0:0:
336,288,92908,1,0,0:0:0:0:
256,320,93074,2,0,P|192:272|112:256,1,136.363636363636
80,176,93408,5,0,0:0:0:0:
160,80,93741,2,0,P|176:176|176:224,1,135.000005149842
176,213,94241,2,0,P|173:146|159:74,1,136.363636363636
325,296,94741,5,0,0:0:0:0:
248,255,95074,2,0,B|280:214|322:207|322:207|324:173|332:163,1,135.000005149842
332,163,95574,2,0,B|324:173|322:207|322:207|280:214|248:255,1,136.363636363636
423,62,96074,5,0,0:0:0:0:
243,139,96408,1,0,0:0:0:0:
423,62,96574,1,0,0:0:0:0:
332,106,96741,1,0,0:0:0:0:
335,197,96908,2,0,B|369:198|403:213|403:213|382:235|412:286,1,135.000005149842
454,339,97408,1,0,0:0:0:0:
256,192,97491,12,0,99074,0:0:0:0:
255,192,99408,5,0,0:0:0:0:
255,192,99741,1,0,0:0:0:0:
327,196,101741,5,0,0:0:0:0:
314,231,101908,1,0,0:0:0:0:
120,246,102074,1,0,0:0:0:0:
93,202,102241,1,0,0:0:0:0:
169,39,102407,1,0,0:0:0:0:
211,41,102490,1,0,0:0:0:0:
252,46,102574,2,0,L|350:55,1,67.5000025749208
406,122,102824,1,0,0:0:0:0:
372,142,102908,2,0,L|279:173,1,67.5000025749208
190,177,103241,5,0,0:0:0:0:
190,177,103408,1,0,0:0:0:0:
66,127,103574,1,0,0:0:0:0:
66,127,103658,1,0,0:0:0:0:
66,127,103741,2,0,P|45:184|55:244,1,90
54,311,104074,2,0,P|119:287|170:284,1,90
185,288,104324,1,0,0:0:0:0:
230,300,104408,2,0,P|297:314|339:296,2,90
64,224,104908,1,0,0:0:0:0:
144,160,105074,1,0,0:0:0:0:
38,62,105241,2,0,B|95:26|163:42|175:76|190:129|190:129|215:69|252:50|252:50|276:82|263:117,1,360
392,148,106074,5,0,0:0:0:0:
265,188,106241,1,0,0:0:0:0:
272,192,106324,1,0,0:0:0:0:
279,197,106408,2,0,L|358:246,1,90
505,331,106741,2,0,L|414:279,1,90
392,148,107074,1,0,0:0:0:0:
232,122,107241,2,0,P|301:80|368:63,1,136.363636363636
352,66,107574,2,0,P|297:106|232:122,1,136.363636363636
124,115,107908,1,0,0:0:0:0:
130,195,108074,2,0,B|181:217|213:266|193:340|112:367|60:335|42:283|44:258,1,270
114,262,108741,5,0,0:0:0:0:
114,262,108908,1,0,0:0:0:0:
201,317,109074,2,0,L|310:287,1,90
399,249,109408,2,0,L|305:231,1,90
192,176,109741,1,0,0:0:0:0:
191,191,109908,2,0,L|191:351,1,136.363636363636
47,109,110241,2,0,L|47:278,1,136.363636363636
120,37,110574,2,0,L|120:197,1,135.000005149842
352,48,111074,1,0,0:0:0:0:
304,256,111574,1,0,0:0:0:0:
352,48,111741,1,0,0:0:0:0:
144,128,111908,1,0,0:0:0:0:
352,48,112074,1,0,0:0:0:0:
54,271,112408,6,0,L|136:266,1,67.5000025749208
244,288,112658,1,0,0:0:0:0:
219,317,112741,2,0,L|151:321,1,67.5000025749208
58,279,113074,1,0,0:0:0:0:
54,259,113158,1,0,0:0:0:0:
50,240,113241,2,0,P|52:176|66:150,1,67.5000025749208
128,208,113574,2,0,P|150:141|200:90,1,135.000005149842
425,95,114074,1,0,0:0:0:0:
396,330,114241,5,0,0:0:0:0:
361,315,114324,1,0,0:0:0:0:
335,323,114408,2,0,B|299:350|299:350|275:309|189:354,1,135.000005149842
93,333,114908,1,0,0:0:0:0:
277,231,115241,1,0,0:0:0:0:
76,327,115574,1,0,0:0:0:0:
295,245,115908,2,0,B|322:298|322:298|359:194|429:210,1,202.500007724762
413,287,116741,5,0,0:0:0:0:
336,336,117074,1,0,0:0:0:0:
288,240,117241,1,0,0:0:0:0:
240,336,117408,1,0,0:0:0:0:
192,240,117574,1,0,0:0:0:0:
144,336,117908,2,0,P|80:336|80:224,2,180
144,336,118741,2,0,B|195:324|222:317|222:317|243:275|307:268,1,180
396,337,119574,5,0,0:0:0:0:
405,306,119658,1,0,0:0:0:0:
407,275,119741,2,0,L|414:226,1,45
324,237,120074,2,0,L|341:182,1,45
312,277,120408,1,0,0:0:0:0:
296,316,120574,2,0,L|155:293,1,100
138,285,120908,2,0,L|260:264,1,100
272,237,121241,1,0,0:0:0:0:
272,237,121408,2,0,L|145:212,1,100
40,62,121741,1,0,0:0:0:0:
40,62,121852,1,0,0:0:0:0:
40,62,121963,1,0,0:0:0:0:
40,62,122074,1,0,0:0:0:0:
40,62,122185,1,0,0:0:0:0:
107,94,122296,1,0,0:0:0:0:
181,80,122407,1,0,0:0:0:0:
252,52,122518,1,0,0:0:0:0:
327,46,122629,1,0,0:0:0:0:
392,82,122740,1,0,0:0:0:0:
407,154,122851,1,0,0:0:0:0:
388,228,122962,1,0,0:0:0:0:
388,302,123073,1,0,0:0:0:0:
