osu file format v14

[General]
AudioFilename: audio.mp3
AudioLeadIn: 0
PreviewTime: 201150
Countdown: 0
SampleSet: Soft
StackLeniency: 0.4
Mode: 0
LetterboxInBreaks: 0
WidescreenStoryboard: 0

[Editor]
Bookmarks: 97527,177843
DistanceSpacing: 1.6
BeatDivisor: 4
GridSize: 32
TimelineZoom: 2.1

[Metadata]
Title:Ring of Fortune
TitleUnicode:Ring of Fortune
Artist:Sasaki Eri
ArtistUnicode:佐々木恵梨
Creator:-Aqua
Version:Lingering Affection
Source:プラスティック・メモリーズ
Tags:Plastic Memories プラメモ Plamemo アイラ Isla オープニング・テーマ Opening Theme Full Version Agatsu Collab Japanese Anime
BeatmapID:2311949
BeatmapSetID:1106218

[Difficulty]
HPDrainRate:6
CircleSize:4
OverallDifficulty:8
ApproachRate:8.5
SliderMultiplier:1.6
SliderTickRate:1

[Events]
//Background and Video events
0,0,"isla.jpg",0,0
//Break Periods
//Storyboard Layer 0 (Background)
//Storyboard Layer 1 (Fail)
//Storyboard Layer 2 (Pass)
//Storyboard Layer 3 (Foreground)
//Storyboard Layer 4 (Overlay)
//Storyboard Sound Samples

[TimingPoints]
-361,405.405405405405,4,2,1,50,1,0
855,-100,4,2,1,50,0,0
1260,-133.333333333333,4,2,1,50,0,0
7747,-133.333333333333,4,2,1,55,0,0
9976,401.33779264214,4,2,1,50,1,0
9976,-133.333333333333,4,2,1,50,0,0
10377,379.746835443038,4,2,1,50,1,0
10377,-100,4,2,1,50,0,0
10945,379.746835443038,4,2,1,50,1,0
10945,-100,4,2,1,60,0,0
13982,-86.9565217391304,4,2,1,70,0,1
14077,-86.9565217391304,4,2,1,70,0,0
18634,-86.9565217391304,4,2,1,5,0,0
18729,-86.9565217391304,4,2,1,70,0,0
20058,-86.9565217391304,4,2,1,70,0,1
20153,-86.9565217391304,4,2,1,70,0,0
26609,-86.9565217391304,4,2,1,5,0,0
26704,-100,4,2,1,50,0,0
27274,-133.333333333333,4,2,1,50,0,0
27653,-125,4,2,1,40,0,0
30217,-125,4,2,1,5,0,0
30312,-125,4,2,1,40,0,0
30596,-125,4,2,1,5,0,0
30691,-125,4,2,1,40,0,0
39710,-125,4,2,1,5,0,0
39805,-105.263157894737,4,2,1,45,0,0
50343,-105.263157894737,4,2,1,5,0,0
50438,-105.263157894737,4,2,1,45,0,0
51957,-90.9090909090909,4,2,1,60,0,0
52242,-90.9090909090909,4,2,1,5,0,0
52337,-90.9090909090909,4,2,1,60,0,0
55280,-90.9090909090909,4,2,1,5,0,0
55375,-90.9090909090909,4,2,1,60,0,0
58033,-90.9090909090909,4,2,1,50,0,0
64109,-90.9090909090909,4,2,1,70,0,0
64963,-90.9090909090909,4,2,1,5,0,0
65058,-90.9090909090909,4,2,1,70,0,0
65343,-90.9090909090909,4,2,1,5,0,0
65438,-90.9090909090909,4,2,1,70,0,0
69046,-266.666666666667,4,2,1,70,0,0
70185,-80,4,2,1,85,0,1
71799,-80,4,2,1,5,0,1
71894,-80,4,2,1,85,0,1
74837,-80,4,2,1,5,0,1
74932,-80,4,2,1,85,0,1
76546,-80,4,2,1,5,0,1
76641,-80,4,2,1,85,0,1
77875,-80,4,2,1,5,0,1
77970,-80,4,2,1,85,0,1
79584,-80,4,2,1,5,0,1
79679,-80,4,2,1,85,0,1
80913,-80,4,2,1,5,0,1
81008,-80,4,2,1,85,0,1
82242,-80,4,2,1,85,0,0
82337,-80,4,2,1,85,0,1
83951,-80,4,2,1,5,0,1
84046,-80,4,2,1,85,0,1
86989,-80,4,2,1,5,0,1
87084,-80,4,2,1,85,0,1
88413,-90.9090909090909,4,2,1,85,0,1
90786,-90.9090909090909,4,2,1,5,0,1
90881,-90.9090909090909,4,2,1,85,0,1
91261,-80,4,2,1,85,0,1
93065,-80,4,2,1,5,0,1
93160,-80,4,2,1,85,0,1
94584,-80,4,2,1,5,0,1
94679,-80,4,2,1,85,0,1
95818,-90.9090909090909,4,2,1,85,0,0
95913,-90.9090909090909,4,2,1,5,0,0
96198,-90.9090909090909,4,2,1,85,0,0
96293,-90.9090909090909,4,2,1,5,0,0
96577,-90.9090909090909,4,2,1,85,0,0
96672,-90.9090909090909,4,2,1,5,0,0
96957,-90.9090909090909,4,2,1,85,0,0
97052,-90.9090909090909,4,2,1,5,0,0
97147,-90.9090909090909,4,2,1,85,0,0
97527,-100,4,2,1,70,0,0
104457,-100,4,2,1,5,0,0
104552,-100,4,2,1,70,0,0
108160,-125,4,2,1,40,0,0
120312,-105.263157894737,4,2,1,50,0,0
132463,-99.9999999999999,4,2,1,60,0,0
138539,-99.9999999999999,4,2,1,50,0,0
144615,-99.9999999999999,4,2,1,70,0,0
150691,-90.9090909090909,4,2,1,85,0,1
162179,-90.9090909090909,4,2,1,5,0,1
162274,-90.9090909090909,4,2,1,85,0,1
162748,-90.9090909090909,4,2,1,85,0,0
162843,-90.9090909090909,4,2,1,85,0,1
167495,-90.9090909090909,4,2,1,5,0,1
167590,-90.9090909090909,4,2,1,85,0,1
176324,-90.9090909090909,4,2,1,85,0,0
177843,-117.647058823529,4,2,1,40,0,0
190185,-100,4,2,1,60,0,0
196261,-90.9090909090909,4,2,1,70,0,0
197115,-90.9090909090909,4,2,1,5,0,0
197210,-90.9090909090909,4,2,1,70,0,0
197495,-90.9090909090909,4,2,1,5,0,0
197590,-90.9090909090909,4,2,1,70,0,0
199394,-90.9090909090909,4,2,1,5,0,0
199489,-90.9090909090909,4,2,1,70,0,0
200913,-90.9090909090909,4,2,1,5,0,0
201008,-90.9090909090909,4,2,1,50,0,0
202242,-90.9090909090909,4,2,1,5,0,0
202337,-133.333333333333,4,2,1,40,0,0
208413,-105.263157894737,4,2,1,55,0,0
212780,-105.263157894737,4,2,1,70,0,0
213634,-105.263157894737,4,2,1,5,0,0
213729,-105.263157894737,4,2,1,70,0,0
214014,-105.263157894737,4,2,1,5,0,0
214109,-90.9090909090909,4,2,1,70,0,0
214489,-80,4,2,1,85,0,1
216103,-80,4,2,1,5,0,1
216198,-80,4,2,1,85,0,1
219141,-80,4,2,1,5,0,1
219236,-80,4,2,1,85,0,1
220850,-80,4,2,1,5,0,1
220945,-80,4,2,1,85,0,1
222179,-80,4,2,1,5,0,1
222274,-80,4,2,1,85,0,1
225217,-80,4,2,1,5,0,1
225312,-80,4,2,1,85,0,1
226546,-80,4,2,1,85,0,0
226641,-80,4,2,1,85,0,1
228255,-80,4,2,1,5,0,1
228350,-80,4,2,1,85,0,1
229963,-80,4,2,1,5,0,1
230058,-80,4,2,1,85,0,1
232052,-80,4,2,1,5,0,1
232147,-80,4,2,1,85,0,1
232717,-90.9090909090909,4,2,1,85,0,1
233571,-90.9090909090909,4,2,1,5,0,1
233666,-90.9090909090909,4,2,1,85,0,1
235850,-90.9090909090909,4,2,1,5,0,1
235945,-90.9090909090909,4,2,1,85,0,1
237369,-90.9090909090909,4,2,1,5,0,1
237463,-90.9090909090909,4,2,1,85,0,1
238888,-90.9090909090909,4,2,1,5,0,1
238982,-90.9090909090909,4,2,1,85,0,1
240122,-80,4,2,1,85,0,0
240407,-80,4,2,1,5,0,0
240501,-80,4,2,1,85,0,0
240786,-80,4,2,1,5,0,0
240881,-80,4,2,1,85,0,0
241166,-80,4,2,1,5,0,0
241261,-80,4,2,1,85,0,0
241831,-100,4,2,1,70,0,0
247907,-83.3333333333333,4,2,1,85,0,0
250945,-83.3333333333333,4,2,1,75,0,0
252463,-83.3333333333333,4,2,1,55,0,0
253982,-83.3333333333333,4,2,1,35,0,0
255501,-83.3333333333333,4,2,1,15,0,0
257020,-83.3333333333333,4,2,1,5,0,0

[Colours]
Combo1 : 191,191,255
Combo2 : 255,166,166
Combo3 : 212,212,212
Combo4 : 255,189,157

[HitObjects]
60,319,855,5,0,0:0:0:0:
53,334,1057,1,0,0:0:0:0:
132,384,1260,6,0,P|174:351|254:356,1,120.000004577637,2|0,0:0|0:0,0:0:0:0:
359,226,1868,2,0,P|299:226|252:191,1,120.000004577637,2|0,0:0|0:0,0:0:0:0:
231,110,2476,1,0,0:0:0:0:
111,212,2679,6,0,B|93:256|93:256|112:340,1,120.000004577637,2|0,0:0|0:0,0:0:0:0:
180,363,3287,1,0,0:0:0:0:
321,276,3490,1,0,0:0:0:0:
321,276,3693,2,0,B|436:266|380:337|492:333,1,180.000006866455,2|0,0:0|0:0,0:0:0:0:
472,313,4503,6,0,B|410:329|435:368|349:377,1,120.000004577637,2|0,0:0|0:0,0:0:0:0:
224,247,5111,2,0,B|185:228|185:228|175:201|175:201|111:164,1,120.000004577637,0|0,0:0|0:0,0:0:0:0:
118,188,5922,6,0,P|102:223|115:266,1,60.0000022888184,2|0,0:0|0:0,0:0:0:0:
211,130,6328,2,0,P|201:77|191:8,1,120.000004577637,0|0,0:0|0:0,0:0:0:0:
65,76,6936,2,0,P|55:125|48:156,1,60.0000022888184,2|0,0:0|0:0,0:0:0:0:
126,203,7341,2,0,P|136:252|143:283,1,60.0000022888184,2|0,0:0|0:0,0:0:0:0:
300,154,7747,6,0,P|302:103|250:60,1,120.000004577637,2|0,0:0|0:0,0:0:0:0:
285,169,8355,2,0,B|323:198|323:198|415:176,1,120.000004577637,2|0,0:0|0:0,0:0:0:0:
468,92,8963,1,2,0:0:0:0:
378,35,9166,1,0,0:0:0:0:
464,225,9368,6,0,P|478:274|501:353,1,120.000004577637,2|0,0:0|0:0,0:0:0:0:
358,237,9976,2,0,P|356:183|426:131,1,120.000004577637,2|0,0:0|0:0,0:0:0:0:
340,280,10566,5,10,0:0:0:0:
305,292,10661,1,2,0:0:0:0:
235,258,10756,5,2,0:0:0:0:
214,251,10851,1,2,0:0:0:0:
159,309,10945,6,0,P|176:349|187:392,1,80,10|0,1:2|0:0,0:0:0:0:
185,384,11324,1,0,1:0:0:0:
77,268,11514,1,10,0:0:0:0:
226,203,11799,5,8,0:0:0:0:
226,203,11894,1,0,1:0:0:0:
77,138,12084,6,0,P|39:159|0:170,2,80,10|0|0,1:2|0:0|1:0,0:0:0:0:
110,48,12653,1,10,0:0:0:0:
208,176,12938,5,8,0:0:0:0:
208,176,13033,1,0,1:0:0:0:
287,97,13223,6,0,B|298:60|298:60|285:12,1,80,2|0,1:2|1:0,0:0:0:0:
416,191,13603,1,8,0:0:0:0:
476,141,13793,1,2,0:0:0:0:
476,141,13888,1,2,0:0:0:0:
476,141,13982,6,0,P|426:147|365:154,1,92.0000017547608,6|2,1:2|0:0,0:0:0:0:
313,289,14362,2,0,P|363:295|424:302,1,92.0000017547608,10|0,0:0|0:0,0:0:0:0:
404,299,14647,1,0,1:0:0:0:
404,299,14742,1,2,1:2:0:0:
271,210,14932,5,2,1:2:0:0:
271,210,15122,1,8,0:0:0:0:
202,345,15312,1,2,1:2:0:0:
111,281,15501,2,0,B|97:240|97:240|121:180,1,92.0000017547608,2|0,0:0|1:0,0:0:0:0:
210,362,15881,5,10,0:0:0:0:
129,293,16071,1,10,0:0:0:0:
111,303,16166,1,0,1:0:0:0:
221,186,16356,1,8,0:0:0:0:
239,196,16451,1,2,1:2:0:0:
141,113,16641,5,10,0:0:0:0:
40,60,16831,1,2,0:0:0:0:
0,122,17020,5,0,1:2:0:0:
166,16,17210,1,2,0:0:0:0:
166,16,17400,2,0,B|220:22|197:49|257:56,1,92.0000017547608,10|0,0:0|0:0,0:0:0:0:
130,201,17780,1,2,1:2:0:0:
130,201,17970,2,0,B|76:207|99:234|39:241,1,92.0000017547608,2|8,1:2|0:0,0:0:0:0:
170,348,18350,6,0,P|227:331|322:317,1,138.000002632141,2|0,1:2|0:0,0:0:0:0:
325,325,18729,1,2,1:2:0:0:
460,374,18919,5,10,0:0:0:0:
367,235,19109,1,2,1:2:0:0:
455,173,19299,5,2,0:0:0:0:
510,67,19489,1,2,1:2:0:0:
390,20,19679,5,10,0:0:0:0:
390,20,19869,1,2,1:2:0:0:
390,20,19963,1,2,1:2:0:0:
390,20,20058,6,0,B|409:65|409:65|397:134,1,92.0000017547608,6|2,1:2|0:0,0:0:0:0:
245,212,20438,2,0,P|247:166|251:120,1,92.0000017547608,10|0,0:0|0:0,0:0:0:0:
251,120,20723,1,0,1:0:0:0:
251,120,20818,1,2,1:2:0:0:
169,78,21008,5,2,1:2:0:0:
169,78,21198,1,8,0:0:0:0:
264,240,21388,1,6,1:2:0:0:
178,329,21577,2,0,P|123:344|86:366,1,92.0000017547608,2|0,0:0|1:0,0:0:0:0:
242,382,21957,5,10,0:0:0:0:
128,253,22147,1,2,1:2:0:0:
135,232,22242,1,8,0:0:0:0:
304,152,22432,1,8,0:0:0:0:
311,173,22527,1,2,1:2:0:0:
262,266,22717,5,10,0:0:0:0:
262,266,22812,1,8,0:0:0:0:
262,266,22907,1,2,1:2:0:0:
137,124,23096,6,0,B|129:79|129:79|161:35,1,92.0000017547608,6|0,1:2|1:0,0:0:0:0:
177,39,23381,1,0,1:0:0:0:
177,39,23476,1,10,1:2:0:0:
286,141,23666,6,0,P|335:137|373:97,1,92.0000017547608,2|0,1:2|0:0,0:0:0:0:
511,34,24046,2,0,P|467:18|425:0,1,92.0000017547608,2|0,1:2|0:0,0:0:0:0:
385,207,24426,6,0,B|399:255|414:273|414:273|400:315|400:315|421:342|435:386,2,184.000003509522,10|10|10,0:0|0:0|1:2,0:0:0:0:
256,192,25280,12,0,26609,0:0:0:0:
360,174,26704,5,8,3:0:0:0:
313,250,26894,2,0,P|273:244|241:221,1,80,2|8,1:2|3:0,0:0:0:0:
364,360,27274,2,0,P|390:347|420:344,1,60.0000022888184,4|0,3:0|1:0,0:0:0:0:
469,277,27653,5,2,0:0:0:0:
479,290,28223,1,0,0:0:0:0:
391,232,28413,2,0,B|311:247|363:286|263:300,1,128,0|0,0:0|0:0,0:0:0:0:
246,365,28982,1,0,0:0:0:0:
246,365,29172,6,0,P|193:351|163:347,1,64,0|0,1:0|1:0,0:0:0:0:
0,262,29932,2,0,P|53:258|71:207,1,96,2|0,0:0|0:0,0:0:0:0:
83,206,30312,2,0,P|67:163|49:117,1,96,0|0,0:0|0:0,0:0:0:0:
131,90,30691,6,0,P|139:47|144:20,2,64,2|0|0,1:2|0:0|0:0,0:0:0:0:
131,90,31261,1,0,0:0:0:0:
63,0,32020,1,2,1:2:0:0:
149,112,32210,6,0,P|187:95|224:94,1,64,2|2,1:2|1:2,0:0:0:0:
239,14,32590,2,0,P|277:31|314:32,1,64,2|2,0:0|0:0,0:0:0:0:
338,152,33160,1,2,0:0:0:0:
345,165,33729,6,0,L|414:146,2,64,2|0|0,1:2|0:0|0:0,0:0:0:0:
319,246,34299,2,0,P|316:285|399:343,1,128,2|0,0:0|0:0,0:0:0:0:
375,342,34869,1,0,0:0:0:0:
461,200,35058,6,0,P|447:116|438:55,1,128,0|0,0:0|0:0,0:0:0:0:
317,1,35628,1,0,0:0:0:0:
317,1,35818,2,0,P|303:85|294:146,1,128,2|0,0:0|0:0,0:0:0:0:
230,182,36388,2,0,B|197:191|197:191|156:182,1,64,0|0,0:0|0:0,0:0:0:0:
0,48,36767,6,0,B|47:66|47:66|62:93|62:93|118:114,1,128,2|0,1:2|0:0,0:0:0:0:
162,210,37337,1,2,0:0:0:0:
162,210,37527,2,0,B|269:197|206:131|336:115,1,192,0|0,0:0|1:0,0:0:0:0:
503,33,38286,6,0,L|489:107,1,64,2|0,1:2|1:0,0:0:0:0:
388,169,38666,2,0,B|380:238|380:238|412:298,1,128,0|2,0:0|0:0,0:0:0:0:
484,327,39236,1,8,3:0:0:0:
411,293,39426,2,0,B|348:303|388:330|303:343,1,96,0|0,1:0|0:0,0:0:0:0:
273,384,39805,6,0,P|234:369|198:361,1,75.9999979705811,4|0,0:0|0:0,0:0:0:0:
113,245,40185,2,0,P|149:236|185:222,1,75.9999979705811,0|0,0:0|0:0,0:0:0:0:
79,325,40565,5,0,3:0:0:0:
185,193,40802,5,0,3:0:0:0:
15,109,41134,5,2,0:0:0:0:
23,127,41229,1,2,0:0:0:0:
31,143,41324,6,0,B|70:136|70:136|109:102,1,75.9999979705811,2|0,1:2|1:0,0:0:0:0:
202,215,41704,2,0,B|290:220|254:271|348:278,2,151.999995941162,0|2|0,0:0|0:0|0:0,0:0:0:0:
354,79,42843,6,0,P|408:59|425:42,1,75.9999979705811,2|0,1:2|0:0,0:0:0:0:
512,105,43223,1,2,0:0:0:0:
428,172,43413,1,2,0:0:0:0:
512,242,43603,2,0,P|535:303|481:373,1,151.999995941162,0|0,0:0|0:0,0:0:0:0:
363,302,44172,5,0,1:0:0:0:
363,302,44267,1,0,1:0:0:0:
363,302,44362,2,0,L|281:327,1,75.9999979705811,2|0,1:2|0:0,0:0:0:0:
184,191,44932,5,2,0:0:0:0:
184,191,45123,2,0,L|102:166,1,75.9999979705811,2|0,3:2|0:0,0:0:0:0:
101,188,45407,1,0,3:0:0:0:
101,188,45501,1,0,3:0:0:0:
23,258,45691,1,0,3:0:0:0:
23,258,45786,1,0,3:0:0:0:
23,258,45881,6,0,P|25:295|46:326,1,75.9999979705811,2|0,1:2|0:0,0:0:0:0:
122,346,46261,1,2,0:0:0:0:
238,257,46451,1,2,0:0:0:0:
238,257,46641,2,0,B|334:263|275:316|393:325,1,151.999995941162,0|0,3:0|0:0,0:0:0:0:
423,380,47210,1,0,0:0:0:0:
483,144,47400,6,0,B|434:172|434:172|428:212|428:212|362:247,1,151.999995941162,2|0,1:2|0:0,0:0:0:0:
282,326,47970,1,2,1:2:0:0:
282,326,48160,2,0,P|207:311|132:299,1,151.999995941162,0|0,3:0|0:0,0:0:0:0:
50,184,48729,1,0,0:0:0:0:
28,255,48919,6,0,P|65:278|146:203,1,151.999995941162,2|0,1:2|0:0,0:0:0:0:
256,119,49489,2,0,P|206:66|138:89,1,151.999995941162,2|0,3:2|0:0,0:0:0:0:
268,207,50058,2,0,P|350:175|393:165,1,113.999996955872,2|0,3:2|0:0,0:0:0:0:
389,179,50438,5,0,3:0:0:0:
379,202,50818,5,0,0:0:0:0:
253,113,51008,1,0,1:0:0:0:
199,13,51198,5,8,0:0:0:0:
77,73,51388,1,8,3:0:0:0:
22,218,51577,5,8,0:0:0:0:
22,218,51672,1,8,0:0:0:0:
22,218,51767,1,0,1:0:0:0:
96,181,51957,6,0,B|169:188|135:236|215:235,1,132.00000402832,6|0,1:2|0:0,0:0:0:0:
228,219,52337,2,0,P|256:186|255:143,1,88.000002685547,2|0,1:2|0:0,0:0:0:0:
358,48,52717,1,8,0:0:0:0:
358,48,52907,2,0,P|357:91|385:123,1,88.000002685547,2|0,1:2|0:0,0:0:0:0:
461,149,53286,1,2,1:2:0:0:
380,279,53476,6,0,P|328:263|207:234,1,176.000005371094,0|0,0:0|0:0,0:0:0:0:
221,246,54046,1,0,1:0:0:0:
221,246,54141,1,0,1:0:0:0:
221,246,54236,6,0,P|241:300|246:339,1,88.000002685547,2|0,0:0|1:0,0:0:0:0:
70,253,54615,2,0,P|77:209|94:169,1,88.000002685547,2|0,0:0|0:0,0:0:0:0:
177,115,54995,6,0,P|227:155|301:151,1,132.00000402832,2|0,1:2|0:0,0:0:0:0:
313,139,55375,2,0,B|307:95|287:19,1,88.000002685547,2|0,1:2|0:0,0:0:0:0:
398,4,55755,1,8,0:0:0:0:
398,4,55945,1,2,1:2:0:0:
495,133,56324,5,2,1:2:0:0:
495,133,56514,2,0,P|483:190|479:254,1,88.000002685547,0|2,0:0|1:2,0:0:0:0:
378,300,56894,2,0,P|372:256|362:213,1,88.000002685547,0|0,0:0|1:0,0:0:0:0:
459,328,57274,5,8,0:0:0:0:
352,223,57463,1,0,1:0:0:0:
507,116,57653,1,10,0:0:0:0:
487,89,57747,1,2,1:2:0:0:
458,75,57842,1,2,0:0:0:0:
425,75,57937,1,2,0:0:0:0:
397,91,58033,6,0,L|290:68,1,88.000002685547,6|0,1:2|0:0,0:0:0:0:
175,0,58413,1,0,1:0:0:0:
175,0,58603,2,0,P|200:87|222:183,1,176.000005371094,0|0,0:0|0:0,0:0:0:0:
305,258,59172,2,0,P|338:216|339:168,1,88.000002685547,0|0,1:0|0:0,0:0:0:0:
226,311,59552,5,0,1:2:0:0:
214,331,59932,2,0,P|257:336|301:352,1,88.000002685547,2|2,1:2|0:0,0:0:0:0:
311,371,60217,1,2,0:0:0:0:
311,371,60312,1,0,1:0:0:0:
396,305,60501,1,0,0:0:0:0:
248,191,60691,2,0,P|206:205|162:211,1,88.000002685547,2|0,1:2|0:0,0:0:0:0:
61,132,61071,6,0,L|43:38,2,88.000002685547,4|0|0,1:2|0:0|1:0,0:0:0:0:
30,211,61641,2,0,P|-1:264|7:298,1,88.000002685547,0|0,0:0|1:0,0:0:0:0:
137,361,62020,1,2,0:0:0:0:
137,361,62115,1,2,0:0:0:0:
137,361,62210,2,0,P|136:317|109:284,1,88.000002685547,0|0,1:0|0:0,0:0:0:0:
33,377,62590,5,0,1:0:0:0:
218,281,62970,2,0,P|265:297|307:300,1,88.000002685547,2|2,1:2|0:0,0:0:0:0:
324,284,63256,1,2,0:0:0:0:
324,284,63351,1,0,1:0:0:0:
240,166,63539,5,8,3:0:0:0:
180,261,63729,2,0,P|176:310|171:357,1,88.000002685547,2|8,1:2|0:0,0:0:0:0:
158,361,64014,1,8,0:0:0:0:
158,361,64109,5,6,1:2:0:0:
260,186,64299,1,8,0:0:0:0:
260,186,64394,1,8,0:0:0:0:
260,186,64489,1,8,0:0:0:0:
125,72,64679,6,0,B|30:80|101:117|-16:133,1,132.00000402832,2|0,1:2|0:0,0:0:0:0:
153,248,65058,2,0,B|248:256|177:293|294:309,1,132.00000402832,2|0,1:2|0:0,0:0:0:0:
328,355,65438,1,0,1:0:0:0:
336,369,65818,5,0,1:0:0:0:
442,264,66008,1,4,3:0:0:0:
345,178,66198,2,0,P|297:191|245:198,1,88.000002685547,6|0,1:2|0:0,0:0:0:0:
375,91,66577,1,0,1:2:0:0:
394,85,66672,1,0,1:2:0:0:
410,80,66767,1,8,0:0:0:0:
466,276,66957,6,0,P|483:331|381:336,1,176.000005371094,4|0,1:2|1:0,0:0:0:0:
230,298,67527,2,0,L|318:273,1,88.000002685547,10|0,1:2|0:0,0:0:0:0:
368,177,67907,1,8,0:0:0:0:
368,177,68096,1,0,1:0:0:0:
319,298,68286,1,8,0:0:0:0:
203,98,68476,5,2,1:2:0:0:
192,116,68856,1,0,1:0:0:0:
111,173,69046,6,0,P|81:166|51:162,2,60.0000022888184,0|0|2,1:0|0:0|0:0,0:0:0:0:
192,320,69995,1,2,0:0:0:0:
192,320,70090,1,2,0:0:0:0:
192,320,70185,6,0,P|236:311|294:302,1,100,6|0,1:2|0:0,0:0:0:0:
345,220,70565,1,8,0:0:0:0:
434,304,70755,5,0,1:0:0:0:
428,329,70850,1,8,0:0:0:0:
501,238,71039,5,0,1:0:0:0:
493,212,71134,1,8,0:0:0:0:
422,352,71324,5,8,0:0:0:0:
330,193,71514,2,0,P|318:135|394:66,1,150,2|0,1:2|0:0,0:0:0:0:
386,88,71894,1,2,1:2:0:0:
236,178,72084,6,0,P|186:207|133:233,1,100,10|0,0:0|1:0,0:0:0:0:
123,213,72369,1,0,1:0:0:0:
123,213,72463,1,2,1:2:0:0:
16,66,72653,1,0,1:0:0:0:
16,66,72843,2,0,P|66:95|119:121,1,100,10|0,0:0|0:0,0:0:0:0:
290,0,73223,6,0,B|413:5|339:62|473:84,1,200,2|8,1:2|0:0,0:0:0:0:
330,192,73793,1,0,1:0:0:0:
330,192,73888,1,2,1:2:0:0:
330,192,73982,2,0,P|257:207|195:217,1,100,0|0,1:2|1:0,0:0:0:0:
374,365,74362,1,8,0:0:0:0:
374,365,74552,6,0,P|423:373|487:306,1,150,2|0,1:2|0:0,0:0:0:0:
469,296,74932,1,2,1:2:0:0:
423,229,75122,1,10,0:0:0:0:
256,354,75312,5,2,0:0:0:0:
256,354,75407,1,2,0:0:0:0:
256,354,75501,1,2,1:2:0:0:
184,283,75691,1,2,1:2:0:0:
217,161,75881,2,0,P|266:152|312:133,1,100,10|2,0:0|0:0,0:0:0:0:
421,313,76261,6,0,B|461:280|461:280|468:238|468:238|521:186,1,150,6|0,1:2|0:0,0:0:0:0:
511,178,76641,1,10,0:0:0:0:
471,73,76831,1,0,1:0:0:0:
471,73,76926,1,2,1:2:0:0:
471,73,77020,2,0,P|423:48|368:57,1,100,0|0,1:0|1:0,0:0:0:0:
292,215,77400,1,8,0:0:0:0:
292,215,77590,6,0,P|244:252|152:225,1,150,2|0,1:2|0:0,0:0:0:0:
165,215,77970,1,0,1:0:0:0:
258,104,78160,1,8,0:0:0:0:
110,27,78350,5,0,1:0:0:0:
84,39,78445,1,8,0:0:0:0:
0,118,78634,5,8,0:0:0:0:
26,130,78729,1,0,1:0:0:0:
75,214,78919,6,0,P|126:198|178:187,1,100,8|0,0:0|0:0,0:0:0:0:
273,312,79299,6,0,B|371:319|315:373|419:377,1,150,2|0,1:2|0:0,0:0:0:0:
417,357,79679,1,8,0:0:0:0:
502,285,79869,1,0,1:2:0:0:
498,264,79963,1,2,1:2:0:0:
490,239,80058,1,2,1:2:0:0:
284,179,80248,5,0,1:0:0:0:
389,232,80438,1,8,0:0:0:0:
512,100,80628,6,0,B|465:125|465:125|444:166|444:166|385:203,1,150,6|0,1:2|0:0,0:0:0:0:
389,232,81008,1,0,1:0:0:0:
244,79,81198,5,8,0:0:0:0:
244,79,81388,2,2,L|348:103,1,100,6|0,1:2|0:0,0:0:0:0:
210,223,81767,1,2,1:2:0:0:
210,223,81957,5,8,0:0:0:0:
179,244,82051,1,8,0:0:0:0:
143,250,82146,1,0,1:0:0:0:
107,240,82241,1,0,1:0:0:0:
79,215,82337,6,0,P|89:169|87:100,1,100,6|0,1:2|0:0,0:0:0:0:
0,263,82717,1,8,0:0:0:0:
115,352,82907,1,0,1:0:0:0:
115,352,83001,1,2,1:2:0:0:
115,352,83096,2,0,P|176:339|229:329,1,100,0|0,1:0|1:0,0:0:0:0:
253,268,83476,1,8,0:0:0:0:
474,168,83666,6,0,P|378:140|322:126,1,150,2|0,1:2|0:0,0:0:0:0:
314,142,84046,1,0,1:0:0:0:
264,41,84236,1,8,0:0:0:0:
155,141,84426,5,0,1:0:0:0:
161,165,84520,1,8,0:0:0:0:
64,94,84710,5,8,0:0:0:0:
70,70,84804,1,0,1:0:0:0:
164,0,84995,6,0,P|217:16|267:27,1,100,10|0,0:0|1:0,0:0:0:0:
466,128,85375,6,0,B|399:141|439:163|366:177,1,100,0|2,1:0|0:0,0:0:0:0:
348,245,85755,1,8,0:0:0:0:
448,344,85945,5,0,1:0:0:0:
448,344,86039,1,2,1:2:0:0:
448,344,86134,1,0,1:2:0:0:
486,265,86324,1,0,1:0:0:0:
486,265,86514,1,8,0:0:0:0:
320,334,86704,6,0,P|265:290|289:187,1,150,6|0,1:2|0:0,0:0:0:0:
327,166,87084,5,2,1:2:0:0:
471,116,87274,1,8,0:0:0:0:
372,22,87463,6,0,L|255:-4,1,100,6|0,1:2|1:0,0:0:0:0:
208,158,87843,2,0,L|91:184,1,100,2|8,1:2|0:0,0:0:0:0:
95,162,88128,1,8,0:0:0:0:
95,162,88223,1,0,1:0:0:0:
36,82,88413,6,0,P|30:28|23:-8,2,88.000002685547,2|0|8,1:2|1:0|0:0,0:0:0:0:
110,179,88982,2,0,P|157:187|198:160,1,88.000002685547,2|0,1:2|0:0,0:0:0:0:
301,28,89362,2,0,P|262:8|220:17,1,88.000002685547,2|8,1:2|0:0,0:0:0:0:
211,38,89647,1,8,0:0:0:0:
211,38,89742,1,0,1:0:0:0:
347,113,89932,6,0,P|404:98|448:88,1,88.000002685547,2|0,1:2|1:0,0:0:0:0:
470,21,90312,1,8,0:0:0:0:
512,170,90501,6,0,B|528:227|528:227|503:312,1,132.00000402832,2|0,1:2|0:0,0:0:0:0:
483,313,90881,1,2,1:2:0:0:
419,266,91071,1,8,0:0:0:0:
266,374,91261,6,0,B|159:364|209:291|85:284,1,200,6|0,1:2|1:0,0:0:0:0:
250,175,91831,2,0,P|318:140|355:130,1,100,12|0,0:0|1:0,0:0:0:0:
356,148,92115,1,0,1:0:0:0:
356,148,92210,1,2,1:2:0:0:
463,203,92400,5,2,1:2:0:0:
512,142,92590,1,8,0:0:0:0:
436,36,92780,6,0,P|362:21|290:0,1,150,2|0,1:2|0:0,0:0:0:0:
273,13,93160,1,0,1:0:0:0:
221,156,93350,2,0,P|156:176|90:188,1,100,8|8,0:0|0:0,0:0:0:0:
97,156,93634,1,8,0:0:0:0:
97,156,93729,1,0,1:0:0:0:
40,68,93919,5,0,1:2:0:0:
40,68,94014,1,0,1:2:0:0:
40,68,94109,1,10,1:2:0:0:
0,262,94299,6,0,B|93:269|58:320|159:319,1,150,6|0,1:2|0:0,0:0:0:0:
148,339,94679,1,0,1:0:0:0:
239,256,94869,1,10,0:0:0:0:
301,314,95058,5,8,0:0:0:0:
299,327,95153,1,8,0:0:0:0:
297,340,95248,1,0,1:2:0:0:
410,222,95438,5,0,1:2:0:0:
408,209,95533,1,0,1:2:0:0:
406,196,95628,1,8,0:0:0:0:
463,284,95818,6,0,P|496:283|508:279,1,44.0000013427735,10|0,1:2|0:0,0:0:0:0:
329,237,96198,6,0,P|296:236|284:232,1,44.0000013427735,10|0,1:2|0:0,0:0:0:0:
469,125,96577,6,0,P|502:124|514:120,1,44.0000013427735,10|0,1:2|0:0,0:0:0:0:
308,4,96957,6,0,P|275:3|263:-1,1,44.0000013427735,10|0,1:2|0:0,0:0:0:0:
207,53,97147,2,0,P|184:93|193:146,1,88.000002685547,2|8,0:0|0:0,0:0:0:0:
206,150,97432,1,8,0:0:0:0:
206,150,97527,5,6,1:2:0:0:
327,91,97717,1,2,0:0:0:0:
473,152,97907,2,0,P|482:212|494:282,1,120,10|8,0:0|0:0,0:0:0:0:
503,287,98286,1,2,1:2:0:0:
376,376,98476,2,0,P|332:371|299:336,1,80,2|8,1:2|0:0,0:0:0:0:
373,279,98856,1,2,1:2:0:0:
252,176,99046,6,0,P|208:181|175:216,1,80,2|0,0:0|1:0,0:0:0:0:
65,326,99426,1,10,0:0:0:0:
177,209,99615,2,0,L|164:260,2,40,2|0|0,1:2|1:0|1:0,0:0:0:0:
206,333,99995,1,2,1:2:0:0:
61,210,100185,5,10,0:0:0:0:
64,197,100280,1,2,0:0:0:0:
65,163,100375,1,2,0:0:0:0:
68,151,100470,1,2,0:0:0:0:
73,116,100565,5,6,1:2:0:0:
201,193,100755,1,2,0:0:0:0:
312,101,100945,2,0,P|353:98|406:88,1,80,10|0,0:0|0:0,0:0:0:0:
478,67,101229,1,8,0:0:0:0:
485,66,101324,1,2,1:2:0:0:
419,268,101514,2,0,P|415:228|418:178,1,80,2|8,1:2|0:0,0:0:0:0:
309,233,101894,1,2,1:2:0:0:
505,304,102084,6,0,B|426:285|432:347|334:320,1,160,2|8,0:0|0:0,0:0:0:0:
178,217,102653,2,0,P|125:220|88:262,1,80,2|0,0:0|1:0,0:0:0:0:
55,307,102938,1,0,1:0:0:0:
49,314,103033,1,10,0:0:0:0:
261,332,103223,2,0,L|284:392,1,40,8|8,0:0|0:0,0:0:0:0:
188,213,103413,2,0,L|202:175,1,40,8|0,3:0|1:0,0:0:0:0:
364,37,103603,6,0,P|304:29|259:89,1,120,6|8,1:2|0:0,0:0:0:0:
335,124,103982,1,8,0:0:0:0:
218,296,104172,2,0,P|158:304|113:244,1,120,2|0,1:2|0:0,0:0:0:0:
53,194,104552,2,0,P|23:236|25:279,1,80,2|0,1:2|0:0,0:0:0:0:
205,185,104932,6,0,B|233:148|225:97|182:73|182:73|140:90,2,160,10|10|10,0:0|0:0|1:2,0:0:0:0:
256,192,105786,12,0,106641,3:0:0:0:
99,48,107210,5,2,1:2:0:0:
88,52,107305,1,2,0:0:0:0:
78,55,107400,1,2,0:0:0:0:
205,151,107590,1,8,3:0:0:0:
282,208,107780,5,4,3:0:0:0:
146,288,107970,1,0,1:0:0:0:
70,358,108160,5,2,0:0:0:0:
66,365,108539,2,0,L|151:379,1,64,0|0,0:0|0:0,0:0:0:0:
267,323,108919,2,0,P|313:319|405:308,1,128,0|0,0:0|0:0,0:0:0:0:
469,329,109489,6,0,P|517:288|500:212,1,128,0|0,0:0|1:0,0:0:0:0:
394,135,110058,1,0,0:0:0:0:
472,42,110248,1,0,0:0:0:0:
398,130,110438,2,0,L|478:120,1,64,2|0,0:0|0:0,0:0:0:0:
306,3,110818,2,0,L|316:83,1,64,0|0,0:0|0:0,0:0:0:0:
248,135,111198,5,2,1:2:0:0:
159,207,111388,1,0,0:0:0:0:
126,286,111577,5,0,0:0:0:0:
214,377,111767,2,0,P|273:383|326:330,1,128,0|0,0:0|0:0,0:0:0:0:
465,149,112527,6,0,L|452:190,2,32,2|0|2,1:2|1:0|1:2,0:0:0:0:
376,181,112907,1,2,1:2:0:0:
302,80,113096,1,2,0:0:0:0:
180,192,113286,2,0,P|223:204|292:154,1,128,2|2,0:0|0:0,0:0:0:0:
167,33,113856,2,0,L|102:24,1,64,0|0,0:0|0:0,0:0:0:0:
173,189,114236,6,0,B|178:229|178:229|211:263|211:263|219:319,1,128,2|0,0:0|0:0,0:0:0:0:
99,376,114805,2,0,P|35:382|-2:325,1,128,2|0,0:0|0:0,0:0:0:0:
156,303,115375,2,0,L|234:297,1,64,0|0,0:0|0:0,0:0:0:0:
340,351,115755,6,0,B|415:340|399:377|470:366,1,128,2|0,0:0|0:0,0:0:0:0:
347,249,116324,2,0,B|340:207|340:207|320:155|320:155|309:104,1,128,2|0,0:0|0:0,0:0:0:0:
308,40,116799,1,0,3:0:0:0:
308,29,116894,1,0,3:0:0:0:
405,128,117084,1,0,3:0:0:0:
245,230,117274,6,0,P|186:223|89:218,1,128,2|0,0:0|0:0,0:0:0:0:
242,150,117843,1,2,0:0:0:0:
375,220,118033,2,0,P|428:229|483:180,2,128,0|0|2,0:0|0:0|1:2,0:0:0:0:
269,375,119172,6,0,B|266:352|266:352|259:326|259:326|255:289,1,64,0|0,0:0|0:0,0:0:0:0:
252,226,119457,1,0,3:0:0:0:
250,217,119552,1,2,3:0:0:0:
99,175,119742,1,2,3:0:0:0:
302,116,119932,2,0,B|237:113|247:151|162:147,1,128,0|4,1:0|1:2,0:0:0:0:
110,91,120501,5,0,0:0:0:0:
32,9,120691,2,0,P|3:40|4:88,1,75.9999979705811,0|0,0:0|1:0,0:0:0:0:
180,33,121071,2,0,B|217:30|217:30|268:11|268:11|345:2,1,151.999995941162,8|0,0:0|0:0,0:0:0:0:
453,114,121641,6,0,L|463:63,2,37.9999989852906,2|2|2,0:0|0:0|1:2,0:0:0:0:
350,129,122020,1,0,1:0:0:0:
481,239,122210,1,0,0:0:0:0:
308,292,122400,1,8,0:0:0:0:
403,207,122590,2,0,L|386:281,1,75.9999979705811,2|0,0:0|0:0,0:0:0:0:
227,364,122970,2,0,B|248:366|248:366|277:378|277:378|331:388,1,75.9999979705811,8|0,0:0|1:0,0:0:0:0:
165,207,123350,6,0,B|155:288|114:264|100:358,1,151.999995941162,2|2,1:2|0:0,0:0:0:0:
232,259,123919,1,0,1:2:0:0:
92,99,124109,2,0,P|160:86|216:162,1,151.999995941162,8|0,0:0|0:0,0:0:0:0:
85,191,124679,1,0,1:0:0:0:
223,151,124869,5,2,1:2:0:0:
314,249,125058,2,0,P|366:244|392:218,1,75.9999979705811,0|0,1:0|0:0,0:0:0:0:
484,79,125438,2,0,B|472:123|472:123|502:174|502:174|489:227,1,151.999995941162,2|0,0:0|0:0,0:0:0:0:
374,82,126008,2,0,P|352:77|270:49,1,75.9999979705811,8|0,0:0|3:0,0:0:0:0:
228,15,126293,1,0,3:0:0:0:
219,9,126388,1,2,1:2:0:0:
281,186,126767,5,2,0:0:0:0:
170,247,126957,1,2,1:2:0:0:
291,183,127147,2,0,B|313:203|342:215|342:215|368:265|339:305,1,151.999995941162,8|0,0:0|0:0,0:0:0:0:
206,372,127717,2,0,L|219:326,2,37.9999989852906,2|2|2,0:0|0:0|1:2,0:0:0:0:
23,251,128286,5,0,1:0:0:0:
125,206,128476,1,2,0:0:0:0:
56,77,128666,2,0,B|132:91|118:137|214:148,1,151.999995941162,8|0,0:0|0:0,0:0:0:0:
292,145,129236,1,0,0:0:0:0:
231,2,129426,6,0,P|312:8|346:73,1,151.999995941162,2|0,1:2|0:0,0:0:0:0:
472,230,129995,2,0,P|470:200|428:160,1,75.9999979705811,2|8,1:2|0:0,0:0:0:0:
404,285,130375,1,0,0:0:0:0:
417,76,130565,2,0,P|346:105|355:190,1,151.999995941162,2|0,1:2|3:0,0:0:0:0:
210,370,131324,5,0,1:0:0:0:
287,235,131514,1,0,1:0:0:0:
334,358,131704,5,8,0:0:0:0:
225,284,131894,1,8,3:0:0:0:
359,156,132083,5,8,0:0:0:0:
370,153,132178,1,8,0:0:0:0:
381,150,132273,1,0,1:0:0:0:
271,2,132463,6,0,L|251:169,2,160,6|2|8,1:2|1:2|0:0,0:0:0:0:
149,117,133413,2,0,B|140:156|140:156|144:220,1,80,2|0,1:2|0:0,0:0:0:0:
249,307,133793,6,0,B|160:286|185:338|69:308,1,160,2|0,1:2|0:0,0:0:0:0:
257,295,134362,1,0,1:0:0:0:
384,217,134552,2,0,L|401:159,2,40,0|0|10,1:0|1:0|0:0,0:0:0:0:
472,86,134932,2,0,P|473:95|489:184,1,80,0|2,1:0|0:0,0:0:0:0:
361,238,135311,1,0,0:0:0:0:
511,275,135501,6,0,P|447:285|434:375,2,160,2|2|8,1:2|1:2|0:0,0:0:0:0:
341,333,136451,2,0,L|239:359,1,80,2|0,1:2|0:0,0:0:0:0:
166,242,136830,6,0,B|152:280|152:280|153:340,1,80,2|0,1:2|0:0,0:0:0:0:
339,173,137210,2,0,B|339:131|339:131|326:96,1,80,2|0,1:2|0:0,0:0:0:0:
456,86,137590,1,0,1:0:0:0:
465,84,137685,1,0,1:0:0:0:
473,81,137780,5,8,0:0:0:0:
341,184,137969,1,0,1:0:0:0:
231,102,138159,5,10,0:0:0:0:
194,92,138254,1,2,1:2:0:0:
177,97,138349,1,2,0:0:0:0:
135,91,138444,1,2,0:0:0:0:
117,99,138539,6,0,P|115:90|99:8,1,80,6|0,1:2|0:0,0:0:0:0:
0,211,138919,1,0,1:0:0:0:
156,205,139109,2,0,B|77:183|85:236|-13:207,1,160
134,308,139679,2,0,P|138:320|161:394,1,80,0|0,1:0|0:0,0:0:0:0:
262,226,140058,6,0,B|237:133|289:164|247:59,1,160,0|2,1:2|1:2,0:0:0:0:
354,187,140628,2,0,L|420:207,2,40,2|2|2,0:0|0:0|1:2,0:0:0:0:
423,282,141007,1,0,0:0:0:0:
352,356,141197,1,2,1:2:0:0:
505,211,141387,1,2,0:0:0:0:
505,211,141482,1,2,0:0:0:0:
505,211,141577,6,0,P|507:238|516:322,1,80,2|0,1:2|0:0,0:0:0:0:
445,144,141957,1,0,1:0:0:0:
384,0,142147,2,0,L|355:180,1,160,0|2,0:0|0:0,0:0:0:0:
358,157,142621,1,2,0:0:0:0:
358,157,142716,1,0,1:0:0:0:
261,215,142906,1,0,0:0:0:0:
136,162,143096,5,0,1:0:0:0:
136,162,143476,2,0,P|133:177|110:259,1,80,2|2,1:2|0:0,0:0:0:0:
116,239,143761,1,2,0:0:0:0:
116,239,143856,1,2,1:2:0:0:
210,122,144045,1,8,3:0:0:0:
294,335,144235,1,2,1:2:0:0:
468,231,144425,1,8,0:0:0:0:
468,231,144520,1,8,0:0:0:0:
468,231,144615,6,0,B|425:235|425:235|380:225,1,80,6|8,1:2|0:0,0:0:0:0:
311,293,144900,1,8,0:0:0:0:
306,298,144995,2,0,L|239:307,1,40,8|0,0:0|0:0,0:0:0:0:
136,366,145185,5,2,1:2:0:0:
156,292,145564,5,2,1:2:0:0:
176,218,145944,6,0,P|174:205|153:52,1,160,0|0,1:0|1:0,0:0:0:0:
83,242,146514,1,4,3:0:0:0:
251,101,146704,2,0,P|263:98|360:70,1,80,6|0,1:2|0:0,0:0:0:0:
206,234,147083,1,0,1:2:0:0:
201,243,147178,1,0,1:2:0:0:
200,254,147273,1,8,0:0:0:0:
301,382,147463,6,0,B|287:286|333:330|293:208,1,160,4|0,1:2|1:0,0:0:0:0:
463,340,148033,5,10,1:2:0:0:
500,217,148223,1,0,0:0:0:0:
432,183,148413,5,8,0:0:0:0:
366,51,148602,1,0,1:0:0:0:
426,9,148792,5,8,0:0:0:0:
207,139,148982,2,0,B|301:104|283:164|372:136,1,160,2|0,1:2|1:0,0:0:0:0:
157,79,149552,5,0,1:0:0:0:
252,284,150312,6,0,L|227:338,1,40,2|2,0:0|0:0,0:0:0:0:
368,346,150501,2,0,L|394:399,1,40,2|2,0:0|0:0,0:0:0:0:
295,384,150691,5,6,1:2:0:0:
389,259,150881,1,0,0:0:0:0:
279,102,151071,1,8,0:0:0:0:
312,219,151261,2,0,L|324:159,2,44.0000013427735,0|0|0,1:0|1:0|1:0,0:0:0:0:
390,78,151640,5,0,1:0:0:0:
222,184,151830,1,8,0:0:0:0:
103,113,152020,2,0,P|137:110|307:101,1,176.000005371094,2|2,1:2|1:2,0:0:0:0:
160,237,152590,5,10,0:0:0:0:
248,362,152780,1,0,1:0:0:0:
248,362,152875,1,0,1:0:0:0:
248,362,152970,2,0,P|247:345|225:257,1,88.000002685547,2|0,1:2|1:0,0:0:0:0:
146,368,153349,5,10,0:0:0:0:
146,368,153444,1,0,1:0:0:0:
325,291,153634,1,8,0:0:0:0:
325,291,153729,2,0,B|421:267|402:343|513:310,1,176.000005371094,2|8,1:2|0:0,0:0:0:0:
311,198,154299,2,0,L|331:142,2,44.0000013427735,0|2|0,1:0|1:2|1:2,0:0:0:0:
271,90,154678,5,0,1:0:0:0:
402,209,154868,1,8,0:0:0:0:
266,333,155058,2,0,P|243:330|67:312,1,176.000005371094,2|2,1:2|1:2,0:0:0:0:
203,242,155628,5,10,0:0:0:0:
67,107,155818,1,2,0:0:0:0:
67,107,155913,1,2,0:0:0:0:
67,107,156007,1,2,1:2:0:0:
212,24,156198,2,0,L|197:74,2,44.0000013427735,2|8|10,1:2|0:0|0:0,0:0:0:0:
100,181,156577,2,0,L|115:231,1,44.0000013427735,2|2,0:0|0:0,0:0:0:0:
203,242,156767,6,0,B|110:223|125:293|18:270,1,176.000005371094,6|10,1:2|0:0,0:0:0:0:
217,146,157337,1,0,1:0:0:0:
217,146,157432,1,2,1:2:0:0:
217,146,157527,2,0,L|316:129,1,88.000002685547,0|0,1:0|1:0,0:0:0:0:
423,271,157906,1,8,0:0:0:0:
399,96,158096,6,0,P|402:131|423:274,1,176.000005371094,2|0,1:2|1:0,0:0:0:0:
512,384,158666,1,8,0:0:0:0:
428,279,158856,2,0,L|409:337,2,44.0000013427735,0|8|2,1:0|0:0|1:2,0:0:0:0:
512,304,159235,1,0,1:0:0:0:
358,384,159425,1,8,0:0:0:0:
358,384,159520,1,0,1:0:0:0:
220,299,159710,1,8,0:0:0:0:
220,299,159805,6,0,P|187:297|40:281,1,176.000005371094,2|8,1:2|0:0,0:0:0:0:
174,195,160375,1,0,1:2:0:0:
174,184,160470,1,2,1:2:0:0:
171,173,160565,1,2,1:2:0:0:
224,93,160754,1,0,1:0:0:0:
75,204,160944,1,8,0:0:0:0:
243,344,161134,6,0,B|150:323|168:385|57:361,1,176.000005371094,6|0,1:2|1:0,0:0:0:0:
189,251,161704,1,8,0:0:0:0:
365,371,161894,2,2,P|433:371|465:319,1,132.00000402832,6|0,1:2|0:0,0:0:0:0:
388,294,162273,1,2,1:2:0:0:
235,357,162463,5,8,0:0:0:0:
194,344,162558,1,8,0:0:0:0:
177,349,162653,1,0,1:0:0:0:
136,341,162748,1,0,1:0:0:0:
116,347,162843,5,6,1:2:0:0:
217,261,163033,1,0,0:0:0:0:
85,105,163223,5,8,0:0:0:0:
129,263,163413,2,0,B|137:222|137:222|126:169,1,88.000002685547,0|0,1:0|1:0,0:0:0:0:
36,267,163792,5,0,1:0:0:0:
195,133,163982,1,8,0:0:0:0:
339,288,164172,2,0,P|408:293|457:204,1,176.000005371094,2|0,1:2|1:0,0:0:0:0:
355,56,164742,6,0,P|353:73|340:163,1,88.000002685547,8|0,0:0|1:0,0:0:0:0:
425,14,165026,1,8,0:0:0:0:
425,14,165122,2,0,P|467:20|513:26,1,88.000002685547,8|0,0:0|1:0,0:0:0:0:
423,140,165501,1,10,0:0:0:0:
282,28,165691,1,0,1:0:0:0:
171,122,165881,6,0,B|86:95|92:162|0:137,1,176.000005371094,0|8,1:0|0:0,0:0:0:0:
111,39,166451,2,0,L|130:-4,2,44.0000013427735,0|2|0,1:0|1:2|1:2,0:0:0:0:
249,190,166830,2,0,B|255:151|255:151|250:102,1,88.000002685547,0|8,1:0|0:0,0:0:0:0:
66,300,167210,6,0,P|30:262|61:194,1,132.00000402832,6|0,1:2|0:0,0:0:0:0:
156,155,167590,2,0,L|138:253,1,88.000002685547,2|8,1:2|0:0,0:0:0:0:
288,376,167970,2,0,L|200:360,1,88.000002685547,6|0,1:2|1:0,0:0:0:0:
375,217,168349,1,2,1:2:0:0:
272,269,168539,1,8,0:0:0:0:
272,256,168634,1,8,0:0:0:0:
276,245,168729,1,0,1:0:0:0:
374,331,168919,5,2,1:2:0:0:
211,149,169109,2,0,P|224:148|313:138,1,88.000002685547,0|8,1:0|0:0,0:0:0:0:
458,14,169488,1,2,1:2:0:0:
458,14,169868,5,2,1:2:0:0:
380,180,170058,1,8,0:0:0:0:
388,136,170153,1,8,0:0:0:0:
381,123,170248,1,0,1:0:0:0:
386,86,170343,1,0,1:0:0:0:
380,66,170438,6,0,B|337:72|337:72|289:60,1,88.000002685547,2|0,1:2|1:0,0:0:0:0:
187,139,170818,1,8,0:0:0:0:
35,44,171007,1,2,1:2:0:0:
35,44,171387,5,2,1:2:0:0:
129,197,171577,1,8,0:0:0:0:
48,295,171767,2,0,P|48:277|61:114,1,176.000005371094,6|0,1:2|1:0,0:0:0:0:
261,6,172337,6,0,P|264:20|278:114,1,88.000002685547,12|0,0:0|1:0,0:0:0:0:
275,92,172621,1,0,1:0:0:0:
275,92,172716,1,2,1:2:0:0:
401,232,172906,1,2,1:2:0:0:
308,361,173096,1,8,0:0:0:0:
162,278,173286,6,0,B|260:238|245:310|332:274,1,176.000005371094,2|0,1:2|1:0,0:0:0:0:
213,191,173856,1,8,0:0:0:0:
42,278,174046,2,0,L|63:222,2,44.0000013427735,8|8|0,0:0|0:0|1:0,0:0:0:0:
162,278,174425,6,0,L|179:319,1,44.0000013427735,0|0,1:2|1:2,0:0:0:0:
25,371,174615,1,10,1:2:0:0:
170,125,174805,6,0,P|167:142|146:310,1,176.000005371094,6|0,1:2|1:0,0:0:0:0:
29,138,175375,2,0,B|24:93|24:93|34:47,1,88.000002685547,10|8,0:0|0:0,0:0:0:0:
41,58,175659,1,8,0:0:0:0:
41,58,175755,2,0,P|61:54|148:40,1,88.000002685547,0|0,1:2|1:2,0:0:0:0:
210,88,176039,1,0,1:2:0:0:
215,94,176134,2,0,L|287:110,1,44.0000013427735,8|0,0:0|0:0,0:0:0:0:
404,204,176324,5,10,1:2:0:0:
390,127,176704,5,10,1:2:0:0:
376,50,177083,5,10,1:2:0:0:
285,224,177463,5,10,1:2:0:0:
276,227,177558,1,0,1:0:0:0:
267,231,177653,2,0,L|254:299,1,44.0000013427735,2|2,1:2|0:0,0:0:0:0:
177,322,177843,6,0,P|121:333|77:277,1,136.000002593994,6|0,1:2|0:0,0:0:0:0:
9,149,178413,2,0,P|100:164|143:169,1,136.000002593994,0|0,3:0|3:0,0:0:0:0:
201,111,179172,1,0,3:0:0:0:
387,242,179457,5,0,0:0:0:0:
371,263,179552,2,0,B|301:289|344:332|259:359,1,136.000002593994,2|0,0:0|0:0,0:0:0:0:
181,262,180122,2,0,P|229:248|240:247,1,34.0000006484985,2|2,0:0|0:0,0:0:0:0:
424,168,180312,6,0,P|365:155|324:142,2,102.000001945496,2|2|2,0:0|0:0|0:0,0:0:0:0:
217,54,181071,6,0,P|248:6|341:22,1,136.000002593994,2|0,1:2|0:0,0:0:0:0:
240,173,181641,1,2,0:0:0:0:
231,187,181736,1,2,0:0:0:0:
224,202,181831,2,0,B|157:187|187:134|121:117,1,136.000002593994,2|0,0:0|0:0,0:0:0:0:
86,49,182400,1,2,0:0:0:0:
0,178,182590,6,0,P|20:237|28:266,1,68.0000012969971,2|2,1:2|0:0,0:0:0:0:
127,265,182970,2,0,P|107:324|99:353,1,68.0000012969971,2|2,0:0|0:0,0:0:0:0:
34,347,183350,2,0,B|122:344|76:383|170:385,1,136.000002593994,0|0,3:0|0:0,0:0:0:0:
160,384,183919,1,2,0:0:0:0:
306,243,184109,6,0,P|352:259|398:266,2,68.0000012969971,2|2|2,0:0|0:0|0:0,0:0:0:0:
484,318,184679,2,0,P|435:342|346:367,1,136.000002593994,2|2,0:0|0:0,0:0:0:0:
289,324,185248,1,2,0:0:0:0:
348,136,185438,6,0,B|431:154|382:192|465:214,1,136.000002593994,2|0,0:0|1:0,0:0:0:0:
508,158,186008,1,0,3:0:0:0:
508,158,186198,1,0,0:0:0:0:
348,17,186388,6,0,B|287:34|325:60|253:90,2,102.000001945496,2|2|2,0:0|0:0|3:2,0:0:0:0:
291,221,187147,6,0,P|227:195|180:182,2,102.000001945496,2|2|2,0:0|0:0|0:0,0:0:0:0:
115,87,187907,2,0,P|166:76|245:47,1,136.000002593994,2|2,0:0|1:2,0:0:0:0:
62,196,188476,5,2,0:0:0:0:
62,196,188571,1,2,0:0:0:0:
62,196,188666,2,0,P|77:250|83:287,1,68.0000012969971,2|2,0:0|0:0,0:0:0:0:
79,261,189046,1,2,0:0:0:0:
195,356,189236,6,0,P|230:324|220:241,1,136.000002593994,2|0,0:0|1:0,0:0:0:0:
301,189,189805,1,8,0:0:0:0:
301,189,189900,1,8,0:0:0:0:
301,189,189995,1,0,1:0:0:0:
480,335,190185,6,0,P|435:323|393:315,1,80,6|0,1:2|0:0,0:0:0:0:
402,316,190565,1,0,1:0:0:0:
315,205,190755,2,0,B|368:183|368:183|386:145|386:145|441:122,1,160,0|0,0:0|0:0,0:0:0:0:
512,164,191324,2,0,P|506:219|503:247,1,80,0|0,1:0|0:0,0:0:0:0:
360,69,191704,5,2,1:2:0:0:
380,51,192084,2,0,P|348:27|275:31,1,80,2|0,1:2|3:0,0:0:0:0:
247,97,192369,1,0,3:0:0:0:
267,117,192463,2,0,P|235:141|162:137,1,80,2|0,1:2|0:0,0:0:0:0:
300,290,192843,2,0,P|361:278|396:271,1,80,10|0,0:0|0:0,0:0:0:0:
431,189,193223,5,2,1:2:0:0:
431,189,193413,2,0,P|464:254|449:286,1,80,0|0,0:0|1:0,0:0:0:0:
342,363,193793,2,0,B|260:350|303:299|203:288,1,160,0|0,0:0|3:0,0:0:0:0:
192,310,194267,1,0,3:0:0:0:
192,310,194362,1,0,3:0:0:0:
131,365,194552,1,0,0:0:0:0:
0,275,194742,6,0,P|-14:230|67:153,1,160,2|2,1:2|1:2,0:0:0:0:
119,216,195312,1,0,3:0:0:0:
119,216,195407,1,0,3:0:0:0:
119,216,195501,2,0,P|169:200|212:193,1,80,2|8,1:2|3:0,0:0:0:0:
266,65,195881,2,0,P|226:56|189:43,1,80,4|8,3:0|0:0,0:0:0:0:
163,23,196166,1,8,0:0:0:0:
163,23,196261,5,6,1:2:0:0:
289,200,196451,1,8,0:0:0:0:
289,200,196546,1,8,0:0:0:0:
289,200,196641,1,8,0:0:0:0:
356,254,196831,6,0,B|417:270|388:312|464:338,1,132.00000402832,2|0,3:0|0:0,0:0:0:0:
224,304,197210,2,0,B|163:320|192:362|116:388,1,132.00000402832,2|0,3:0|0:0,0:0:0:0:
51,352,197590,1,2,1:2:0:0:
30,367,197970,5,2,1:2:0:0:
142,293,198160,1,8,3:0:0:0:
37,164,198350,6,0,P|73:107|174:135,1,176.000005371094,6|0,1:2|1:0,0:0:0:0:
156,149,198824,1,0,1:0:0:0:
156,149,198919,1,8,0:0:0:0:
322,273,199109,6,0,P|259:274|224:222,1,132.00000402832,6|0,1:2|0:0,0:0:0:0:
250,201,199489,1,2,1:2:0:0:
250,201,199584,1,2,0:0:0:0:
250,201,199679,1,10,0:0:0:0:
329,107,199869,5,0,1:0:0:0:
435,205,200058,2,0,P|416:262|412:316,1,88.000002685547,8|0,0:0|1:0,0:0:0:0:
512,171,200438,1,8,0:0:0:0:
333,273,200628,6,0,B|245:279|302:337|194:337,1,132.00000402832,0|0,1:0|0:0,0:0:0:0:
161,293,201008,1,0,1:0:0:0:
244,176,201198,5,10,0:0:0:0:
244,176,201577,1,2,0:0:0:0:
244,176,201957,2,0,B|332:182|275:240|383:240,1,132.00000402832,8|0,3:0|0:0,0:0:0:0:
413,317,202337,6,0,P|452:301|476:296,1,60.0000022888184,6|0,1:2|0:0,0:0:0:0:
469,297,202717,1,0,0:0:0:0:
512,187,202907,2,0,P|447:169|386:142,1,120.000004577637,0|0,0:0|0:0,0:0:0:0:
312,196,203476,2,0,P|327:227|337:262,1,60.0000022888184,2|0,0:0|0:0,0:0:0:0:
173,75,204236,6,0,B|111:92|149:141|90:157,2,120.000004577637,2|2|2,0:0|0:0|0:0,0:0:0:0:
252,221,205375,2,0,B|290:242|290:242|300:270|300:270|352:292,1,120.000004577637,2|0,0:0|0:0,0:0:0:0:
376,358,205945,1,0,0:0:0:0:
235,308,206134,5,2,0:0:0:0:
211,350,206324,1,2,0:0:0:0:
132,313,206514,1,2,0:0:0:0:
30,379,206704,2,0,P|-21:351|8:284,2,120.000004577637,2|2|2,0:0|0:0|0:0,0:0:0:0:
122,288,207653,6,0,P|114:238|114:214,1,60.0000022888184,0|0,0:0|0:0,0:0:0:0:
18,139,208033,2,0,P|15:168|9:198,1,60.0000022888184,2|0,3:0|0:0,0:0:0:0:
170,84,208413,6,0,B|219:62|219:62|320:108,1,151.999995941162,2|0,0:0|1:0,0:0:0:0:
348,178,208982,1,0,0:0:0:0:
459,136,209172,2,0,P|467:89|480:43,1,75.9999979705811,0|0,0:0|3:0,0:0:0:0:
495,50,209457,1,0,3:0:0:0:
495,50,209552,1,0,1:2:0:0:
414,2,209742,1,0,0:0:0:0:
282,134,209932,6,0,P|277:209|354:260,1,151.999995941162,2|0,0:0|1:0,0:0:0:0:
392,309,210501,1,0,0:0:0:0:
270,384,210691,2,0,P|232:362|201:354,1,75.9999979705811,2|0,0:0|3:0,0:0:0:0:
193,328,210976,1,0,3:0:0:0:
193,328,211071,1,0,1:0:0:0:
255,243,211261,1,0,0:0:0:0:
135,141,211451,6,0,P|93:158|56:163,2,75.9999979705811,2|0|0,0:0|0:0|1:0,0:0:0:0:
184,255,212020,2,0,B|271:250|227:308|320:311,1,151.999995941162,0|2,3:0|0:0,0:0:0:0:
317,310,212590,1,0,1:0:0:0:
480,133,212780,6,0,B|393:128|437:186|344:189,1,151.999995941162,6|8,1:2|3:0,0:0:0:0:
183,126,213350,6,0,P|205:76|261:83,1,113.999996955872,6|0,1:2|0:0,0:0:0:0:
194,234,213729,6,0,P|142:220|69:217,1,113.999996955872,6|0,1:2|0:0,0:0:0:0:
12,161,214109,6,0,P|25:126|26:109,1,44.0000013427735,8|8,0:0|0:0,0:0:0:0:
91,44,214299,2,0,P|95:65|104:85,1,44.0000013427735,8|8,0:0|0:0,0:0:0:0:
222,196,214489,6,0,P|261:163|320:181,1,100,6|0,1:2|0:0,0:0:0:0:
360,232,214869,1,8,0:0:0:0:
471,183,215058,5,0,1:0:0:0:
460,153,215153,1,8,0:0:0:0:
308,63,215343,5,0,1:0:0:0:
319,33,215438,1,8,0:0:0:0:
393,7,215628,1,8,0:0:0:0:
257,153,215818,6,0,B|177:145|221:89|127:85,1,150,2|0,1:2|0:0,0:0:0:0:
110,105,216198,1,2,1:2:0:0:
54,158,216388,5,10,0:0:0:0:
121,263,216577,1,0,1:0:0:0:
142,258,216672,1,0,1:0:0:0:
165,254,216767,1,2,1:2:0:0:
116,352,216957,2,0,P|63:333|20:325,1,100,0|10,1:0|0:0,0:0:0:0:
20,325,217337,1,0,0:0:0:0:
262,296,217527,6,0,P|284:244|186:156,1,200,2|8,1:2|0:0,0:0:0:0:
76,68,218096,1,0,1:0:0:0:
72,88,218191,1,2,1:2:0:0:
68,105,218286,1,0,1:2:0:0:
0,228,218476,2,0,P|55:210|98:201,1,100,0|8,1:0|0:0,0:0:0:0:
226,337,218856,6,0,P|274:347|372:383,1,150,2|0,1:2|0:0,0:0:0:0:
387,361,219236,1,2,1:2:0:0:
472,196,219426,2,0,P|402:219|362:227,1,100,10|2,0:0|0:0,0:0:0:0:
354,210,219710,1,2,0:0:0:0:
354,210,219805,1,2,1:2:0:0:
470,303,219995,5,2,1:2:0:0:
350,108,220185,1,10,0:0:0:0:
275,241,220375,1,2,0:0:0:0:
500,51,220565,6,0,B|414:65|463:112|357:123,1,150,6|0,1:2|0:0,0:0:0:0:
350,108,220945,1,10,0:0:0:0:
213,27,221134,1,0,1:0:0:0:
213,27,221229,1,2,1:2:0:0:
213,27,221324,2,0,P|290:6|326:-5,1,100,0|0,1:0|1:0,0:0:0:0:
309,0,221704,1,8,0:0:0:0:
192,188,221894,6,0,B|139:202|139:202|27:139,1,150,2|0,1:2|0:0,0:0:0:0:
60,129,222274,1,0,1:0:0:0:
80,49,222463,1,8,0:0:0:0:
184,214,222653,5,0,1:0:0:0:
175,250,222748,1,8,0:0:0:0:
60,291,222938,5,8,0:0:0:0:
69,327,223033,1,0,1:0:0:0:
134,372,223223,6,0,P|186:355|249:346,1,100,8|0,0:0|0:0,0:0:0:0:
303,172,223603,6,0,P|355:189|418:198,1,100,2|0,1:2|0:0,0:0:0:0:
437,269,223982,1,8,0:0:0:0:
365,384,224172,1,0,1:2:0:0:
365,384,224267,1,2,1:2:0:0:
365,384,224362,1,2,1:2:0:0:
301,305,224552,5,0,1:0:0:0:
489,383,224742,1,8,0:0:0:0:
512,128,224932,6,0,P|442:153|351:178,1,150,6|0,1:2|0:0,0:0:0:0:
349,158,225312,1,0,1:0:0:0:
246,25,225501,5,8,0:0:0:0:
246,25,225691,2,2,P|207:68|227:146,1,100,6|0,1:2|0:0,0:0:0:0:
354,266,226071,1,2,1:2:0:0:
354,266,226261,5,8,0:0:0:0:
355,241,226355,1,8,0:0:0:0:
348,217,226450,1,0,1:0:0:0:
333,197,226545,1,0,1:0:0:0:
312,183,226641,6,0,B|250:194|289:214|212:232,1,100,6|0,1:2|0:0,0:0:0:0:
186,298,227020,1,8,0:0:0:0:
51,223,227210,5,0,1:0:0:0:
71,214,227305,1,8,0:2:0:0:
194,132,227495,5,8,0:0:0:0:
174,123,227590,1,0,1:0:0:0:
127,56,227780,1,8,0:0:0:0:
51,223,227970,6,0,P|77:304|92:379,1,150,2|0,1:2|0:0,0:0:0:0:
117,373,228350,1,0,1:0:0:0:
197,264,228539,6,0,P|292:290|317:292,1,100,8|0,0:0|1:0,0:0:0:0:
313,273,228824,1,8,0:0:0:0:
313,273,228919,1,2,1:2:0:0:
355,371,229109,1,0,1:0:0:0:
473,356,229299,2,0,P|423:365|376:382,1,100,10|0,0:0|1:0,0:0:0:0:
286,157,229679,6,0,B|377:161|324:216|426:231,1,150,0|0,1:0|0:0,0:0:0:0:
430,211,230058,1,8,0:0:0:0:
471,148,230248,1,0,1:0:0:0:
471,148,230343,1,2,1:2:0:0:
471,148,230438,1,0,1:2:0:0:
398,37,230628,2,0,P|352:54|301:67,1,100,0|8,1:0|0:0,0:0:0:0:
232,237,231008,6,0,P|186:220|135:207,1,100,6|0,1:2|0:0,0:0:0:0:
103,138,231388,1,0,1:0:0:0:
103,138,231577,1,8,0:0:0:0:
309,244,231767,6,0,B|218:248|271:303|169:318,1,150,6|0,1:2|0:0,0:0:0:0:
164,348,232147,1,2,1:2:0:0:
72,381,232337,1,8,0:0:0:0:
57,373,232432,1,8,0:0:0:0:
37,365,232527,1,0,1:0:0:0:
88,215,232717,6,0,P|149:196|180:182,2,88.000002685547,2|0|8,1:2|1:0|0:0,0:0:0:0:
0,65,233286,2,0,P|40:81|143:111,1,132.00000402832,2|0,1:2|0:0,0:0:0:0:
146,93,233666,1,2,1:2:0:0:
240,5,233856,5,8,0:0:0:0:
240,5,233951,1,8,0:0:0:0:
240,5,234046,2,0,P|238:52|238:61,1,44.0000013427735,0|0,1:0|1:0,0:0:0:0:
330,222,234236,6,0,B|379:217|359:193|416:188,1,88.000002685547,2|0,1:2|1:0,0:0:0:0:
432,209,234520,1,0,1:0:0:0:
432,209,234615,1,8,0:0:0:0:
504,66,234805,2,0,P|478:12|375:39,1,176.000005371094,2|2,1:2|1:2,0:0:0:0:
411,98,235375,1,8,0:0:0:0:
492,279,235565,6,0,B|450:306|450:306|448:335|448:335|373:374,1,132.00000402832,6|0,1:2|0:0,0:0:0:0:
395,381,235945,1,0,1:0:0:0:
263,283,236134,2,0,B|232:263|232:263|230:245|230:245|186:220,1,88.000002685547,12|0,0:0|1:0,0:0:0:0:
185,238,236419,1,0,1:0:0:0:
185,238,236514,1,2,1:2:0:0:
102,359,236704,2,0,P|156:345|204:335,1,88.000002685547,2|8,1:2|0:0,0:0:0:0:
141,165,237084,6,0,P|98:155|-2:118,1,132.00000402832,2|0,1:2|0:0,0:0:0:0:
0,154,237463,1,0,1:0:0:0:
24,229,237653,1,8,0:0:0:0:
181,76,237843,5,8,0:0:0:0:
181,76,237938,1,8,0:0:0:0:
181,76,238033,1,0,1:0:0:0:
244,156,238223,2,0,L|231:210|231:210,1,44.0000013427735,0|0,1:2|1:2,0:0:0:0:
208,218,238413,1,10,1:2:0:0:
376,82,238603,6,0,B|420:100|420:100|432:132|432:132|482:151,1,132.00000402832,6|0,1:2|0:0,0:0:0:0:
490,174,238982,1,0,1:0:0:0:
506,250,239172,1,10,0:0:0:0:
413,349,239362,5,8,0:0:0:0:
395,337,239457,1,8,0:0:0:0:
376,317,239552,2,0,L|389:269,1,44.0000013427735,0|0,1:2|1:0,0:0:0:0:
271,341,239742,2,0,L|284:389,1,44.0000013427735,0|0,1:2|1:2,0:0:0:0:
203,299,239932,1,8,0:0:0:0:
216,281,240122,6,0,B|117:292|179:341|58:356,1,150,10|0,1:2|0:0,0:0:0:0:
0,202,240501,2,0,B|99:213|37:262|158:277,1,150,10|0,1:2|0:0,0:0:0:0:
229,186,240881,6,0,P|248:137|176:66,1,150,10|0,1:2|0:0,0:0:0:0:
133,118,241261,1,10,1:2:0:0:
133,118,241451,1,2,0:0:0:0:
217,264,241641,5,8,0:0:0:0:
223,277,241736,1,8,0:0:0:0:
228,290,241831,2,0,P|286:270|318:264,1,80,6|2,1:2|0:0,0:0:0:0:
337,193,242210,1,10,0:0:0:0:
472,355,242495,1,8,0:0:0:0:
448,367,242590,2,0,P|406:352|357:348,1,80,2|2,1:2|1:2,0:0:0:0:
371,347,242970,1,8,0:0:0:0:
512,257,243160,1,2,1:2:0:0:
401,108,243350,6,0,P|348:137|243:166,1,160,2|8,0:0|0:0,0:0:0:0:
104,322,243919,2,0,B|202:320|150:388|267:385,1,160,2|2,0:0|1:2,0:0:0:0:
347,290,244489,5,10,0:0:0:0:
345,267,244584,1,2,0:0:0:0:
320,230,244679,5,2,0:0:0:0:
319,208,244774,1,2,0:0:0:0:
334,189,244869,5,0,1:2:0:0:
334,189,245058,1,2,0:0:0:0:
193,56,245248,6,0,B|94:70|148:119|51:130,1,160,10|2,0:0|1:2,0:0:0:0:
0,315,245818,2,0,P|31:254|113:293,1,160,2|2,1:2|1:2,0:0:0:0:
286,363,246388,6,0,B|336:338|336:338|361:294|361:294|429:262,1,160,2|10,0:0|0:0,0:0:0:0:
512,195,246957,2,0,B|462:170|462:170|437:126|437:126|369:94,1,160,2|2,0:0|1:2,0:0:0:0:
363,32,247527,1,8,0:0:0:0:
363,32,247622,1,8,0:0:0:0:
363,32,247717,1,0,1:0:0:0:
246,219,247907,6,0,P|170:200|138:197,1,95.9999970703126,6|8,1:2|0:0,0:0:0:0:
130,165,248191,1,8,0:0:0:0:
130,165,248286,2,0,P|125:188|124:212,1,47.9999985351563,2|0,1:2|1:0,0:0:0:0:
42,38,248476,2,0,P|106:21|145:5,1,95.9999970703126,2|0,1:2|0:0,0:0:0:0:
133,10,248856,1,2,1:2:0:0:
309,155,249236,6,0,B|298:205|281:230|281:230|300:272|300:272|284:298|270:369,2,191.999994140625,10|10|14,1:2|1:2|1:2,0:0:0:0:
256,192,250090,12,0,257020,0:0:0:0:
