osu file format v14

[General]
AudioFilename: audio.mp3
AudioLeadIn: 0
PreviewTime: 163007
Countdown: 0
SampleSet: Soft
StackLeniency: 0.7
Mode: 0
LetterboxInBreaks: 0
WidescreenStoryboard: 0

[Editor]
Bookmarks: 8368,24003,39573,55204,70812,84472,100059,115698,131286,146907,162527,178133,191785
DistanceSpacing: 1.5
BeatDivisor: 6
GridSize: 8
TimelineZoom: 2.2

[Metadata]
Title:Haru no Tonari
TitleUnicode:はるのとなり
Artist:Sasaki Eri
ArtistUnicode:佐々木恵梨
Creator:GfMRT
Version:The End of the Journey Is a Little Lonely but Warm
Source:ゆるキャン△ SEASON2
Tags:laid-back yurukyan yurucamp yuru camp ed2 ending2 full anime japanese pop jpop folk coloured glazee coloured_glazee
BeatmapID:2889189
BeatmapSetID:1400388

[Difficulty]
HPDrainRate:5.3
CircleSize:4.5
OverallDifficulty:7.7
ApproachRate:8.7
SliderMultiplier:2.2
SliderTickRate:1

[Events]
//Background and Video events
0,0,"pid_80521798.jpg",0,0
//Break Periods
//Storyboard Layer 0 (Background)
//Storyboard Layer 1 (Fail)
//Storyboard Layer 2 (Pass)
//Storyboard Layer 3 (Foreground)
//Storyboard Layer 4 (Overlay)
//Storyboard Sound Samples

[TimingPoints]
416,487.80487804878,4,2,1,15,1,0
579,487.80487804878,4,2,1,15,1,0
1554,465.116279069767,4,2,1,15,1,0
2484,500,4,2,1,15,1,0
2817,476.190476190476,4,2,1,15,1,0
3134,-100,4,2,1,5,0,0
3293,-100,4,2,1,15,0,0
3610,-100,4,2,1,5,0,0
3769,599.400599400599,4,2,1,15,1,0
3868,-100,4,2,1,5,0,0
4368,371.517027863777,4,2,1,15,1,0
4492,472.44094488189,4,2,1,15,1,0
4964,472.44094488189,4,2,1,15,1,0
6381,518.358531317495,4,2,1,15,1,0
6381,-181.818181818181,4,2,1,15,0,0
6467,-181.818181818181,4,2,1,5,0,0
8368,-181.818181818181,4,2,1,20,0,0
8454,468.75,4,2,1,20,1,0
9391,487.80487804878,4,2,1,20,1,0
9878,465.116279069767,4,2,1,20,1,0
10343,512.820512820513,4,2,1,20,1,0
10684,498.13200498132,4,2,1,20,1,0
10684,-192.307692307692,4,2,1,20,0,0
12344,454.545454545455,4,2,1,20,1,0
12798,472.44094488189,4,2,1,20,1,0
13585,472.44094488189,4,2,1,20,1,0
13772,487.80487804878,4,2,1,20,1,0
13934,-100,4,2,1,5,0,0
14097,-100,4,2,1,20,0,0
14421,-100,4,2,1,5,0,0
14585,-222.222222222222,4,2,1,20,0,0
14666,-222.222222222222,4,2,1,5,0,0
16048,-222.222222222222,4,2,1,20,0,0
16211,470.588235294117,4,2,1,20,1,0
17152,480,4,2,1,20,1,0
17632,456.273764258555,4,2,1,20,1,0
18088,495.867768595041,4,2,1,20,1,0
18418,-200,4,2,1,20,0,0
20071,474.308300395257,4,2,1,20,1,0
21019,491.803278688525,4,2,1,20,1,0
21673,-100,4,2,1,5,0,0
21838,-100,4,2,1,20,0,0
22002,511.727078891258,4,2,1,20,1,0
22172,-100,4,2,1,5,0,0
22343,-181.818181818182,4,2,1,20,0,0
22428,-181.818181818182,4,2,1,5,0,0
23537,466.926070038911,4,2,1,20,1,0
23537,-500,4,2,1,20,0,0
24003,-100,4,2,1,30,0,0
24469,497.92531120332,4,2,1,30,1,0
24966,472.44094488189,4,2,1,30,1,0
25438,491.4,4,2,1,30,1,0
25929,470.588235294118,4,2,1,30,1,0
26399,498.960498960499,4,2,1,30,1,0
27396,444.444444444444,4,2,1,30,1,0
27895,481.927710843374,4,2,1,30,1,0
28858,487.804878048781,4,2,1,30,1,0
29345,493.827160493828,4,2,1,30,1,0
29838,489.795918367348,4,2,1,30,1,0
30490,-100,4,2,1,5,0,0
30654,-100,4,2,1,30,0,0
30817,482.575020308365,4,2,1,30,1,0
30817,-83.3333333333333,4,2,1,30,0,0
31138,510.63829787234,4,2,1,30,1,0
31308,-71.4285714285714,4,2,1,30,0,0
31648,476.190476190477,4,2,1,30,1,0
31806,-90.9090909090909,4,2,1,30,0,0
32282,481.927710843374,4,2,1,30,1,0
32763,-90.9090909090909,4,2,1,30,0,0
33245,508.474576271187,4,2,1,30,1,0
33753,504.201680672269,4,2,1,30,1,0
33753,-90.9090909090909,4,2,1,30,0,0
34257,428.571428571429,4,2,1,30,1,0
34542,581.113801452785,4,2,1,30,1,0
34542,-90.9090909090909,4,2,1,30,0,0
34638,-90.9090909090909,4,2,1,5,0,0
34735,444.444444444444,4,2,1,30,1,0
34735,-90.9090909090909,4,2,1,30,0,0
35032,476.190476190476,4,2,1,30,1,0
35508,572.792362768496,4,2,1,30,1,0
35698,480.000000000001,4,2,1,30,1,0
35698,-90.9090909090909,4,2,1,30,0,0
36498,579.710144927536,4,2,1,30,1,0
36691,473.372781065089,4,2,1,30,1,0
36691,-90.9090909090909,4,2,1,30,0,0
36848,-90.9090909090909,4,2,1,5,0,0
37006,-90.9090909090909,4,2,1,30,0,0
37164,491.803278688525,4,2,1,30,1,0
37164,-90.9090909090909,4,2,1,30,0,0
37327,-90.9090909090909,4,2,1,5,0,0
37491,-90.9090909090909,4,2,1,30,0,0
37655,461.538461538462,4,2,1,30,1,0
37655,-90.9090909090909,4,2,1,30,0,0
38116,437.956204379562,4,2,1,30,1,0
38116,-66.6666666666667,4,2,1,30,0,0
38261,-66.6666666666667,4,2,1,5,0,0
38407,544.21768707483,4,2,1,30,1,0
38407,-66.6666666666667,4,2,1,30,0,0
38497,-66.6666666666667,4,2,1,5,0,0
38588,422.535211267606,4,2,1,30,1,0
38588,-66.6666666666667,4,2,1,30,0,0
38869,586.79706601467,4,2,1,30,1,0
39064,459.770114942529,4,2,1,30,1,0
39064,-76.9230769230769,4,2,1,30,0,0
39370,610.687022900763,4,2,1,30,1,0
39573,488.798370672097,4,2,1,39,1,0
39573,-83.3333333333333,4,2,1,39,0,0
40061,461.538461538462,4,2,1,39,1,0
40061,-83.3333333333333,4,2,1,39,0,0
40214,-83.3333333333333,4,2,1,5,0,0
40368,645.161290322581,4,2,1,39,1,0
40583,487.80487804878,4,2,1,39,1,0
40583,-83.3333333333333,4,2,1,39,0,0
41232,-83.3333333333333,4,2,1,5,0,0
41396,512.820512820513,4,2,1,39,1,0
41566,487.804878048781,4,2,1,39,1,0
41566,-83.3333333333333,4,2,1,39,0,0
42053,441.176470588235,4,2,1,39,1,0
42053,-83.3333333333333,4,2,1,39,0,0
42200,-83.3333333333333,4,2,1,5,0,0
42347,582.52427184466,4,2,1,39,1,0
42541,472.44094488189,4,2,1,39,1,0
42541,-83.3333333333333,4,2,1,39,0,0
43013,488.798370672098,4,2,1,39,1,0
43501,-66.6666666666667,4,2,1,39,0,0
43990,-83.3333333333333,4,2,1,39,0,0
44152,-83.3333333333333,4,2,1,5,0,0
44316,-83.3333333333333,4,2,1,39,0,0
44479,465.116279069768,4,2,1,39,1,0
44479,-83.3333333333333,4,2,1,39,0,0
45254,550.45871559633,4,2,1,39,1,0
45437,487.80487804878,4,2,1,39,1,0
45437,-83.3333333333333,4,2,1,39,0,0
48038,-83.3333333333333,4,2,1,5,0,0
48201,-83.3333333333333,4,2,1,39,0,0
49014,-83.3333333333333,4,2,1,5,0,0
49176,-83.3333333333333,4,2,1,39,0,0
49338,493.827160493827,4,2,1,39,1,0
49339,-83.3333333333333,4,2,1,39,0,0
49831,456.273764258555,4,2,1,39,1,0
49831,-83.3333333333333,4,2,1,39,0,0
49983,-83.3333333333333,4,2,1,5,0,0
50136,547.945205479452,4,2,1,39,1,0
50318,487.80487804878,4,2,1,39,1,0
50318,-83.3333333333333,4,2,1,39,0,0
50806,495.867768595041,4,2,1,39,1,0
51136,508.474576271186,4,2,1,39,1,0
51305,480,4,2,1,39,1,0
51305,-66.6666666666667,4,2,1,39,0,0
51785,436.363636363636,4,2,1,39,1,0
51785,-66.6666666666667,4,2,1,39,0,0
51930,-66.6666666666667,4,2,1,5,0,0
52075,571.428571428571,4,2,1,39,1,0
52265,480,4,2,1,39,1,0
52265,-66.6666666666667,4,2,1,39,0,0
52745,566.037735849057,4,2,1,39,1,0
52745,-66.6666666666667,4,2,1,39,0,0
52933,-66.6666666666667,4,2,1,5,0,0
53122,434.782608695652,4,2,1,39,1,0
53266,462.42774566474,4,2,1,39,1,0
53266,-133.333333333333,4,2,1,39,0,0
53574,-133.333333333333,4,2,1,5,0,0
53728,491.803278688525,4,2,1,39,1,0
53728,-133.333333333333,4,2,1,39,0,0
54055,-133.333333333333,4,2,1,5,0,0
54219,-133.333333333333,4,2,1,39,0,0
54546,-133.333333333333,4,2,1,5,0,0
54711,-133.333333333333,4,2,1,39,0,0
55038,-133.333333333333,4,2,1,5,0,0
55203,-133.333333333333,4,2,2,48,0,0
55204,487.80487804878,4,2,2,48,1,0
55691,-76.9230769230769,4,2,2,48,0,0
56667,365.853658536585,4,2,2,48,1,0
56911,733.94495412844,4,2,2,48,1,0
56911,-76.9230769230769,4,2,2,48,0,0
57033,-76.9230769230769,4,2,2,5,0,0
57155,476.190476190476,4,2,2,48,1,0
57155,-76.9230769230769,4,2,2,48,0,0
57631,416.666666666667,4,2,2,48,1,0
57908,600,4,2,2,48,1,0
58107,504.201680672269,4,2,2,48,1,0
58108,-76.9230769230769,4,2,2,48,0,0
58276,-76.9230769230769,4,2,2,5,0,0
58443,-76.9230769230769,4,2,2,48,0,0
58779,-76.9230769230769,4,2,2,5,0,0
58947,465.116279069767,4,2,2,48,1,0
58947,-76.9230769230769,4,2,2,48,0,0
59024,-76.9230769230769,4,2,2,5,0,0
59102,-76.9230769230769,4,2,2,48,0,0
59722,-76.9230769230769,4,2,2,5,0,0
59877,606.060606060606,4,2,2,48,1,0
60079,497.92531120332,4,2,2,48,1,0
60079,-66.6666666666667,4,2,2,48,0,0
60576,487.80487804878,4,2,2,48,1,0
60576,-76.9230769230769,4,2,2,48,0,0
60738,-76.9230769230769,4,2,2,5,0,0
60901,400,4,2,2,48,1,0
60901,-76.9230769230769,4,2,2,48,0,0
60967,-76.9230769230769,4,2,2,5,0,0
61034,428.571428571429,4,2,2,48,1,0
61034,-76.9230769230769,4,2,2,48,0,0
61176,-76.9230769230769,4,2,2,5,0,0
61319,444.444444444444,4,2,2,48,1,0
61512,451.127819548872,4,2,2,48,1,0
61512,-76.9230769230769,4,2,2,48,0,0
61812,471.512770137525,4,2,2,48,1,0
61969,-76.9230769230769,4,2,2,48,0,0
62047,-76.9230769230769,4,2,2,5,0,0
62283,575.539568345324,4,2,2,48,1,0
62474,517.241379310345,4,2,2,48,1,0
62474,-76.9230769230769,4,2,2,48,0,0
62646,-76.9230769230769,4,2,2,5,0,0
62818,-76.9230769230769,4,2,2,48,0,0
62904,-76.9230769230769,4,2,2,5,0,0
62991,465.116279069768,4,2,2,48,1,0
62991,-76.9230769230769,4,2,2,48,0,0
63456,492.813141683778,4,2,2,48,1,0
63456,-76.9230769230769,4,2,2,48,0,0
63620,-76.9230769230769,4,2,2,5,0,0
63784,594.059405940594,4,2,2,48,1,0
63982,469.667318982387,4,2,2,48,1,0
63982,-76.9230769230769,4,2,2,48,0,0
64138,-76.9230769230769,4,2,2,5,0,0
64295,-76.9230769230769,4,2,2,48,0,0
64451,478.08764940239,4,2,2,48,1,0
64451,-76.9230769230769,4,2,2,48,0,0
64610,-76.9230769230769,4,2,2,5,0,0
64769,-76.9230769230769,4,2,2,48,0,0
64929,483.48106365834,4,2,2,48,1,0
64929,-76.9230769230769,4,2,2,48,0,0
65090,-76.9230769230769,4,2,2,5,0,0
65251,-76.9230769230769,4,2,2,48,0,0
65331,-76.9230769230769,4,2,2,5,0,0
65412,-76.9230769230769,4,2,2,48,0,0
65734,487.804878048781,4,2,2,48,1,0
65734,-76.9230769230769,4,2,2,48,0,0
66059,-76.9230769230769,4,2,2,5,0,0
66221,-76.9230769230769,4,2,2,48,0,0
66709,556.844547563805,4,2,2,48,1,0
66709,-76.9230769230769,4,2,2,48,0,0
66801,-76.9230769230769,4,2,2,5,0,0
66894,495.867768595041,4,2,2,48,1,0
66894,-76.9230769230769,4,2,2,48,0,0
67720,489.795918367346,4,2,2,48,1,0
67883,-76.9230769230769,4,2,2,48,0,0
68046,-76.9230769230769,4,2,2,5,0,0
68209,-76.9230769230769,4,2,2,48,0,0
68373,475.247524752475,4,2,2,48,1,0
68373,-76.9230769230769,4,2,2,48,0,0
68531,-76.9230769230769,4,2,2,5,0,0
68689,489.795918367346,4,2,2,48,1,0
68689,-76.9230769230769,4,2,2,48,0,0
68770,-76.9230769230769,4,2,2,5,0,0
68852,489.795918367346,4,2,2,48,1,0
68852,-76.9230769230769,4,2,2,48,0,0
69831,461.538461538462,4,2,2,48,1,0
69831,-76.9230769230769,4,2,2,48,0,0
69984,-76.9230769230769,4,2,2,5,0,0
70138,552.995391705069,4,2,2,48,1,0
70322,489.795918367346,4,2,2,48,1,0
70322,-153.846153846154,4,2,2,48,0,0
70811,-153.846153846154,4,2,2,46,0,0
70812,482.897384305834,4,2,2,46,1,0
71294,493.827160493826,4,2,2,46,1,0
71294,-76.9230769230769,4,2,2,46,0,0
71787,530.973451327434,4,2,2,46,1,0
72140,446.096654275093,4,2,2,46,1,0
72278,463.320463320463,4,2,2,46,1,0
72278,-76.9230769230769,4,2,2,46,0,0
72586,495.867768595041,4,2,2,46,1,0
72586,-76.9230769230769,4,2,2,46,0,0
72668,-76.9230769230769,4,2,2,5,0,0
72751,476.190476190476,4,2,2,46,1,0
72751,-76.9230769230769,4,2,2,46,0,0
73227,485.82995951417,4,2,2,46,1,0
73227,-76.9230769230769,4,2,2,46,0,0
73712,485.82995951417,4,2,2,46,1,0
73712,-76.9230769230769,4,2,2,46,0,0
74197,497.92531120332,4,2,2,46,1,0
74197,-76.9230769230769,4,2,2,46,0,0
74362,-76.9230769230769,4,2,2,5,0,0
74528,-76.9230769230769,4,2,2,46,0,0
74610,-76.9230769230769,4,2,2,5,0,0
74694,487.80487804878,4,2,2,46,1,0
74694,-76.9230769230769,4,2,2,46,0,0
75669,481.927710843373,4,2,2,46,1,0
76150,-76.9230769230769,4,2,2,46,0,0
76552,-76.9230769230769,4,2,2,5,0,0
76632,487.80487804878,4,2,2,46,1,0
76632,-76.9230769230769,4,2,2,46,0,0
77119,533.333333333332,4,2,2,46,1,0
77119,-76.9230769230769,4,2,2,46,0,0
77652,451.127819548872,4,2,2,46,1,0
77952,466.926070038911,4,2,2,46,1,0
78107,-76.9230769230769,4,2,2,46,0,0
78418,615.384615384615,4,2,2,46,1,0
78418,-76.9230769230769,4,2,2,46,0,0
78520,-76.9230769230769,4,2,2,5,0,0
78622,487.80487804878,4,2,2,46,1,0
78623,-76.9230769230769,4,2,2,46,0,0
80085,458.015267175573,4,2,2,46,1,0
80085,-76.9230769230769,4,2,2,46,0,0
80390,487.80487804878,4,2,2,46,1,0
80390,-76.9230769230769,4,2,2,46,0,0
80471,-76.9230769230769,4,2,2,5,0,0
80552,-76.9230769230769,4,2,2,46,0,0
82016,499.999999999999,4,2,2,46,1,0
82349,-76.9230769230769,4,2,2,46,0,0
82432,-76.9230769230769,4,2,2,5,0,0
82516,483.870967741935,4,2,2,46,1,0
82516,-76.9230769230769,4,2,2,46,0,0
82999,476.190476190476,4,2,2,46,1,0
82999,-76.9230769230769,4,2,2,46,0,0
83316,504.201680672269,4,2,2,46,1,0
83484,487.80487804878,4,2,2,46,1,0
83971,465.116279069767,4,2,2,46,1,0
83971,-76.9230769230769,4,2,2,46,0,0
84281,574.162679425837,4,2,2,46,1,0
84281,-76.9230769230769,4,2,2,46,0,0
84376,-76.9230769230769,4,2,2,5,0,0
84472,487.80487804878,4,2,1,27,1,0
84472,-327.05768766594,4,2,1,27,0,0
85447,468.75,4,2,2,5,1,0
86384,517.241379310345,4,2,2,5,1,0
86729,454.545454545455,4,2,2,5,1,0
87183,491.803278688525,4,2,2,15,1,0
87674,580.27079303675,4,2,2,15,1,0
87674,-500,4,2,2,15,0,0
88254,480,4,2,2,15,1,0
88334,-100,4,2,1,15,0,0
88414,470.957613814757,4,2,1,15,1,0
88414,-212.765957446809,4,2,1,15,0,0
88716,453.514739229025,4,2,1,15,1,0
88868,476.190476190476,4,2,2,5,1,0
89344,465.116279069767,4,2,2,5,1,0
89809,488.798370672098,4,2,2,5,1,0
90297,470.551329307505,4,2,2,15,1,0
90767,500,4,2,2,15,1,0
91080,487.80487804878,4,2,2,15,1,0
91567,508.474576271186,4,2,1,15,1,0
91567,-166.666666666667,4,2,1,15,0,0
92075,660.06600660066,4,2,1,15,1,0
92295,481.927710843374,4,2,1,15,1,0
92295,-282.888540031397,4,2,1,15,0,0
92776,483.870967741935,4,2,2,5,1,0
93259,468.75,4,2,2,5,1,0
94196,500,4,2,2,5,1,0
94529,469.667318982387,4,2,2,5,1,0
95468,588.235294117647,4,2,1,15,1,0
95468,-333.333333333333,4,2,1,15,0,0
96252,467.653936087295,4,2,1,15,1,0
96252,-250,4,2,1,15,0,0
96534,424.028268551237,4,2,2,5,1,0
96676,477.13717693837,4,2,2,5,1,0
98107,472.813238770686,4,2,2,5,1,0
99525,586.797066014669,4,2,2,5,1,0
100013,-100,4,2,1,15,0,0
100111,495.867768595042,4,2,1,20,1,0
100111,-90.9090909090909,4,2,1,20,0,0
101102,422.535211267606,4,2,1,20,1,0
101102,-90.9090909090909,4,2,1,20,0,0
101383,576.923076923077,4,2,1,20,1,0
101575,458.015267175573,4,2,1,20,1,0
101575,-90.9090909090909,4,2,1,20,0,0
102033,498.960498960501,4,2,1,20,1,0
102365,-111.111111111111,4,2,1,20,0,0
104028,468.750000000002,4,2,1,20,1,0
104028,-90.9090909090908,4,2,1,20,0,0
104965,500.000000000002,4,2,1,20,1,0
105465,-90.9090909090908,4,2,1,20,0,0
105631,-90.9090909090908,4,2,1,5,0,0
105798,-90.9090909090908,4,2,1,20,0,0
105965,488.798370672099,4,2,1,20,1,0
105965,-90.9090909090909,4,2,1,20,0,0
106127,-90.9090909090909,4,2,1,5,0,0
106290,-222.222222222222,4,2,1,20,0,0
107920,464.216634429402,4,2,1,20,1,0
107920,-90.9090909090908,4,2,1,20,0,0
108384,475.247524752477,4,2,1,20,1,0
108384,-90.9090909090909,4,2,1,20,0,0
108542,-90.9090909090909,4,2,1,5,0,0
108700,-90.9090909090909,4,2,1,20,0,0
108859,487.804878048782,4,2,1,20,1,0
108859,-90.9090909090908,4,2,1,20,0,0
109346,-90.9090909090909,4,2,1,20,0,0
109834,491.803278688526,4,2,1,20,1,0
110161,-200,4,2,1,20,0,0
111801,483.870967741936,4,2,1,20,1,0
111801,-90.9090909090909,4,2,1,20,0,0
112768,480,4,2,1,20,1,0
113088,455.407969639469,4,2,1,20,1,0
113088,-90.9090909090909,4,2,1,20,0,0
113543,566.037735849057,4,2,1,20,1,0
113731,512.820512820513,4,2,1,20,1,0
113731,-90.9090909090909,4,2,1,20,0,0
114072,-90.9090909090909,4,2,1,5,0,0
114243,487.804878048781,4,2,1,15,1,0
114243,-250,4,2,1,15,0,0
114568,-250,4,2,1,5,0,0
114730,-125,4,2,1,22,0,0
115056,-125,4,2,1,5,0,0
115218,480.000000000001,4,2,1,28,1,0
115218,-83.3333333333333,4,2,1,28,0,0
115538,-83.3333333333333,4,2,1,5,0,0
115698,487.804878048782,4,2,1,35,1,0
115698,-74.0740740740741,4,2,1,35,0,0
116347,-74.0740740740741,4,2,1,5,0,0
116511,-74.0740740740741,4,2,1,35,0,0
116673,474.308300395258,4,2,1,35,1,0
116673,-74.0740740740741,4,2,1,35,0,0
118095,494.845360824743,4,2,1,35,1,0
118095,-74.0740740740741,4,2,1,35,0,0
118259,-74.0740740740741,4,2,1,5,0,0
118424,-74.0740740740741,4,2,1,35,0,0
118753,-74.0740740740741,4,2,1,5,0,0
118919,-74.0740740740741,4,2,1,35,0,0
119248,-74.0740740740741,4,2,1,5,0,0
119414,474.308300395258,4,2,1,35,1,0
119414,-74.0740740740741,4,2,1,35,0,0
119493,-74.0740740740741,4,2,1,5,0,0
119572,513.918629550321,4,2,1,35,1,0
119572,-74.0740740740741,4,2,1,35,0,0
120085,415.023863872173,4,2,1,35,1,0
120085,-74.0740740740741,4,2,1,35,0,0
120223,-74.0740740740741,4,2,1,5,0,0
120362,592.592592592593,4,2,1,35,1,0
120559,487.80487804878,4,2,1,35,1,0
120559,-74.0740740740741,4,2,1,35,0,0
121208,-74.0740740740741,4,2,1,5,0,0
121372,-74.0740740740741,4,2,1,35,0,0
121534,499.999999999999,4,2,1,35,1,0
121534,-74.0740740740741,4,2,1,35,0,0
122034,472.440944881889,4,2,1,35,1,0
122034,-74.0740740740741,4,2,1,35,0,0
122191,-74.0740740740741,4,2,1,5,0,0
122348,-74.0740740740741,4,2,1,35,0,0
122506,508.474576271186,4,2,1,35,1,0
122844,552.995391705069,4,2,1,35,1,0
123028,458.015267175573,4,2,1,35,1,0
123028,-74.0740740740741,4,2,1,35,0,0
123180,-74.0740740740741,4,2,1,5,0,0
123333,458.015267175573,4,2,1,35,1,0
123485,-74.0740740740741,4,2,1,35,0,0
123791,571.428571428571,4,2,1,35,1,0
123981,461.538461538462,4,2,1,35,1,0
123981,-74.0740740740741,4,2,1,35,0,0
124134,-74.0740740740741,4,2,1,5,0,0
124288,558.139534883721,4,2,1,35,1,0
124474,480,4,2,1,35,1,0
124474,-74.0740740740741,4,2,1,35,0,0
124634,-74.0740740740741,4,2,1,5,0,0
124794,-74.0740740740741,4,2,1,35,0,0
125114,-74.0740740740741,4,2,1,5,0,0
125274,-74.0740740740741,4,2,1,35,0,0
125434,521.739130434783,4,2,1,35,1,0
125434,-74.0740740740741,4,2,1,35,0,0
125607,-74.0740740740741,4,2,1,5,0,0
125767,563.380281690141,4,2,1,35,1,0
125767,-74.0740740740741,4,2,1,35,0,0
125860,-74.0740740740741,4,2,1,5,0,0
125954,480,4,2,1,35,1,0
125954,-74.0740740740741,4,2,1,35,0,0
126434,491.803278688525,4,2,1,35,1,0
126434,-74.0740740740741,4,2,1,35,0,0
126925,476.190476190476,4,2,1,35,1,0
127242,524.017467248908,4,2,1,35,1,0
127416,470.588235294118,4,2,1,35,1,0
127416,-74.0740740740741,4,2,1,35,0,0
128357,504.201680672269,4,2,1,35,1,0
128357,-74.0740740740741,4,2,1,35,0,0
128525,-74.0740740740741,4,2,1,5,0,0
128693,-74.0740740740741,4,2,1,35,0,0
129029,-74.0740740740741,4,2,1,5,0,0
129197,-74.0740740740741,4,2,1,35,0,0
129281,-74.0740740740741,4,2,1,5,0,0
129365,471.512770137525,4,2,1,35,1,0
129365,-83.3333333333333,4,2,1,35,0,0
129836,447.761194029851,4,2,1,35,1,0
129836,-83.3333333333333,4,2,1,35,0,0
130134,571.428571428571,4,2,1,35,1,0
130324,468.75,4,2,1,35,1,0
130324,-72.6495726495726,4,2,1,35,0,0
130596,457.142857142857,4,2,1,35,1,0
130791,454.545454545455,4,2,1,35,1,0
130791,-200,4,2,1,35,0,0
130942,-200,4,2,1,5,0,0
131094,576.923076923077,4,2,1,35,1,0
131094,-66.6666666666667,4,2,1,35,0,0
131190,-66.6666666666667,4,2,1,5,0,0
131286,493.827160493827,4,2,2,49,1,0
131286,-66.6666666666667,4,2,2,49,0,0
131943,-66.6666666666667,4,2,2,5,0,0
132109,-66.6666666666667,4,2,2,49,0,0
132191,-66.6666666666667,4,2,2,5,0,0
132273,508.474576271186,4,2,2,49,1,0
132273,-66.6666666666667,4,2,2,49,0,0
132950,-66.6666666666667,4,2,2,5,0,0
133120,-66.6666666666667,4,2,2,49,0,0
133204,-66.6666666666667,4,2,2,5,0,0
133289,454.545454545455,4,2,2,49,1,0
133289,-66.6666666666667,4,2,2,49,0,0
133440,-66.6666666666667,4,2,2,5,0,0
133592,-66.6666666666667,4,2,2,49,0,0
133970,-66.6666666666667,4,2,2,5,0,0
134046,-66.6666666666667,4,2,2,49,0,0
134121,-66.6666666666667,4,2,2,5,0,0
134501,600,4,2,2,49,1,0
134701,552.995391705069,4,2,2,49,1,0
134701,-66.6666666666667,4,2,2,49,0,0
134885,-66.6666666666667,4,2,2,5,0,0
135069,491.803278688525,4,2,2,49,1,0
135069,-66.6666666666667,4,2,2,49,0,0
135150,-66.6666666666667,4,2,2,5,0,0
135232,440.366972477064,4,2,2,49,1,0
135232,-66.6666666666667,4,2,2,49,0,0
135672,480,4,2,2,49,1,0
135672,-66.6666666666667,4,2,2,49,0,0
135832,-66.6666666666667,4,2,2,5,0,0
135992,-66.6666666666667,4,2,2,49,0,0
136072,-66.6666666666667,4,2,2,5,0,0
136152,500,4,2,2,49,1,0
136152,-66.6666666666667,4,2,2,49,0,0
137068,-66.6666666666667,4,2,2,5,0,0
137152,476.190476190476,4,2,2,49,1,0
137707,-100,4,2,2,5,0,0
137945,-100,4,2,2,49,0,0
138262,-100,4,2,2,5,0,0
138421,588.235294117647,4,2,2,49,1,0
138617,483.870967741935,4,2,2,49,1,0
138617,-66.6666666666667,4,2,2,49,0,0
138778,-66.6666666666667,4,2,2,5,0,0
138939,-100,4,2,2,49,0,0
139019,-100,4,2,2,5,0,0
139100,-66.6666666666667,4,2,2,49,0,0
139745,-66.6666666666667,4,2,2,5,0,0
139907,-66.6666666666667,4,2,2,49,0,0
139987,-66.6666666666667,4,2,2,5,0,0
140067,495.867768595041,4,2,2,49,1,0
140068,-66.6666666666667,4,2,2,49,0,0
140727,-66.6666666666667,4,2,2,5,0,0
140893,-66.6666666666667,4,2,2,49,0,0
140975,-66.6666666666667,4,2,2,5,0,0
141058,485.82995951417,4,2,2,49,1,0
141058,-66.6666666666667,4,2,2,49,0,0
141623,-66.6666666666667,4,2,2,5,0,0
141867,-66.6666666666667,4,2,2,49,0,0
142515,500,4,2,2,49,1,0
142515,-66.6666666666667,4,2,2,49,0,0
142681,-66.6666666666667,4,2,2,5,0,0
142848,-66.6666666666667,4,2,2,49,0,0
142931,-66.6666666666667,4,2,2,5,0,0
143015,465.116279069767,4,2,2,49,1,0
143015,-66.6666666666667,4,2,2,49,0,0
143635,-66.6666666666667,4,2,2,5,0,0
143790,498.960498960499,4,2,2,49,1,0
143790,-66.6666666666667,4,2,2,49,0,0
143873,-66.6666666666667,4,2,2,5,0,0
143956,506.329113924051,4,2,2,49,1,0
143956,-66.6666666666667,4,2,2,49,0,0
144883,-66.6666666666667,4,2,2,5,0,0
144968,476.190476190477,4,2,2,49,1,0
144968,-66.6666666666667,4,2,2,49,0,0
145444,408.163265306122,4,2,2,49,1,0
145444,-66.6666666666667,4,2,2,49,0,0
145580,-66.6666666666667,4,2,2,5,0,0
145716,612.244897959184,4,2,2,49,1,0
145920,431.654676258993,4,2,2,49,1,0
145920,-66.6666666666667,4,2,2,49,0,0
146063,-66.6666666666667,4,2,2,5,0,0
146207,576.923076923077,4,2,2,49,1,0
146399,508.474576271186,4,2,2,49,1,0
146399,-66.6666666666667,4,2,2,49,0,0
146907,471.512770137525,4,2,1,30,1,0
147692,597.014925373134,4,2,1,30,1,0
147891,491.803278688524,4,2,1,30,1,0
148382,504.201680672269,4,2,1,30,1,0
148550,-100,4,2,1,5,0,0
148718,472.44094488189,4,2,1,30,1,0
148875,471.512770137525,4,2,1,30,1,0
149346,476.190476190476,4,2,1,30,1,0
149664,582.52427184466,4,2,1,30,1,0
149858,483.870967741935,4,2,1,30,1,0
150341,461.538461538462,4,2,1,30,1,0
150648,566.037735849057,4,2,1,30,1,0
150836,461.538461538462,4,2,1,30,1,0
151605,550.45871559633,4,2,1,30,1,0
151788,476.190476190476,4,2,1,30,1,0
152264,434.782608695652,4,2,1,30,1,0
152553,582.52427184466,4,2,1,30,1,0
152747,495.867768595041,4,2,1,30,1,0
153242,465.116279069767,4,2,1,30,1,0
153552,560.747663551402,4,2,1,30,1,0
153738,497.92531120332,4,2,1,30,1,0
154069,504.201680672269,4,2,1,30,1,0
154741,452.830188679245,4,2,1,30,1,0
155495,591.133004926108,4,2,1,30,1,0
155692,483.870967741935,4,2,1,30,1,0
155853,-100,4,2,1,5,0,0
156014,-100,4,2,1,30,0,0
156336,-100,4,2,1,5,0,0
156498,-100,4,2,1,30,0,0
157143,460.652591170825,4,2,1,30,1,0
157450,517.241379310345,4,2,1,30,1,0
157622,480,4,2,1,30,1,0
158102,502.092050209205,4,2,1,30,1,0
158436,547.945205479452,4,2,1,30,1,0
158618,461.538461538462,4,2,1,30,1,0
159387,571.428571428571,4,2,1,30,1,0
159577,488.798370672097,4,2,1,30,1,0
160391,555.555555555556,4,2,1,30,1,0
160576,487.80487804878,4,2,1,30,1,0
160576,-200,4,2,1,30,0,0
162527,479.999999999999,4,2,2,49,1,0
163007,-66.6666666666667,4,2,2,49,0,0
163487,487.80487804878,4,2,2,49,1,0
163487,-66.6666666666667,4,2,2,49,0,0
163974,428.571428571429,4,2,2,49,1,0
164259,610.687022900763,4,2,2,49,1,0
164259,-66.6666666666667,4,2,2,49,0,0
164360,-66.6666666666667,4,2,2,5,0,0
164462,487.80487804878,4,2,2,49,1,0
164462,-66.6666666666667,4,2,2,49,0,0
164950,430.10752688172,4,2,2,49,1,0
164950,-66.6666666666667,4,2,2,49,0,0
165236,550.45871559633,4,2,2,49,1,0
165419,454.545454545455,4,2,2,49,1,0
165419,-66.6666666666667,4,2,2,49,0,0
165570,-66.6666666666667,4,2,2,5,0,0
165722,603.015075376884,4,2,2,49,1,0
165923,539.568345323741,4,2,2,49,1,0
165923,-66.6666666666667,4,2,2,49,0,0
166102,-66.6666666666667,4,2,2,5,0,0
166282,468.75,4,2,2,49,1,0
166282,-66.6666666666667,4,2,2,49,0,0
166360,-66.6666666666667,4,2,2,5,0,0
166438,472.0692368214,4,2,2,49,1,0
166438,-66.6666666666667,4,2,2,49,0,0
167067,-66.6666666666667,4,2,2,5,0,0
167224,571.428571428571,4,2,2,49,1,0
167404,479.999999999999,4,2,2,49,1,0
167404,-66.6666666666667,4,2,2,49,0,0
168204,512.820512820513,4,2,2,49,1,0
168204,-66.6666666666667,4,2,2,49,0,0
168289,-66.6666666666667,4,2,2,5,0,0
168374,472.440944881888,4,2,2,49,1,0
168374,-66.6666666666667,4,2,2,49,0,0
168531,-66.6666666666667,4,2,2,5,0,0
168688,-66.6666666666667,4,2,2,49,0,0
168846,437.956204379562,4,2,2,49,1,0
168846,-66.6666666666667,4,2,2,49,0,0
169137,505.902192242833,4,2,2,49,1,0
169305,-66.6666666666667,4,2,2,49,0,0
169811,495.867768595039,4,2,2,49,1,0
169811,-66.6666666666667,4,2,2,49,0,0
169976,-66.6666666666667,4,2,2,5,0,0
170141,487.804878048781,4,2,2,49,1,0
170141,-66.6666666666667,4,2,2,49,0,0
170222,-66.6666666666667,4,2,2,5,0,0
170303,-66.6666666666667,4,2,2,49,0,0
170791,504.201680672269,4,2,2,49,1,0
170791,-66.6666666666667,4,2,2,49,0,0
170959,-66.6666666666667,4,2,2,5,0,0
171127,-66.6666666666667,4,2,2,49,0,0
171295,476.190476190476,4,2,2,49,1,0
171295,-66.6666666666667,4,2,2,49,0,0
171453,-66.6666666666667,4,2,2,5,0,0
171612,-66.6666666666667,4,2,2,49,0,0
171771,483.870967741935,4,2,2,49,1,0
171771,-66.6666666666667,4,2,2,49,0,0
171932,-66.6666666666667,4,2,2,5,0,0
172093,-66.6666666666667,4,2,2,49,0,0
172254,472.440944881889,4,2,2,49,1,0
172254,-66.6666666666667,4,2,2,49,0,0
172411,-66.6666666666667,4,2,2,5,0,0
172568,-66.6666666666667,4,2,2,49,0,0
172646,-66.6666666666667,4,2,2,5,0,0
172726,-66.6666666666667,4,2,2,49,0,0
173041,504.201680672269,4,2,2,49,1,0
173041,-66.6666666666667,4,2,2,49,0,0
173377,-66.6666666666667,4,2,2,5,0,0
173545,-66.6666666666667,4,2,2,49,0,0
174133,-66.6666666666667,4,2,2,5,0,0
174217,487.80487804878,4,2,2,49,1,0
174217,-66.6666666666667,4,2,2,49,0,0
175354,-66.6666666666667,4,2,2,5,0,0
175517,-66.6666666666667,4,2,2,49,0,0
175680,495.86776859504,4,2,2,49,1,0
175680,-66.6666666666667,4,2,2,49,0,0
175845,-66.6666666666667,4,2,2,5,0,0
176010,-66.6666666666667,4,2,2,49,0,0
176092,-66.6666666666667,4,2,2,5,0,0
176175,497.925311203319,4,2,2,49,1,0
176175,-66.6666666666667,4,2,2,49,0,0
176981,507.399577167019,4,2,2,49,1,0
177150,496.894409937888,4,2,2,49,1,0
177150,-66.6666666666667,4,2,2,49,0,0
177315,-66.6666666666667,4,2,2,5,0,0
177447,597.014925373134,4,2,2,49,1,0
177646,487.80487804878,4,2,2,49,1,0
177646,-133.333333333333,4,2,2,49,0,0
178601,503.14465408805,4,2,2,45,1,0
178601,-66.6666666666667,4,2,2,45,0,0
179104,487.80487804878,4,2,2,45,1,0
179591,-66.6666666666667,4,2,2,45,0,0
179998,-66.6666666666667,4,2,2,5,0,0
180079,451.127819548872,4,2,2,45,1,0
180079,-66.6666666666667,4,2,2,45,0,0
180379,566.037735849057,4,2,2,45,1,0
180567,487.80487804878,4,2,2,45,1,0
180567,-66.6666666666667,4,2,2,45,0,0
181704,-66.6666666666667,4,2,2,5,0,0
181867,-66.6666666666667,4,2,2,45,0,0
181948,-66.6666666666667,4,2,2,5,0,0
182030,477.707006369427,4,2,2,45,1,0
182030,-66.6666666666667,4,2,2,45,0,0
182507,501.043841336117,4,2,2,45,1,0
182507,-66.6666666666667,4,2,2,45,0,0
183342,459.770114942529,4,2,2,45,1,0
183495,-66.6666666666667,4,2,2,45,0,0
183877,-66.6666666666667,4,2,2,5,0,0
183955,476.190476190476,4,2,2,45,1,0
183955,-66.6666666666667,4,2,2,45,0,0
184431,542.005420054201,4,2,2,45,1,0
184431,-66.6666666666667,4,2,2,45,0,0
184792,441.176470588235,4,2,2,45,1,0
184939,424.028268551237,4,2,2,45,1,0
185221,598.503740648379,4,2,2,45,1,0
185420,506.329113924051,4,2,2,45,1,0
185420,-66.6666666666667,4,2,2,45,0,0
185757,521.739130434783,4,2,2,45,1,0
185757,-66.6666666666667,4,2,2,45,0,0
185843,-66.6666666666667,4,2,2,5,0,0
185930,473.372781065089,4,2,2,45,1,0
185930,-66.6666666666667,4,2,2,45,0,0
187192,560.747663551402,4,2,2,45,1,0
187378,413.793103448276,4,2,2,45,1,0
187378,-66.6666666666667,4,2,2,45,0,0
187653,628.272251308901,4,2,2,45,1,0
187653,-66.6666666666667,4,2,2,45,0,0
187757,-66.6666666666667,4,2,2,5,0,0
187862,487.80487804878,4,2,2,45,1,0
187862,-66.6666666666667,4,2,2,45,0,0
188675,549.199084668192,4,2,2,45,1,0
188858,476.190476190476,4,2,2,45,1,0
188858,-66.6666666666667,4,2,2,45,0,0
189651,566.037735849057,4,2,2,45,1,0
189651,-66.6666666666667,4,2,2,45,0,0
189745,-66.6666666666667,4,2,2,5,0,0
189839,465.116279069767,4,2,2,45,1,0
189839,-66.6666666666667,4,2,2,45,0,0
190614,566.037735849057,4,2,2,45,1,0
190802,483.870967741935,4,2,2,45,1,0
191285,447.761194029851,4,2,2,45,1,0
191285,-66.6666666666667,4,2,2,45,0,0
191583,606.060606060606,4,2,2,45,1,0
191583,-66.6666666666667,4,2,2,45,0,0
191684,-66.6666666666667,4,2,2,5,0,0
191785,487.80487804878,4,2,1,27,1,0
191785,-131.3514437041,4,2,1,27,0,0
192110,-131.3514437041,4,2,1,12,0,0
192760,473.9336492891,4,2,2,5,1,0
193707,502.092050209205,4,2,1,5,1,0
194042,469.116497263487,4,2,1,12,1,0
194042,-250,4,2,1,12,0,0
194511,487.80487804878,4,2,1,5,1,0
195000,597.014925373134,4,2,1,12,1,0
195597,805.369127516779,4,2,1,12,1,0
195731,471.327572663001,4,2,1,12,1,0
195731,-166.136162687887158,4,2,1,12,0,0
196029,456.273764258555,4,2,1,12,1,0
196181,476.190476190476,4,2,2,5,1,0
196657,465.116279069767,4,2,2,5,1,0
197122,488.798370672098,4,2,2,5,1,0
197610,470.588235294118,4,2,2,5,1,0
198080,500,4,2,2,12,1,0
198413,487.804878048781,4,2,1,12,1,0
198413,-333.333333333334,4,2,1,12,0,0
198900,-333.333333333334,4,2,1,5,0,0
199388,863.309352517986,4,2,1,5,1,0
199675,475.812846946868,4,2,1,12,1,0
199675,-248.555672268907,4,2,1,12,0,0
199985,465.116279069767,4,2,2,5,1,0
200140,476.190476190476,4,2,1,5,1,0
200616,491.803278688524,4,2,1,5,1,0
201107,461.538461538461,4,2,1,5,1,0
201568,500,4,2,1,5,1,0
201901,497.92531120332,4,2,1,12,1,0
201901,-500,4,2,1,12,0,0
202398,-500,4,2,1,5,0,0
202896,750,4,2,1,5,1,0
203396,625,4,2,1,5,1,0
203552,483.48106365834,4,2,1,12,1,0
203552,-333.333333333336,4,2,1,12,0,0
203857,458.015267175573,4,2,2,5,1,0
204010,497.92531120332,4,2,1,5,1,0
204508,478.000047800005,4,2,1,5,1,0
204986,497.92531120332,4,2,1,5,1,0
205484,482.897384305836,4,2,1,5,1,0
205966,513.918629550321,4,2,1,12,1,0
206308,463.320463320463,4,2,1,12,1,0
206771,604.229607250755,4,2,1,12,1,0
206771,-500.000000000005,4,2,1,12,0,0
207375,-500.000000000005,4,2,1,5,0,0
207576,487.80487804878,4,2,1,12,1,0
207576,-250.000000000001,4,2,1,12,0,0
207657,-250.000000000001,4,2,1,5,0,0

[Colours]
Combo1 : 255,123,213
Combo2 : 97,115,255
Combo3 : 182,181,131
Combo4 : 255,158,70
Combo5 : 255,96,96

[HitObjects]
459,171,416,5,8,2:0:0:0:
446,193,497,1,8,2:0:0:0:
439,218,579,2,0,P|415:176|312:165,1,146.666666666667,10|0,3:2|2:0,2:0:0:0:
353,259,1066,2,0,P|349:324|285:315,1,146.666666666667,8|0,2:0|2:0,2:0:0:0:
268,228,1554,2,0,P|191:179|114:162,1,146.666666666667,0|0,3:2|2:0,2:0:0:0:
31,122,2019,2,0,P|107:73|191:56,1,146.666666666667,8|0,2:0|2:0,2:0:0:0:
251,99,2484,5,8,3:2:0:0:
191,280,2817,2,0,P|191:209|137:164,1,146.666666666667,0|0,3:2|2:0,2:0:0:0:
39,134,3293,2,0,P|69:189|139:153,1,146.666666666667,0|0,3:2|2:0,2:0:0:0:
174,84,3769,2,0,B|114:70|149:-8|207:20|207:20|226:80|278:81,1,220,8|0,2:0|2:0,2:0:0:0:
332,68,4429,5,8,2:0:0:0:
354,55,4492,2,0,P|417:79|405:145,1,146.666666666667,10|0,3:2|2:0,2:0:0:0:
288,199,4964,2,0,P|265:261|326:285,1,146.666666666667,8|0,2:0|2:0,2:0:0:0:
418,292,5436,2,0,P|414:218|405:145,1,146.666666666667,0|0,3:2|2:0,2:0:0:0:
332,18,5908,2,0,B|313:75|314:108|314:108|306:92|276:70,1,146.666666666667,8|0,2:0|2:0,2:0:0:0:
209,159,6381,6,0,B|27:132|27:132|139:37|139:37|197:134,1,443.666680206299,4|0,3:2|2:0,2:0:0:0:
260,35,8368,5,8,2:0:0:0:
275,18,8454,2,0,B|259:91|291:162,1,146.666666666667,10|0,3:2|2:0,2:0:0:0:
351,224,8922,1,8,2:0:0:0:
491,304,9235,1,8,2:0:0:0:
472,228,9391,2,0,B|402:228|434:307|359:304,1,146.666666666667,0|0,3:2|2:0,2:0:0:0:
274,308,9878,2,0,B|290:358|246:398|280:390|247:355|193:372,1,146.666666666667,8|0,2:0|2:0,2:0:0:0:
229,233,10343,5,0,3:2:0:0:
269,165,10513,1,0,3:2:0:0:
272,84,10684,2,0,B|131:85|235:165|65:145,1,228.799998603516,12|0,2:0|2:0,2:0:0:0:
96,22,12261,5,8,2:0:0:0:
81,1,12344,2,0,B|85:90|65:146,1,146.666666666667,8|0,3:2|2:0,2:0:0:0:
72,315,12798,2,0,P|52:236|-17:257,1,146.666666666667,8|0,2:0|2:0,2:0:0:0:
162,309,13270,1,0,3:2:0:0:
179,295,13585,1,0,3:2:0:0:
260,291,13772,2,0,P|255:327|256:363,1,73.3333333333333,8|0,2:0|2:0,2:0:0:0:
320,227,14097,1,8,2:0:0:0:
368,368,14259,2,0,P|372:331|371:295,1,73.3333333333333,0|0,3:2|2:0,2:0:0:0:
280,152,14585,6,0,B|280:116|280:116|263:108|263:108|320:33|320:33|377:108|377:108|360:116|360:116|360:152,1,297,8|0,2:0|2:0,2:0:0:0:
388,276,16129,5,8,2:0:0:0:
406,295,16211,2,0,B|315:294|260:307,1,146.666666666667,10|0,3:2|2:0,2:0:0:0:
115,359,16681,1,8,2:0:0:0:
93,346,16995,1,8,2:0:0:0:
122,262,17152,2,0,B|193:265|262:308,1,146.666666666667,0|0,3:2|2:0,2:0:0:0:
361,209,17632,2,0,B|377:159|333:119|367:127|334:162|280:145,1,146.666666666667,8|0,2:0|2:0,2:0:0:0:
326,21,18088,5,0,3:2:0:0:
268,65,18253,1,0,3:2:0:0:
196,50,18418,2,0,P|155:182|283:136,1,330,12|0,2:0|2:0,2:0:0:0:
301,59,19988,5,8,2:0:0:0:
305,33,20071,2,0,P|371:55|402:-1,1,146.666666666667,8|0,3:2|2:0,2:0:0:0:
501,208,20545,2,0,P|481:129|412:150,1,146.666666666667,8|0,2:0|2:0,2:0:0:0:
417,275,21019,1,0,3:2:0:0:
270,177,21346,2,0,P|265:244|198:253,1,146.666666666667,0|0,3:2|2:0,2:0:0:0:
66,162,21838,1,0,2:0:0:0:
151,92,22002,2,0,P|156:128|153:165,1,73.3333333333333,0|0,3:2|2:0,2:0:0:0:
22,241,22343,6,0,B|23:278|6:286|63:361|63:361|120:286|103:278|103:242,1,262.166666666666,8|0,2:0|2:0,2:0:0:0:
103,242,23537,2,0,L|137:246,1,29.3333333333333,8|0,2:0|2:0,2:0:0:0:
308,333,24003,6,0,B|292:351|261:347|241:327|242:298|242:298|252:232,1,146.666666666667,2|0,3:2|2:0,2:0:0:0:
269,139,24469,1,8,2:0:0:0:
289,138,24800,1,8,2:0:0:0:
324,248,24966,2,0,B|282:252|273:220|253:198|219:209|212:244|235:267|248:247,1,146.666666666667,0|0,3:2|2:0,2:0:0:0:
411,246,25438,1,8,2:0:0:0:
308,333,25765,1,8,2:0:0:0:
414,368,25929,6,0,P|398:291|366:215,1,146.666666666667,0|0,3:2|2:0,2:0:0:0:
436,99,26399,2,0,P|381:147|335:204,1,146.666666666667,8|0,2:0|2:0,2:0:0:0:
187,213,26897,2,0,P|257:237|329:248,1,146.666666666667,0|0,3:2|2:0,2:0:0:0:
280,148,27396,1,8,2:0:0:0:
123,130,27692,1,8,2:0:0:0:
78,40,27895,6,0,B|181:23|181:23|166:62,1,146.666666666667,2|0,3:2|2:0,2:0:0:0:
37,142,28376,1,8,2:0:0:0:
210,118,28698,1,8,2:0:0:0:
245,179,28858,2,0,B|165:214|197:293|269:276,1,146.666666666667,0|0,3:2|2:0,2:0:0:0:
345,285,29345,1,8,2:0:0:0:
444,89,29674,1,8,2:0:0:0:
344,43,29838,6,0,P|356:128|380:191,1,146.666666666667,0|0,3:2|2:0,2:0:0:0:
302,344,30327,2,0,P|354:276|365:268,1,73.3333333333333,8|0,2:0|2:0,2:0:0:0:
428,258,30654,1,8,2:0:0:0:
479,164,30817,6,0,P|474:120|461:78,2,88,8|8|0,3:2|2:0|3:2,2:0:0:0:
512,245,31308,2,0,B|393:267|429:170|304:197,1,205.333333333333,8|0,2:0|2:0,2:0:0:0:
191,242,31806,6,0,P|153:265|136:165,1,161.333333333333,2|0,3:2|2:0,2:0:0:0:
272,372,32282,1,8,2:0:0:0:
66,377,32603,1,8,2:0:0:0:
170,332,32763,2,0,P|145:255|101:177,1,161.333333333333,0|0,3:2|2:0,2:0:0:0:
12,298,33245,1,8,2:0:0:0:
22,137,33583,1,8,2:0:0:0:
102,264,33753,6,0,B|165:239|216:257|216:257|232:279|232:279|253:279|287:268,1,161.333333333333,0|0,3:2|2:0,2:0:0:0:
319,209,34257,1,8,2:0:0:0:
452,355,34542,2,0,L|402:366,1,40.3333333333333,0|0,2:0|2:0,2:0:0:0:
401,367,34735,2,0,P|347:316|316:374,1,161.333333333333,0|0,3:2|2:0,2:0:0:0:
315,373,35190,5,8,2:0:0:0:
244,364,35349,1,0,2:0:0:0:
209,287,35508,1,8,2:0:0:0:
113,265,35698,6,0,B|95:214|95:214|223:192,1,161.333333333333,2|0,3:2|2:0,2:0:0:0:
349,257,36178,1,8,2:0:0:0:
314,166,36338,1,0,2:0:0:0:
233,167,36498,1,8,2:0:0:0:
200,195,36691,6,0,P|155:222|101:207,1,80.6666666666667,2|0,3:2|2:0,2:0:0:0:
13,108,37006,1,0,3:2:0:0:
0,183,37164,2,0,L|8:288,1,80.6666666666667,8|0,2:0|2:0,2:0:0:0:
142,75,37491,1,8,2:0:0:0:
139,105,37655,6,0,B|121:108|105:123|105:123|124:127|143:117|143:117|165:116|183:123|183:123|261:121,1,161.333333333333,6|0,3:2|2:0,2:0:0:0:
421,201,38116,2,0,P|424:125|423:87,1,110,0|0,2:0|2:0,2:0:0:0:
381,17,38407,2,0,L|325:19,1,55,8|0,2:0|2:0,2:0:0:0:
310,21,38588,6,0,L|324:288,1,220.000008392334,4|0,3:2|2:0,2:0:0:0:
327,366,39064,2,0,P|234:373|206:287,1,190.66665793864,8|0,2:0|2:0,2:0:0:0:
119,357,39573,6,0,B|236:395|208:299|295:313,1,176,2|0,3:2|2:0,2:0:0:0:
390,326,40061,2,0,B|411:338|430:329|430:329|419:310|391:309,1,88,8|0,2:0|2:0,2:0:0:0:
285,384,40368,1,8,2:0:0:0:
207,297,40583,2,0,L|223:121,1,176,0|0,3:2|2:0,2:0:0:0:
365,207,41070,2,0,L|354:95,1,88,8|0,2:0|2:0,2:0:0:0:
311,43,41396,1,8,2:0:0:0:
223,121,41566,6,0,B|121:146|139:35|53:59,1,175.999994628906,0|0,3:2|2:0,2:0:0:0:
223,34,42053,2,0,P|231:77|222:120,1,88,8|0,2:0|2:0,2:0:0:0:
71,55,42347,1,8,2:0:0:0:
50,157,42541,2,0,L|250:114,1,176,0|0,3:2|2:0,2:0:0:0:
363,69,43013,5,8,2:0:0:0:
343,52,43175,1,0,2:0:0:0:
341,140,43338,1,8,2:0:0:0:
339,228,43501,6,0,B|347:287|345:319|315:351|297:345|275:313|290:279|348:301|379:324,1,220,2|0,3:2|2:0,2:0:0:0:
508,384,43990,2,0,P|513:350|505:256,1,88,8|0,2:0|2:0,2:0:0:0:
460,193,44316,1,8,2:0:0:0:
378,323,44479,2,0,B|343:334|303:334|303:334|285:326|285:326|234:353|175:354|173:293|208:279|230:282|243:318,1,264,0|8,3:2|2:0,2:0:0:0:
136,175,45254,1,8,2:0:0:0:
244,131,45437,6,0,L|238:311,1,176,0|0,3:2|2:0,2:0:0:0:
380,325,45924,2,0,P|412:256|320:250,1,176,8|0,2:0|2:0,2:0:0:0:
238,306,46412,5,0,3:2:0:0:
137,281,46575,1,0,3:2:0:0:
109,209,46737,1,0,2:0:0:0:
136,175,46900,2,0,P|106:130|80:210,1,176,8|0,2:0|2:0,2:0:0:0:
292,234,47388,6,0,B|222:221|250:317|136:280,1,176,2|0,3:2|2:0,2:0:0:0:
315,323,47876,2,0,P|327:346|344:308,1,88,8|0,2:0|2:0,2:0:0:0:
332,153,48201,1,8,2:0:0:0:
414,107,48363,6,0,B|463:101|463:101|427:170|427:170|501:161,1,176,0|0,3:2|3:2,2:0:0:0:
279,12,48851,2,0,B|328:6|328:6|292:75|292:75|340:69,1,176,8|8,2:0|2:0,2:0:0:0:
205,129,49339,6,0,P|121:146|153:92,1,176,0|0,3:2|2:0,2:0:0:0:
142,16,49831,2,0,P|145:66|125:114,1,88,8|0,2:0|2:0,2:0:0:0:
41,47,50136,1,8,2:0:0:0:
32,165,50318,2,0,L|232:122,1,176,0|0,3:2|2:0,2:0:0:0:
328,255,50805,1,8,2:0:0:0:
351,170,50971,1,0,2:0:0:0:
289,108,51136,1,8,2:0:0:0:
156,214,51305,6,0,P|111:133|204:128,1,220,2|0,3:2|2:0,2:0:0:0:
235,383,51785,2,0,P|243:329|242:274,1,110,8|0,2:0|2:0,2:0:0:0:
181,213,52075,1,8,2:0:0:0:
54,288,52265,2,0,B|95:309|137:287|137:287|174:313|174:313|217:281|269:298,1,220,0|0,3:2|2:0,2:0:0:0:
386,301,52745,2,0,P|378:246|378:191,1,110,8|0,2:0|2:0,2:0:0:0:
330,87,53122,1,8,2:0:0:0:
274,185,53266,6,0,P|326:173|380:193,1,110,6|0,3:2|2:0,2:0:0:0:
482,197,53728,2,0,P|432:179|379:190,1,110,4|0,2:0|2:0,2:0:0:0:
170,178,54219,2,0,B|222:199|222:199|274:184,1,110.000004196167,4|0,3:2|2:0,2:0:0:0:
377,190,54711,2,0,B|325:169|325:169|273:184,1,110.000004196167,4|0,2:0|2:0,2:0:0:0:
316,371,55203,5,6,2:0:0:0:
228,109,55691,2,0,P|219:165|302:275,1,190.666666666667,8|0,3:2|2:0,2:0:0:0:
456,285,56179,2,0,B|282:243|356:373|186:317,1,286,2|8,3:2|2:0,2:0:0:0:
113,217,56911,2,0,L|106:170,1,47.6666666666667,0|0,3:2|2:0,2:0:0:0:
18,202,57155,6,0,P|55:275|113:217,1,190.666666666667,2|0,3:2|2:0,2:0:0:0:
131,83,57631,1,8,2:0:0:0:
241,220,57908,1,8,2:0:0:0:
247,192,58108,2,0,P|264:147|294:110,1,95.3333333333334,2|0,3:2|2:0,2:0:0:0:
316,304,58443,1,0,3:2:0:0:
202,324,58611,2,0,P|250:325|296:312,1,95.3333333333334,8|0,3:2|2:0,2:0:0:0:
433,210,58947,2,0,L|438:163,1,47.6666666666667,8|0,3:2|2:0,2:0:0:0:
431,224,59102,6,0,L|210:219,1,190.666666666667,6|0,2:0|2:0,2:0:0:0:
91,101,59567,2,0,P|121:137|136:182,1,95.3333333333334,8|0,2:0|2:0,2:0:0:0:
49,183,59877,1,8,3:2:0:0:
200,113,60079,6,0,B|275:103|293:72|329:64|362:103|364:146|338:170|308:171,1,220.000008392334,2|0,3:2|2:0,2:0:0:0:
219,26,60576,2,0,P|237:149|237:160,1,95.3333333333334,8|0,2:0|2:0,2:0:0:0:
240,219,60901,2,0,B|241:268|215:301,1,47.6666666666667,0|0,3:2|2:0,2:0:0:0:
193,301,61034,6,0,P|223:239|251:207,1,95.3333333333334,2|0,3:2|2:0,2:0:0:0:
317,180,61319,1,0,2:0:0:0:
408,244,61512,2,0,P|318:266|239:218,1,190.66665793864,8|8,2:0|2:0,2:0:0:0:
116,163,61969,2,0,P|118:131|122:107,1,47.6666666666667,2|0,2:0|2:0,2:0:0:0:
67,344,62283,1,0,3:2:0:0:
167,358,62474,2,0,P|155:303|134:252,1,95.3333333333334,8|0,3:2|2:0,2:0:0:0:
373,215,62818,2,0,L|364:289,1,47.6666666666667,0|0,3:2|2:0,2:0:0:0:
365,277,62991,6,0,B|290:291|290:291|255:292|231:267|222:224|272:194,1,190.666666666667,6|0,2:0|2:0,2:0:0:0:
410,109,63456,2,0,P|434:44|427:-6,1,95.3333333333334,8|0,3:2|2:0,2:0:0:0:
306,49,63784,1,8,3:2:0:0:
238,116,63982,2,0,P|303:140|353:133,1,95.3333333333334,2|0,3:2|2:0,2:0:0:0:
162,42,64295,1,0,3:2:0:0:
116,31,64451,2,0,P|128:86|149:137,1,95.3333333333334,8|0,3:2|2:0,2:0:0:0:
104,310,64769,1,8,3:2:0:0:
81,219,64929,6,0,P|129:222|172:243,1,95.3333333333334,2|0,3:2|2:0,2:0:0:0:
306,378,65251,2,0,P|323:361|332:340,1,47.6666666666667,0|0,3:2|2:0,2:0:0:0:
335,324,65412,2,0,P|263:318|205:332,1,95.3333333333334,8|0,2:0|2:0,2:0:0:0:
443,384,65734,6,0,L|435:164,1,190.666666666667,6|0,3:2|2:0,2:0:0:0:
411,80,66221,1,8,3:2:0:0:
431,77,66384,2,0,B|433:50|413:35|413:35|400:55|412:81,1,95.3333333333334,8|0,2:0|2:0,2:0:0:0:
512,56,66709,2,0,P|506:24|496:3,1,47.6666644846599,8|0,3:2|2:0,2:0:0:0:
490,0,66894,6,0,P|412:56|318:50,1,190.666666666667,6|0,3:2|2:0,2:0:0:0:
235,7,67389,1,8,3:2:0:0:
69,34,67720,1,8,2:0:0:0:
2,101,67883,2,0,P|67:125|117:118,1,95.3333333333334,2|0,3:2|2:0,2:0:0:0:
206,105,68209,1,0,3:2:0:0:
233,98,68373,2,0,P|227:181|227:213,1,95.3333333333334,8|0,2:0|2:0,2:0:0:0:
259,291,68689,2,0,P|266:329|272:356,1,47.6666666666667,8|0,3:2|2:0,2:0:0:0:
272,352,68852,6,0,P|177:331|73:345,1,190.666666666667,6|0,2:0|2:0,2:0:0:0:
0,384,69341,1,8,2:0:0:0:
42,139,69668,1,8,2:0:0:0:
71,249,69831,2,0,P|69:195|51:153,1,95.3333333333334,2|0,2:0|2:0,2:0:0:0:
190,118,70138,1,0,2:0:0:0:
180,201,70322,6,0,P|196:163|226:194,1,95.3333333333332,8|0,2:0|2:0,2:0:0:0:
216,383,70811,5,6,2:0:0:0:
416,324,71294,2,0,P|308:289|211:283,1,190.666666666667,8|0,3:2|2:0,2:0:0:0:
135,267,71787,1,2,3:2:0:0:
294,93,72140,1,0,3:2:0:0:
331,200,72278,2,0,P|327:152|309:108,1,95.3333333333334,8|0,2:0|2:0,2:0:0:0:
191,33,72586,6,0,B|224:40|224:40|208:48,1,47.6666666666667,8|0,3:2|2:0,2:0:0:0:
161,102,72751,2,0,B|168:131|168:131|240:119|276:183|231:234|169:211,1,190.666666666667,2|0,2:0|2:0,2:0:0:0:
6,177,73227,6,0,P|31:102|84:160,1,190.66665793864,8|0,1:2|2:0,2:0:0:0:
49,345,73712,2,0,P|83:256|85:162,1,190.666666666667,2|0,1:2|2:0,2:0:0:0:
201,272,74197,2,0,P|154:271|107:255,1,95.3333333333334,8|0,1:2|2:0,2:0:0:0:
207,185,74528,2,0,P|230:185|253:193,1,47.6666666666667,8|0,1:2|2:0,2:0:0:0:
264,202,74694,6,0,P|229:290|228:385,1,190.666666666667,6|0,2:0|2:0,2:0:0:0:
381,346,75181,2,0,B|386:372|386:372|442:341|475:341|475:341|440:315|430:267,1,190.666666666667,8|0,3:2|2:0,2:0:0:0:
459,97,75669,1,2,3:2:0:0:
331,239,75990,1,0,3:2:0:0:
298,130,76150,2,0,P|322:171|334:217,1,95.3333333333334,8|0,2:0|2:0,2:0:0:0:
187,72,76472,6,0,B|220:79|220:79|204:87,1,47.6666666666667,8|0,3:2|2:0,2:0:0:0:
157,141,76632,2,0,B|164:170|164:170|236:158|272:222|227:273|165:250,1,190.666666666667,2|0,1:2|2:0,2:0:0:0:
161,343,77119,2,0,P|244:311|191:254,1,190.666666666667,8|0,1:2|2:0,2:0:0:0:
28,363,77652,5,10,1:2:0:0:
50,173,77952,1,0,3:2:0:0:
71,258,78107,2,0,P|32:234|32:189,1,95.3333333333334,8|0,3:2|2:0,2:0:0:0:
153,127,78418,2,0,L|158:182,1,47.6666666666667,8|0,3:2|2:0,2:0:0:0:
160,188,78623,6,0,P|255:177|350:186,1,190.666666666667,6|0,2:0|2:0,2:0:0:0:
350,186,79109,2,0,P|255:196|160:187,1,190.666666666667,8|0,3:2|2:0,2:0:0:0:
255,106,79597,1,2,3:2:0:0:
328,355,79922,1,0,3:2:0:0:
356,262,80085,2,0,P|384:204|419:164,1,95.3333333333334,8|0,2:0|2:0,2:0:0:0:
499,271,80390,2,0,L|511:335,1,47.6666666666667,8|0,3:2|2:0,2:0:0:0:
509,332,80552,6,0,B|480:367|393:349|430:282|353:262,1,190.666666666667,2|0,2:0|2:0,2:0:0:0:
171,313,81040,2,0,P|190:240|245:326,1,190.666666666667,8|0,1:2|2:0,2:0:0:0:
104,137,81528,2,0,P|112:193|186:330,1,190.666666666667,2|0,1:2|2:0,2:0:0:0:
328,355,82016,1,8,1:2:0:0:
25,384,82349,2,0,L|82:374,1,47.6666644846599,8|0,1:2|2:0,2:0:0:0:
86,373,82516,6,0,P|94:317|168:180,1,190.666666666667,6|0,2:0|2:0,2:0:0:0:
352,274,82999,2,0,P|333:347|278:261,1,190.666666666667,8|0,3:2|2:0,2:0:0:0:
294,89,83484,1,2,3:2:0:0:
433,220,83809,1,0,3:2:0:0:
330,183,83971,2,0,P|399:191|433:220,1,95.3333333333334,8|0,2:0|2:0,2:0:0:0:
500,0,84281,2,0,L|492:71,1,47.6666666666667,8|0,3:2|2:0,2:0:0:0:
441,110,84472,6,0,B|398:106|357:83|345:72|345:72|303:40|253:43|243:68|217:182|314:149|303:104|260:79|199:170|150:106,1,373.999988586426,6|0,2:0|2:0,2:0:0:0:
88,0,87674,2,0,L|92:46,1,44,0|0,2:0|2:0,2:0:0:0:
81,136,88334,5,8,2:0:0:0:
81,136,88414,2,0,B|98:188|106:206|106:206|203:131|261:98|316:158|325:245|260:257|196:242,1,413.599993688965,10|0,3:2|3:2,2:0:0:0:
211,244,90767,1,0,3:2:0:0:
180,67,91080,1,0,3:2:0:0:
191,169,91567,2,0,P|188:232|170:308,1,131.99999597168,8|0,2:0|3:2,2:0:0:0:
211,244,92185,5,8,2:0:0:0:
211,244,92295,2,0,B|260:257|325:245|316:158|261:98|203:131|106:206|106:206|98:188|80:116,1,436.333335996501,10|0,3:2|2:0,2:0:0:0:
180,67,95468,2,0,P|229:55|253:57,1,65.9999979858399,8|0,2:0|2:0,2:0:0:0:
359,75,96154,5,8,2:0:0:0:
359,75,96252,2,0,B|445:56|445:56|352:158|352:158|450:100|519:147|534:225|489:271|414:324|351:292|351:233|382:222|429:233,1,616,10|0,3:2|2:0,2:0:0:0:
280,238,100013,5,8,2:0:0:0:
298,266,100111,2,0,B|218:215|125:192,1,161.333333333333,10|0,3:2|2:0,2:0:0:0:
72,207,100606,1,8,2:0:0:0:
74,368,100937,1,8,2:0:0:0:
199,353,101102,2,0,B|189:280|152:200,1,161.333333333333,0|0,3:2|2:0,2:0:0:0:
59,120,101575,2,0,B|41:64|90:19|52:28|89:67|149:48,1,161.333333333333,8|8,2:0|2:0,2:0:0:0:
247,131,102033,5,0,3:2:0:0:
329,146,102199,1,0,3:2:0:0:
383,79,102365,2,0,B|385:17|385:17|437:51|437:51|499:34|499:34|483:94|483:94|518:147|518:147|456:150|456:150|416:199|416:199|397:151,1,462,12|0,2:0|2:0,2:0:0:0:
272,21,103945,5,8,2:0:0:0:
290,2,104028,2,0,P|304:78|248:131,1,161.333333333334,8|0,2:0|2:0,2:0:0:0:
166,201,104496,2,0,P|186:120|255:141,1,161.333333333334,8|0,2:0|2:0,2:0:0:0:
299,333,104965,1,0,3:2:0:0:
316,319,105298,1,0,3:2:0:0:
362,234,105465,2,0,P|326:229|281:230,1,80.6666666666668,8|0,2:0|2:0,2:0:0:0:
389,245,105798,1,8,2:0:0:0:
438,328,105965,2,0,P|402:333|357:332,1,80.6666666666668,0|0,3:2|2:0,2:0:0:0:
196,354,106290,6,0,B|196:318|196:318|213:310|213:310|156:235|156:235|99:310|99:310|116:318|116:318|116:354,1,297,8|0,2:0|2:0,2:0:0:0:
33,378,107838,5,8,2:0:0:0:
15,383,107920,2,0,B|16:317|-14:224,1,161.333333333334,10|0,3:2|2:0,2:0:0:0:
34,141,108384,2,0,B|33:107|46:56,1,80.6666666666668,8|0,2:0|2:0,2:0:0:0:
70,213,108700,1,8,2:0:0:0:
184,169,108859,2,0,B|116:112|33:141,1,161.333333333334,0|0,3:2|2:0,2:0:0:0:
178,68,109346,2,0,B|246:10|328:40,1,161.333333333334,8|0,2:0|2:0,2:0:0:0:
433,163,109834,5,0,3:2:0:0:
359,194,109997,1,0,3:2:0:0:
282,190,110161,2,0,P|343:331|426:231,1,330,12|0,2:0|2:0,2:0:0:0:
489,183,111719,5,8,2:0:0:0:
503,171,111801,2,0,B|445:169|365:150|365:150|384:186|374:175,1,161.333333333333,10|0,3:2|2:0,2:0:0:0:
193,88,112284,2,0,P|249:44|288:105,1,161.333338256836,8|0,2:0|2:0,2:0:0:0:
282,190,112768,1,0,3:2:0:0:
254,346,113088,2,0,B|244:368|255:384|255:384|272:372|271:349,1,80.6666691284181,0|8,3:2|2:0,2:0:0:0:
101,300,113543,1,8,2:0:0:0:
62,208,113731,2,0,B|61:181|48:175|92:117|92:117|137:175|123:181|123:209,1,201.666666666667,0|0,3:2|2:0,2:0:0:0:
123,210,114243,6,0,P|175:206|205:202,1,73.3333333333333,12|0,2:0|2:0,2:0:0:0:
197,204,114730,6,0,P|93:197|38:190,1,146.666666666667,12|0,2:0|2:0,2:0:0:0:
50,192,115218,6,0,P|197:182|275:172,1,220,12|0,2:0|2:0,2:0:0:0:
382,194,115698,6,0,P|346:121|270:190,1,198,2|0,3:2|2:0,2:0:0:0:
306,367,116185,2,0,P|296:321|315:269,1,98.9999999999999,8|0,2:0|2:0,2:0:0:0:
494,292,116511,1,8,2:0:0:0:
448,380,116673,2,0,B|385:358|396:281|396:281|413:168,1,198,0|0,3:2|2:0,2:0:0:0:
512,101,117147,2,0,B|385:172|404:34|297:80,1,198,8|0,2:0|2:0,2:0:0:0:
143,132,117621,5,0,3:2:0:0:
215,329,117937,1,0,3:2:0:0:
222,299,118095,2,0,P|218:243|197:194,1,98.9999999999999,8|0,2:0|2:0,2:0:0:0:
353,262,118424,1,8,2:0:0:0:
322,178,118589,2,0,P|282:137|235:113,1,98.9999999999999,0|0,3:2|2:0,2:0:0:0:
68,146,118919,2,0,B|79:174|67:202|67:202|102:200|132:217|132:217|166:225|202:203,1,198,12|0,2:0|2:0,2:0:0:0:
155,10,119414,2,0,L|146:67,1,49.5,8|0,2:0|2:0,2:0:0:0:
143,73,119572,6,0,P|86:0|21:95,1,198,0|0,3:2|2:0,2:0:0:0:
52,244,120085,2,0,P|106:257|156:248,1,98.9999999999999,8|0,2:0|2:0,2:0:0:0:
224,187,120362,1,8,2:0:0:0:
310,92,120559,2,0,P|313:177|338:294,1,198,0|0,3:2|2:0,2:0:0:0:
386,295,121046,2,0,P|362:257|338:297,1,98.9999999999999,8|0,2:0|2:0,2:0:0:0:
148,250,121372,1,8,2:0:0:0:
151,348,121534,6,0,L|367:333,1,198,0|0,3:2|2:0,2:0:0:0:
348,334,122034,2,0,L|240:326,1,98.9999999999999,8|0,2:0|2:0,2:0:0:0:
150,319,122348,1,8,2:0:0:0:
45,244,122506,5,0,3:2:0:0:
63,147,122675,1,0,3:2:0:0:
150,128,122844,1,0,2:0:0:0:
194,151,123028,2,0,B|228:134|238:112|238:112|248:132|271:149,1,98.9999999999999,8|0,2:0|2:0,2:0:0:0:
343,164,123333,1,8,2:0:0:0:
443,151,123485,6,0,P|458:63|362:89,1,198,2|0,3:2|2:0,2:0:0:0:
282,239,123981,2,0,P|269:170|258:129,1,98.9999999999999,8|0,2:0|2:0,2:0:0:0:
225,49,124288,1,8,2:0:0:0:
55,53,124474,2,0,P|100:71|150:75,1,98.9999999999999,0|0,3:2|2:0,2:0:0:0:
0,0,124794,1,0,3:2:0:0:
23,31,124954,2,0,P|45:105|33:171,1,98.9999999999999,8|0,2:0|2:0,2:0:0:0:
26,203,125274,1,8,2:0:0:0:
0,319,125434,6,0,P|59:339|71:293,1,98.9999999999999,0|0,3:2|2:0,2:0:0:0:
121,194,125767,2,0,L|127:251,1,49.5,0|0,3:2|2:0,2:0:0:0:
129,258,125954,2,0,B|199:253|224:281|202:294|245:340|314:318,1,198,8|8,2:0|2:0,2:0:0:0:
386,258,126434,2,0,P|340:181|282:245,1,198,0|0,3:2|2:0,2:0:0:0:
442,355,126925,5,8,2:0:0:0:
463,310,127083,1,0,2:0:0:0:
479,216,127242,1,8,2:0:0:0:
429,125,127416,6,0,B|370:105|326:127|354:147|298:181|235:145,1,198,2|0,3:2|2:0,2:0:0:0:
169,83,127886,1,8,2:0:0:0:
114,0,128043,1,0,2:0:0:0:
15,5,128200,1,8,2:0:0:0:
0,87,128357,6,0,B|6:104|0:121|0:121|11:143|11:143|1:163|12:181,1,98.9999999999999,2|0,3:2|2:0,2:0:0:0:
47,324,128693,1,0,3:2:0:0:
103,208,128861,2,0,L|201:201,1,98.9999999999999,8|0,2:0|2:0,2:0:0:0:
300,204,129197,2,0,L|365:214,1,49.5,8|0,2:0|2:0,2:0:0:0:
362,213,129365,6,0,B|370:238|370:267|370:267|365:280|365:280|384:317|385:360|341:361|331:336|333:320|359:310,1,176,2|0,3:2|2:0,2:0:0:0:
231,354,129836,2,0,B|181:330|112:337|126:383|148:370|144:283,1,176,8|8,2:0|2:0,2:0:0:0:
214,133,130324,2,0,B|263:156|332:149|318:103|296:116|300:204,1,176,0|0,3:2|2:0,2:0:0:0:
304,320,130791,2,0,L|354:324,1,36.6666666666667,8|0,2:0|2:0,2:0:0:0:
485,310,131094,2,0,P|486:341|474:371,1,55,8|0,2:0|2:0,2:0:0:0:
466,374,131286,6,0,P|463:272|514:162,1,220,6|0,3:2|2:0,2:0:0:0:
299,203,131779,2,0,P|402:166|435:136,1,110,8|0,3:2|2:0,2:0:0:0:
461,0,132109,2,0,P|465:28|477:70,1,55,8|0,2:0|2:0,2:0:0:0:
478,68,132273,2,0,B|437:89|395:67|395:67|358:93|358:93|315:61|261:73,1,220,6|0,3:2|2:0,2:0:0:0:
166,55,132781,2,0,P|152:4|101:-1,1,110,8|0,3:2|2:0,2:0:0:0:
0,41,133120,2,0,L|8:117,1,55.0000020980836,8|0,2:0|2:0,2:0:0:0:
14,170,133289,6,0,P|74:185|46:254,1,110,6|0,3:2|2:0,2:0:0:0:
35,376,133592,1,0,3:2:0:0:
0,308,133743,2,0,B|57:286|95:309|83:336|126:364|188:336,1,165,8|0,3:2|2:0,2:0:0:0:
236,324,134046,6,0,L|229:379,1,55,8|0,3:2|2:0,2:0:0:0:
262,110,134501,1,0,3:2:0:0:
281,240,134701,2,0,P|266:179|264:109,1,110.000004196167,8|0,3:2|2:0,2:0:0:0:
406,93,135069,2,0,L|413:147,1,55,8|0,2:0|2:0,2:0:0:0:
416,164,135232,6,0,B|347:130|304:156|318:189|253:215|194:154,1,220.000008392334,6|0,3:2|2:0,2:0:0:0:
133,114,135672,2,0,P|125:168|101:218,1,110,8|0,3:2|2:0,2:0:0:0:
0,375,135992,2,0,P|24:362|50:355,1,55,8|0,2:0|2:0,2:0:0:0:
67,353,136152,2,0,P|150:283|270:259,1,220,6|0,3:2|2:0,2:0:0:0:
376,198,136652,2,0,P|311:185|312:128,1,110.000004196167,8|0,3:2|2:0,2:0:0:0:
309,0,136985,2,0,P|316:27|329:55,1,55.0000020980836,8|0,2:0|2:0,2:0:0:0:
396,78,137152,6,0,B|450:64|421:11|490:-3|513:24,1,146.666666666667,6|0,3:2|3:2,2:0:0:0:
495,170,137628,2,0,L|499:122,1,36.6666666666667,8|0,3:2|2:0,2:0:0:0:
437,325,137945,6,0,P|422:254|376:198,1,146.666666666667,2|0,3:2|2:0,2:0:0:0:
291,157,138421,1,0,3:2:0:0:
174,243,138617,2,0,B|297:252,1,110.000004196167,8|0,3:2|2:0,2:0:0:0:
352,337,138939,2,0,P|346:354|334:368,1,36.6666666666667,0|0,3:2|2:0,2:0:0:0:
319,373,139100,6,0,P|234:331|252:202,1,220,6|0,3:2|2:0,2:0:0:0:
373,195,139584,2,0,P|381:91|358:60,1,110.000004196167,8|0,3:2|2:0,2:0:0:0:
223,118,139907,2,0,L|278:120,1,55.0000020980836,8|0,2:0|2:0,2:0:0:0:
289,133,140068,2,0,B|61:123,1,220,6|0,3:2|2:0,2:0:0:0:
152,286,140562,2,0,B|306:276,1,110,8|0,3:2|2:0,2:0:0:0:
364,272,140893,2,0,B|419:275,1,55,8|0,2:0|2:0,2:0:0:0:
491,272,141058,6,0,P|488:187|369:191,1,220.000008392334,6|0,3:2|2:0,2:0:0:0:
301,209,141543,2,0,B|246:212,1,55,8|0,3:2|2:0,2:0:0:0:
7,314,141867,5,8,3:2:0:0:
91,358,142029,2,0,P|90:240|45:150,1,220,2|0,2:0|3:2,2:0:0:0:
154,159,142515,2,0,P|45:150|1:133,1,110,8|0,3:2|2:0,2:0:0:0:
78,288,142848,2,0,P|90:312|90:339,1,55,8|0,3:2|2:0,2:0:0:0:
90,357,143015,6,0,P|151:267|246:213,1,220,6|0,3:2|2:0,2:0:0:0:
300,384,143480,2,0,P|303:325|329:265,1,110,8|0,3:2|2:0,2:0:0:0:
401,140,143790,2,0,P|376:127|349:129,1,55,8|0,2:0|2:0,2:0:0:0:
334,134,143956,2,0,P|349:68|231:76,1,220,6|0,3:2|2:0,2:0:0:0:
145,227,144462,2,0,B|164:218|187:231|187:231|204:216|204:216|226:225|245:212,1,110,8|0,3:2|2:0,2:0:0:0:
401,140,144799,2,0,P|427:145|454:142,1,55,8|0,2:0|2:0,2:0:0:0:
476,72,144968,6,0,L|459:295,1,220,6|0,1:2|2:0,2:0:0:0:
354,230,145444,6,0,P|301:218|212:277,1,165.000006294251,8|0,1:2|2:0,2:0:0:0:
204,299,145716,1,8,3:2:0:0:
120,217,145920,6,0,P|156:256|147:369,1,165.000006294251,2|0,1:2|2:0,2:0:0:0:
136,384,146207,1,0,3:2:0:0:
24,351,146399,6,0,L|262:335,1,220,8|0,1:2|2:0,2:0:0:0:
343,358,146907,6,0,P|371:298|434:320,1,146.666666666667,2|0,3:2|2:0,2:0:0:0:
482,256,147378,2,0,B|473:352|473:352|429:317,1,146.666666666667,8|0,2:0|2:0,2:0:0:0:
396,181,147891,2,0,B|343:168|343:168|316:184|316:184|254:170,1,146.666666666667,0|0,3:2|2:0,2:0:0:0:
249,99,148382,2,0,P|259:134|256:170,1,73.3333333333333,8|0,2:0|2:0,2:0:0:0:
176,236,148718,1,8,2:0:0:0:
16,151,148875,6,0,L|169:141,1,146.666666666667,0|0,3:2|2:0,2:0:0:0:
396,108,149346,2,0,L|243:98,1,146.666666666667,8|8,2:0|2:0,2:0:0:0:
104,10,149858,2,0,L|257:0,1,146.666666666667,0|0,3:2|2:0,2:0:0:0:
387,22,150341,1,8,2:0:0:0:
396,108,150494,1,0,2:0:0:0:
320,152,150648,1,8,2:0:0:0:
249,98,150836,6,0,P|193:129|238:186,1,146.666666666667,2|0,3:2|2:0,2:0:0:0:
335,297,151297,2,0,L|319:151,1,146.666666666667,8|0,2:0|2:0,2:0:0:0:
213,331,151788,2,0,L|228:185,1,146.666666666667,0|0,3:2|2:0,2:0:0:0:
163,125,152264,1,8,2:0:0:0:
12,215,152553,1,8,2:0:0:0:
66,284,152747,6,0,L|50:138,1,146.666666666667,2|0,3:2|2:0,2:0:0:0:
199,206,153242,2,0,L|214:60,1,146.666666666667,8|0,2:0|2:0,2:0:0:0:
126,37,153738,1,8,3:2:0:0:
58,65,153903,1,8,3:2:0:0:
50,138,154069,1,0,2:0:0:0:
112,176,154237,2,0,P|46:157|14:224,1,146.666666666667,8|0,2:0|2:0,2:0:0:0:
101,315,154741,6,0,B|114:262|114:262|98:235|98:235|112:173,1,146.666666666667,2|0,3:2|2:0,2:0:0:0:
294,160,155193,2,0,P|270:222|193:204,1,146.666666666667,8|0,2:0|2:0,2:0:0:0:
213,32,155692,2,0,P|203:67|207:104,1,73.3333333333333,0|0,3:2|2:0,2:0:0:0:
291,77,156014,1,0,3:2:0:0:
383,80,156175,2,0,L|283:76,1,73.3333333333333,8|0,2:0|2:0,2:0:0:0:
200,213,156498,1,8,2:0:0:0:
300,258,156659,6,0,B|340:237|373:260|362:271|407:299|458:270,1,146.666666666667,0|0,3:2|2:0,2:0:0:0:
427,63,157143,2,0,L|418:210,1,146.666666666667,8|0,2:0|2:0,2:0:0:0:
232,285,157622,2,0,L|222:138,1,146.666666666667,0|0,3:2|2:0,2:0:0:0:
84,63,158102,1,8,2:0:0:0:
75,149,158269,1,0,2:0:0:0:
151,193,158436,1,8,2:0:0:0:
222,138,158618,6,0,P|278:171|241:225,1,146.666666666667,2|0,3:2|2:0,2:0:0:0:
135,338,159079,2,0,L|151:192,1,146.666666666667,8|0,2:0|2:0,2:0:0:0:
84,63,159577,1,8,3:2:0:0:
0,191,159902,1,0,3:2:0:0:
7,219,160065,1,8,2:0:0:0:
135,338,160391,1,8,2:0:0:0:
216,266,160576,6,0,B|173:277|190:222|190:193|241:165|295:183|338:250|323:312|277:352|238:368,1,330,6|0,3:2|2:0,2:0:0:0:
380,314,162527,5,6,2:0:0:0:
512,165,163007,2,0,L|491:393,1,220,8|0,3:2|2:0,2:0:0:0:
377,229,163487,2,0,B|335:228|312:222|312:222|361:342|329:382|281:388|260:374|241:330|275:307|303:310,1,330,2|8,3:2|2:0,2:0:0:0:
252,133,164259,2,0,P|234:154|211:167,1,55,0|0,3:2|2:0,2:0:0:0:
129,187,164462,6,0,B|99:185|121:154|127:135|165:128|195:150|208:201|186:237|149:253|124:254,1,220,2|0,3:2|2:0,2:0:0:0:
9,235,164950,2,0,P|54:319|124:253,1,220,8|8,2:0|2:0,2:0:0:0:
108,108,165419,2,0,P|97:54|92:0,1,110,2|0,3:2|2:0,2:0:0:0:
232,0,165722,1,0,3:2:0:0:
270,65,165923,2,0,P|264:119|255:174,1,110,8|0,3:2|2:0,2:0:0:0:
38,172,166282,2,0,L|43:118,1,55,8|0,3:2|2:0,2:0:0:0:
36,189,166438,6,0,L|256:174,1,220,6|0,2:0|2:0,2:0:0:0:
162,98,166910,2,0,P|162:190|151:245,1,110.000004196167,8|0,2:0|3:2,2:0:0:0:
135,332,167224,1,8,3:2:0:0:
123,350,167404,2,0,B|109:362|90:346|79:323|88:285|110:270|195:253|278:271|312:314|273:401,1,330.000012588501,2|8,3:2|2:0,2:0:0:0:
298,104,168204,2,0,B|326:135|326:151,1,55,0|0,3:2|2:0,2:0:0:0:
330,188,168374,6,0,P|360:126|394:91,1,110,2|0,3:2|2:0,2:0:0:0:
471,307,168688,1,0,2:3:0:0:
471,307,168846,2,0,B|412:292|412:292|485:227|485:227|425:212,1,220,8|8,2:0|2:0,2:0:0:0:
300,348,169305,2,0,B|241:333|241:333|314:268|314:268|254:253,1,220,2|0,2:0|3:2,2:0:0:0:
55,240,169811,2,0,P|43:186|23:135,1,110,8|0,3:2|2:0,2:0:0:0:
168,142,170141,2,0,L|157:198,1,55,8|0,3:2|2:0,2:0:0:0:
154,212,170303,6,0,B|138:297|138:297|136:337|165:364|214:374|248:317,1,220,2|0,2:0|2:0,2:0:0:0:
306,254,170791,2,0,P|348:308|357:358,1,110,8|0,3:2|2:0,2:0:0:0:
350,159,171127,1,8,3:2:0:0:
436,295,171295,2,0,L|444:178,1,110,2|0,3:2|2:0,2:0:0:0:
257,83,171612,1,0,3:2:0:0:
348,133,171771,2,0,L|340:17,1,110,8|0,3:2|2:0,2:0:0:0:
253,0,172093,1,8,3:2:0:0:
118,94,172254,6,0,P|120:141|155:196,1,110,2|0,3:2|2:0,2:0:0:0:
353,227,172568,2,0,P|335:247|310:259,1,55,0|0,3:2|2:0,2:0:0:0:
293,262,172726,2,0,P|290:214|256:160,1,110,8|0,2:0|3:2,2:0:0:0:
7,246,173041,6,0,B|84:236|101:273|101:273|126:292|164:297|210:280,1,220,6|0,3:2|2:0,2:0:0:0:
41,336,173545,1,8,3:2:0:0:
19,331,173713,2,0,B|5:360|20:383|20:383|43:366|40:335,1,110,8|0,2:0|2:0,2:0:0:0:
211,280,174049,2,0,P|218:254|209:209,1,55.0000020980836,8|0,3:2|2:0,2:0:0:0:
207,209,174217,6,0,P|101:193|5:243,1,220.000008392334,6|0,3:2|2:0,2:0:0:0:
5,244,174704,2,0,P|112:261|208:210,1,220.000008392334,8|8,3:2|2:0,2:0:0:0:
324,127,175192,2,0,B|351:108|376:122|376:122|361:147|330:147,1,110.000004196167,2|0,3:2|2:0,2:0:0:0:
224,0,175517,1,0,3:2:0:0:
329,18,175680,2,0,P|323:101|326:140,1,110,8|0,2:0|2:0,2:0:0:0:
284,231,176010,2,0,P|292:278|300:311,1,55,8|0,3:2|2:0,2:0:0:0:
297,301,176175,6,0,P|406:292|512:318,1,220,6|0,2:0|2:0,2:0:0:0:
423,382,176672,1,8,2:0:0:0:
392,164,176981,1,8,2:0:0:0:
438,287,177150,2,0,P|429:224|403:178,1,110,6|0,2:0|2:0,2:0:0:0:
275,167,177447,1,0,2:0:0:0:
237,236,177646,6,0,P|270:203|284:249,1,110,8|0,2:0|2:0,2:0:0:0:
200,106,178133,5,6,2:0:0:0:
20,383,178601,2,0,P|128:348|241:342,1,220,8|0,3:2|2:0,2:0:0:0:
342,356,179104,1,2,3:2:0:0:
340,136,179429,1,0,3:2:0:0:
382,259,179591,2,0,P|377:203|356:152,1,110,8|0,2:0|2:0,2:0:0:0:
238,95,179917,6,0,B|145:84,1,55.0000020980836,8|0,3:2|2:0,2:0:0:0:
150,162,180079,2,0,B|257:175|257:175|232:240|172:276,1,220,2|0,2:0|2:0,2:0:0:0:
22,284,180567,6,0,P|45:372|106:304,1,220,8|0,1:2|2:0,2:0:0:0:
36,165,181054,2,0,B|27:15|27:15|95:54,1,220,2|0,1:2|2:0,2:0:0:0:
170,161,181542,2,0,P|223:150|271:176,1,110,8|0,1:2|2:0,2:0:0:0:
234,302,181867,2,0,P|218:269|213:231,1,55,8|0,1:2|2:0,2:0:0:0:
211,235,182030,6,0,B|140:368|140:368|103:299,1,220,6|0,2:0|2:0,2:0:0:0:
327,322,182507,2,0,B|332:352|332:352|398:316|437:316|437:316|396:285|384:229,1,220,8|0,3:2|2:0,2:0:0:0:
412,91,183008,1,2,3:2:0:0:
308,217,183342,1,0,3:2:0:0:
269,90,183495,2,0,P|296:137|310:190,1,110,8|0,2:0|2:0,2:0:0:0:
164,96,183801,6,0,B|62:112,1,55.0000020980836,8|0,3:2|2:0,2:0:0:0:
97,184,183955,2,0,B|203:167|203:167|197:236|149:287,1,220,2|0,1:2|2:0,2:0:0:0:
148,356,184431,2,0,P|234:325|149:279,1,220,8|0,1:2|2:0,2:0:0:0:
31,369,184939,5,2,1:2:0:0:
96,183,185221,1,0,3:2:0:0:
0,195,185420,2,0,P|29:262|93:244,1,110,8|0,3:2|2:0,2:0:0:0:
30,30,185757,2,0,L|35:93,1,55,8|0,3:2|2:0,2:0:0:0:
36,101,185930,6,0,P|146:88|256:98,1,220,6|0,2:0|2:0,2:0:0:0:
254,98,186403,2,0,P|143:109|33:99,1,220,8|0,3:2|2:0,2:0:0:0:
192,31,186876,1,2,3:2:0:0:
255,278,187192,1,0,3:2:0:0:
283,170,187378,2,0,P|315:102|356:56,1,110,8|0,2:0|2:0,2:0:0:0:
448,179,187653,2,0,P|431:212|411:235,1,55,8|0,3:2|2:0,2:0:0:0:
407,236,187862,6,0,B|360:179|349:116|349:116|315:153|283:169,1,220,6|0,2:0|2:0,2:0:0:0:
191,106,188349,2,0,P|211:5|314:34,1,220,8|0,1:2|2:0,2:0:0:0:
282,169,188858,2,0,P|261:269|158:240,1,220,2|0,1:2|2:0,2:0:0:0:
60,182,189334,1,8,1:2:0:0:
62,384,189651,2,0,L|126:379,1,55.0000020980836,0|0,1:2|2:0,2:0:0:0:
133,379,189839,6,0,P|137:305|205:170,1,220.000008392334,6|0,2:0|2:0,2:0:0:0:
315,258,190304,2,0,P|216:272|199:174,1,220,8|0,3:2|2:0,2:0:0:0:
317,94,190802,1,2,3:2:0:0:
346,355,191124,1,0,3:2:0:0:
417,284,191285,2,0,P|368:258|313:258,1,110,8|0,2:0|2:0,2:0:0:0:
166,329,191583,2,0,L|159:396,1,55,8|0,3:2|2:0,2:0:0:0:
74,358,191785,6,0,B|-4:257|118:172|228:217|239:377|161:421|126:339|133:312|164:280|203:290|221:350|295:318|295:318|305:270|251:226|281:181|344:206|321:262|321:262|350:273|378:267,1,660.000000000002,6|8,2:0|2:0,2:0:0:0:
478,226,194042,2,0,L|490:137,1,88,8|0,2:0|3:2,2:0:0:0:
427,50,195000,1,0,3:2:0:0:
292,151,195731,6,0,B|244:302|272:355|389:343|395:281|395:241|376:190|331:183|283:240|255:190|163:223|202:108,1,527.999999999999,2|0,3:2|2:0,2:0:0:0:
201,109,198080,1,0,3:2:0:0:
77,161,198413,2,0,L|81:229,1,65.9999999999999,8|0,3:2|3:2,2:0:0:0:
109,95,199675,6,0,B|146:61|146:61|241:161|241:161|67:162,1,352,6|0,2:0|2:0,2:0:0:0:
16,223,201901,2,0,L|18:273,2,44,8|0|0,2:0|3:2|3:2,2:0:0:0:
113,231,203552,6,0,B|170:180|245:235|215:325|100:342,1,263.999999999998,2|0,2:0|2:0,2:0:0:0:
45,228,205966,1,8,3:2:0:0:
112,230,206307,1,0,3:2:0:0:
188,251,206771,2,0,P|189:219|188:203,1,43.9999999999997,0|0,3:2|2:0,2:0:0:0:
283,251,207576,6,0,B|283:177|283:177|248:161|248:161|364:9|364:9|480:161|480:161|445:177|445:177|446:251|446:251|336:251,1,703.999999999997,0|0,2:0|2:0,2:0:0:0:
