osu file format v14

[General]
AudioFilename: audio.mp3
AudioLeadIn: 0
PreviewTime: 163007
Countdown: 0
SampleSet: Soft
StackLeniency: 0.7
Mode: 0
LetterboxInBreaks: 0
WidescreenStoryboard: 1

[Editor]
Bookmarks: 8368,23974,39573,55204,70812,84472,100059,115668,131286,146907,162527,178133,191785
DistanceSpacing: 1
BeatDivisor: 6
GridSize: 8
TimelineZoom: 2.1

[Metadata]
Title:Haru no Tonari
TitleUnicode:はるのとなり
Artist:Sasaki Eri
ArtistUnicode:佐々木恵梨
Creator:GfMRT
Version:Normal
Source:ゆるキャン△ SEASON2
Tags:laid-back yurukyan yurucamp yuru camp ed2 ending2 full anime japanese pop jpop folk coloured glazee coloured_glazee
BeatmapID:2894445
BeatmapSetID:1400388

[Difficulty]
HPDrainRate:3.3
CircleSize:3.2
OverallDifficulty:2.4
ApproachRate:5.1
SliderMultiplier:1.2
SliderTickRate:1

[Events]
//Background and Video events
0,0,"pid_84718876.jpg",0,0
//Break Periods
2,87874,98394
//Storyboard Layer 0 (Background)
//Storyboard Layer 1 (Fail)
//Storyboard Layer 2 (Pass)
//Storyboard Layer 3 (Foreground)
//Storyboard Layer 4 (Overlay)
//Storyboard Sound Samples

[TimingPoints]
416,487.80487804878,4,2,1,15,1,0
579,487.80487804878,4,2,1,15,1,0
1554,465.116279069767,4,2,1,15,1,0
2484,500,4,2,1,15,1,0
2817,476.190476190476,4,2,1,15,1,0
3134,-100,4,2,1,5,0,0
3293,-100,4,2,1,15,0,0
3610,-100,4,2,1,5,0,0
3769,599.400599400599,4,2,1,15,1,0
4368,371.517027863777,4,2,1,15,1,0
4492,472.44094488189,4,2,1,15,1,0
4964,472.44094488189,4,2,1,15,1,0
6381,518.358531317495,4,2,1,15,1,0
6467,-100,4,2,1,5,0,0
8454,468.75,4,2,1,20,1,0
9391,487.80487804878,4,2,1,20,1,0
9878,465.116279069767,4,2,1,20,1,0
10343,512.820512820513,4,2,1,20,1,0
10684,498.13200498132,4,2,1,20,1,0
12344,454.545454545455,4,2,1,20,1,0
12798,472.44094488189,4,2,1,20,1,0
13585,472.44094488189,4,2,1,20,1,0
13772,487.80487804878,4,2,1,20,1,0
13934,-100,4,2,1,5,0,0
14097,-100,4,2,1,20,0,0
14422,-100,4,2,1,5,0,0
14585,-100,4,2,1,20,0,0
14666,-100,4,2,1,5,0,0
16211,470.588235294117,4,2,1,20,1,0
17152,480,4,2,1,20,1,0
17632,456.273764258555,4,2,1,20,1,0
18088,495.867768595041,4,2,1,20,1,0
20071,474.308300395257,4,2,1,20,1,0
21019,491.803278688525,4,2,1,20,1,0
21674,-100,4,2,1,5,0,0
21837,-100,4,2,1,20,0,0
22002,511.727078891258,4,2,1,20,1,0
22428,-100,4,2,1,5,0,0
23537,466.926070038911,4,2,1,20,1,0
24003,-100,4,2,1,30,0,0
24469,497.92531120332,4,2,1,30,1,0
24966,472.44094488189,4,2,1,30,1,0
25438,491.4,4,2,1,30,1,0
25929,470.588235294118,4,2,1,30,1,0
26399,498.960498960499,4,2,1,30,1,0
27230,-92.58517034068,4,2,1,30,0,0
27396,444.444444444444,4,2,1,30,1,0
27895,481.927710843374,4,2,1,30,1,0
28858,487.804878048781,4,2,1,30,1,0
29345,493.827160493828,4,2,1,30,1,0
29838,489.795918367348,4,2,1,30,1,0
30491,-100,4,2,1,5,0,0
30653,-100,4,2,1,30,0,0
30817,482.575020308365,4,2,1,30,1,0
31138,510.63829787234,4,2,1,30,1,0
31648,476.190476190477,4,2,1,30,1,0
32282,481.927710843374,4,2,1,30,1,0
33245,508.474576271187,4,2,1,30,1,0
33753,504.201680672269,4,2,1,30,1,0
34257,428.571428571429,4,2,1,30,1,0
34542,581.113801452785,4,2,1,30,1,0
34735,444.444444444444,4,2,1,30,1,0
35032,476.190476190476,4,2,1,30,1,0
35508,572.792362768496,4,2,1,30,1,0
35698,480.000000000001,4,2,1,30,1,0
36498,579.710144927536,4,2,1,30,1,0
36691,473.372781065089,4,2,1,30,1,0
36848,-100,4,2,1,5,0,0
37006,-100,4,2,1,30,0,0
37164,491.803278688525,4,2,1,30,1,0
37655,461.538461538462,4,2,1,30,1,0
38116,437.956204379562,4,2,1,30,1,0
38261,-100,4,2,1,5,0,0
38407,544.21768707483,4,2,1,30,1,0
38588,422.535211267606,4,2,1,30,1,0
38869,586.79706601467,4,2,1,30,1,0
39064,459.770114942529,4,2,1,30,1,0
39370,610.687022900763,4,2,1,30,1,0
39573,488.798370672097,4,2,1,39,1,0
40061,461.538461538462,4,2,1,39,1,0
40368,645.161290322581,4,2,1,39,1,0
40583,487.80487804878,4,2,1,39,1,0
41233,-100,4,2,1,5,0,0
41395,-100,4,2,1,39,0,0
41396,512.820512820513,4,2,1,39,1,0
41566,487.804878048781,4,2,1,39,1,0
42053,441.176470588235,4,2,1,39,1,0
42200,-100,4,2,1,5,0,0
42347,582.52427184466,4,2,1,39,1,0
42541,472.44094488189,4,2,1,39,1,0
43013,488.798370672098,4,2,1,39,1,0
44479,465.116279069768,4,2,1,39,1,0
45254,550.45871559633,4,2,1,39,1,0
45437,487.80487804878,4,2,1,39,1,0
49014,-100,4,2,1,5,0,0
49176,-100,4,2,1,39,0,0
49338,493.827160493827,4,2,1,39,1,0
49831,456.273764258555,4,2,1,39,1,0
50136,547.945205479452,4,2,1,39,1,0
50136,-92.6873857404022,4,2,1,39,0,0
50318,487.80487804878,4,2,1,39,1,0
50806,495.867768595041,4,2,1,39,1,0
51136,508.474576271186,4,2,1,39,1,0
51305,480,4,2,1,39,1,0
51785,436.363636363636,4,2,1,39,1,0
52075,571.428571428571,4,2,1,39,1,0
52265,480,4,2,1,39,1,0
52745,566.037735849057,4,2,1,39,1,0
53122,434.782608695652,4,2,1,39,1,0
53266,462.42774566474,4,2,1,39,1,0
53574,-100,4,2,1,5,0,0
53728,491.803278688525,4,2,1,39,1,0
54547,-100,4,2,1,5,0,0
54710,-100,4,2,1,39,0,0
55203,-100,4,2,2,48,0,0
55204,487.80487804878,4,2,2,48,1,0
55691,-90.9090909090909,4,2,2,48,0,0
56667,365.853658536585,4,2,2,48,1,0
56911,733.94495412844,4,2,2,48,1,0
57155,476.190476190476,4,2,2,48,1,0
57155,-90.9090909090909,4,2,2,48,0,0
57631,416.666666666667,4,2,2,48,1,0
57908,600,4,2,2,48,1,0
58107,504.201680672269,4,2,2,48,1,0
58108,-90.9090909090909,4,2,2,48,0,0
58275,-90.9090909090909,4,2,2,5,0,0
58444,-90.9090909090909,4,2,2,48,0,0
58947,465.116279069767,4,2,2,48,1,0
59024,-100,4,2,2,5,0,0
59102,-100,4,2,2,48,0,0
59722,-100,4,2,2,5,0,0
59877,606.060606060606,4,2,2,48,1,0
60079,497.92531120332,4,2,2,48,1,0
60576,487.80487804878,4,2,2,48,1,0
60901,400,4,2,2,48,1,0
61034,428.571428571429,4,2,2,48,1,0
61034,-90.9090909090909,4,2,2,48,0,0
61176,-90.9090909090909,4,2,2,5,0,0
61319,444.444444444444,4,2,2,48,1,0
61512,451.127819548872,4,2,2,48,1,0
61812,471.512770137525,4,2,2,48,1,0
61812,-90.9090909090909,4,2,2,48,0,0
62047,-90.9090909090909,4,2,2,5,0,0
62283,575.539568345324,4,2,2,48,1,0
62474,517.241379310345,4,2,2,48,1,0
62991,465.116279069768,4,2,2,48,1,0
62991,-90.9090909090909,4,2,2,48,0,0
63456,492.813141683778,4,2,2,48,1,0
63456,-90.9090909090909,4,2,2,48,0,0
63620,-90.9090909090909,4,2,2,5,0,0
63784,594.059405940594,4,2,2,48,1,0
63982,469.667318982387,4,2,2,48,1,0
64451,478.08764940239,4,2,2,48,1,0
64451,-90.9090909090909,4,2,2,48,0,0
64610,-90.9090909090909,4,2,2,5,0,0
64769,-90.9090909090909,4,2,2,48,0,0
64929,483.48106365834,4,2,2,48,1,0
64929,-90.9090909090909,4,2,2,48,0,0
65090,-90.9090909090909,4,2,2,5,0,0
65251,-90.9090909090909,4,2,2,48,0,0
65331,-90.9090909090909,4,2,2,5,0,0
65412,-90.9090909090909,4,2,2,48,0,0
65734,487.804878048781,4,2,2,48,1,0
65734,-90.9090909090909,4,2,2,48,0,0
66059,-90.9090909090909,4,2,2,5,0,0
66221,-90.9090909090909,4,2,2,48,0,0
66709,556.844547563805,4,2,2,48,1,0
66894,495.867768595041,4,2,2,48,1,0
66894,-90.9090909090909,4,2,2,48,0,0
67720,489.795918367346,4,2,2,48,1,0
67883,-90.9090909090909,4,2,2,48,0,0
68046,-90.9090909090909,4,2,2,5,0,0
68209,-90.9090909090909,4,2,2,48,0,0
68373,475.247524752475,4,2,2,48,1,0
68373,-90.9090909090909,4,2,2,48,0,0
68531,-90.9090909090909,4,2,2,5,0,0
68689,489.795918367346,4,2,2,48,1,0
68852,489.795918367346,4,2,2,48,1,0
69341,-90.9090909090909,4,2,2,48,0,0
69831,461.538461538462,4,2,2,48,1,0
69831,-90.9090909090909,4,2,2,48,0,0
69984,-90.9090909090909,4,2,2,5,0,0
70138,552.995391705069,4,2,2,48,1,0
70322,489.795918367346,4,2,2,48,1,0
70811,-100,4,2,2,46,0,0
70812,482.897384305834,4,2,2,46,1,0
71294,493.827160493826,4,2,2,46,1,0
71294,-90.9090909090909,4,2,2,46,0,0
71787,530.973451327434,4,2,2,46,1,0
72140,446.096654275093,4,2,2,46,1,0
72140,-90.9090909090909,4,2,2,46,0,0
72278,463.320463320463,4,2,2,46,1,0
72586,495.867768595041,4,2,2,46,1,0
72751,476.190476190476,4,2,2,46,1,0
73227,485.82995951417,4,2,2,46,1,0
73712,485.82995951417,4,2,2,46,1,0
73712,-90.9090909090909,4,2,2,46,0,0
74197,497.92531120332,4,2,2,46,1,0
74197,-90.9090909090909,4,2,2,46,0,0
74362,-90.9090909090909,4,2,2,5,0,0
74528,-90.9090909090909,4,2,2,46,0,0
74694,487.80487804878,4,2,2,46,1,0
75181,-90.9090909090909,4,2,2,46,0,0
75669,481.927710843373,4,2,2,46,1,0
75990,-90.9090909090909,4,2,2,46,0,0
76632,487.80487804878,4,2,2,46,1,0
77119,533.333333333332,4,2,2,46,1,0
77652,451.127819548872,4,2,2,46,1,0
77652,-90.9090909090909,4,2,2,46,0,0
77952,466.926070038911,4,2,2,46,1,0
78418,615.384615384615,4,2,2,46,1,0
78622,487.80487804878,4,2,2,46,1,0
78623,-90.9090909090909,4,2,2,46,0,0
80085,458.015267175573,4,2,2,46,1,0
80085,-90.9090909090909,4,2,2,46,0,0
80390,487.80487804878,4,2,2,46,1,0
81528,-90.9090909090909,4,2,2,46,0,0
82016,499.999999999999,4,2,2,46,1,0
82016,-90.9090909090909,4,2,2,46,0,0
82516,483.870967741935,4,2,2,46,1,0
82999,476.190476190476,4,2,2,46,1,0
82999,-90.9090909090909,4,2,2,46,0,0
83316,504.201680672269,4,2,2,46,1,0
83484,487.80487804878,4,2,2,46,1,0
83971,465.116279069767,4,2,2,46,1,0
83971,-90.9090909090909,4,2,2,46,0,0
84281,574.162679425837,4,2,2,46,1,0
84472,487.80487804878,4,2,1,27,1,0
85447,468.75,4,2,1,5,1,0
86384,517.241379310345,4,2,1,5,1,0
86729,454.545454545455,4,2,1,5,1,0
87183,491.803278688525,4,2,1,15,1,0
87674,580.27079303675,4,2,1,15,1,0
88254,480,4,2,1,15,1,0
88414,470.957613814757,4,2,1,15,1,0
88716,453.514739229025,4,2,1,15,1,0
88868,476.190476190476,4,2,1,15,1,0
89344,465.116279069767,4,2,1,15,1,0
89809,488.798370672098,4,2,1,15,1,0
90297,470.551329307505,4,2,1,15,1,0
90767,500,4,2,1,15,1,0
91080,487.80487804878,4,2,1,15,1,0
91567,508.474576271186,4,2,1,15,1,0
92075,660.06600660066,4,2,1,15,1,0
92295,481.927710843374,4,2,1,15,1,0
92776,483.870967741935,4,2,1,15,1,0
93259,468.75,4,2,1,15,1,0
94196,500,4,2,1,15,1,0
94529,469.667318982387,4,2,1,15,1,0
95468,588.235294117647,4,2,1,15,1,0
96252,467.653936087295,4,2,1,15,1,0
96534,424.028268551237,4,2,1,15,1,0
96676,477.13717693837,4,2,1,15,1,0
98107,472.813238770686,4,2,2,5,1,0
99525,586.797066014669,4,2,2,5,1,0
100111,495.867768595042,4,2,1,20,1,0
101102,422.535211267606,4,2,1,20,1,0
101383,576.923076923077,4,2,1,20,1,0
101575,458.015267175573,4,2,1,20,1,0
102033,498.960498960501,4,2,1,20,1,0
102033,-109.89010989011,4,2,1,20,0,0
104028,468.750000000002,4,2,1,20,1,0
104965,500.000000000002,4,2,1,20,1,0
105631,-100,4,2,1,5,0,0
105798,-100,4,2,1,20,0,0
105965,488.798370672099,4,2,1,20,1,0
106127,-100,4,2,1,5,0,0
106290,-100,4,2,1,20,0,0
107920,464.216634429402,4,2,1,20,1,0
108384,475.247524752477,4,2,1,20,1,0
108542,-100,4,2,1,5,0,0
108700,-100,4,2,1,20,0,0
108859,487.804878048782,4,2,1,20,1,0
109834,491.803278688526,4,2,1,20,1,0
111801,483.870967741936,4,2,1,20,1,0
112768,480,4,2,1,20,1,0
113088,455.407969639469,4,2,1,20,1,0
113391,-100,4,2,1,5,0,0
113543,566.037735849057,4,2,1,20,1,0
113731,512.820512820513,4,2,1,20,1,0
114243,487.804878048781,4,2,1,15,1,0
114730,-100,4,2,1,22,0,0
115218,480.000000000001,4,2,1,28,1,0
115538,-100,4,2,1,5,0,0
115698,487.804878048782,4,2,1,35,1,0
116348,-100,4,2,1,5,0,0
116511,-100,4,2,1,35,0,0
116673,474.308300395258,4,2,1,35,1,0
118095,494.845360824743,4,2,1,35,1,0
118259,-100,4,2,1,5,0,0
118424,-100,4,2,1,35,0,0
119249,-100,4,2,1,5,0,0
119413,-100,4,2,1,35,0,0
119414,474.308300395258,4,2,1,35,1,0
119572,513.918629550321,4,2,1,35,1,0
119572,-92.2897196261682,4,2,1,35,0,0
120085,415.023863872173,4,2,1,35,1,0
120223,-100,4,2,1,5,0,0
120362,592.592592592593,4,2,1,35,1,0
120559,487.80487804878,4,2,1,35,1,0
121534,499.999999999999,4,2,1,35,1,0
122034,472.440944881889,4,2,1,35,1,0
122191,-100,4,2,1,5,0,0
122348,-100,4,2,1,35,0,0
122506,508.474576271186,4,2,1,35,1,0
122844,552.995391705069,4,2,1,35,1,0
123028,458.015267175573,4,2,1,35,1,0
123180,-100,4,2,1,5,0,0
123333,458.015267175573,4,2,1,35,1,0
123791,571.428571428571,4,2,1,35,1,0
123981,461.538461538462,4,2,1,35,1,0
124288,558.139534883721,4,2,1,35,1,0
124474,480,4,2,1,35,1,0
124634,-100,4,2,1,5,0,0
124794,-100,4,2,1,35,0,0
125434,521.739130434783,4,2,1,35,1,0
125600,-104.208416833667,4,2,1,5,0,0
125767,563.380281690141,4,2,1,35,1,0
125860,-100,4,2,1,5,0,0
125954,480,4,2,1,35,1,0
126434,491.803278688525,4,2,1,35,1,0
126925,476.190476190476,4,2,1,35,1,0
127242,524.017467248908,4,2,1,35,1,0
127416,470.588235294118,4,2,1,35,1,0
128357,504.201680672269,4,2,1,35,1,0
128525,-100,4,2,1,5,0,0
128693,-100,4,2,1,35,0,0
129365,471.512770137525,4,2,1,35,1,0
129836,447.761194029851,4,2,1,35,1,0
130134,571.428571428571,4,2,1,35,1,0
130324,468.75,4,2,1,35,1,0
130596,457.142857142857,4,2,1,35,1,0
130791,454.545454545455,4,2,1,35,1,0
131094,576.923076923077,4,2,1,35,1,0
131286,493.827160493827,4,2,2,49,1,0
131286,-90.9090909090909,4,2,2,49,0,0
131944,-90.9090909090909,4,2,2,5,0,0
132109,-90.9090909090909,4,2,2,49,0,0
132273,508.474576271186,4,2,2,49,1,0
132273,-90.9090909090909,4,2,2,49,0,0
132950,-90.9090909090909,4,2,2,5,0,0
133120,-90.9090909090909,4,2,2,49,0,0
133289,454.545454545455,4,2,2,49,1,0
133289,-90.9090909090909,4,2,2,49,0,0
133440,-90.9090909090909,4,2,2,5,0,0
133592,-90.9090909090909,4,2,2,49,0,0
134122,-90.9090909090909,4,2,2,5,0,0
134198,-90.9090909090909,4,2,2,49,0,0
134501,600,4,2,2,49,1,0
134701,552.995391705069,4,2,2,49,1,0
135069,491.803278688525,4,2,2,49,1,0
135232,440.366972477064,4,2,2,49,1,0
135232,-94.2577204514449,4,2,2,49,0,0
135672,480,4,2,2,49,1,0
135832,-100,4,2,2,5,0,0
135992,-100,4,2,2,49,0,0
136152,500,4,2,2,49,1,0
136152,-90.9090909090909,4,2,2,49,0,0
137152,476.190476190476,4,2,2,49,1,0
137152,-90.9090909090909,4,2,2,49,0,0
138263,-90.9090909090909,4,2,2,5,0,0
138421,588.235294117647,4,2,2,49,1,0
138617,483.870967741935,4,2,2,49,1,0
139100,-90.9090909090909,4,2,2,49,0,0
139746,-90.9090909090909,4,2,2,5,0,0
139906,-90.9090909090909,4,2,2,49,0,0
140067,495.867768595041,4,2,2,49,1,0
140068,-90.9090909090909,4,2,2,49,0,0
140728,-90.9090909090909,4,2,2,5,0,0
140894,-90.9090909090909,4,2,2,49,0,0
141058,485.82995951417,4,2,2,49,1,0
141058,-90.9090909090909,4,2,2,49,0,0
142515,500,4,2,2,49,1,0
143015,465.116279069767,4,2,2,49,1,0
143015,-90.9090909090909,4,2,2,49,0,0
143635,-90.9090909090909,4,2,2,5,0,0
143790,498.960498960499,4,2,2,49,1,0
143956,506.329113924051,4,2,2,49,1,0
143956,-90.9090909090909,4,2,2,49,0,0
144968,476.190476190477,4,2,2,49,1,0
144968,-90.9090909090909,4,2,2,49,0,0
145444,408.163265306122,4,2,2,49,1,0
145580,-100,4,2,2,5,0,0
145716,612.244897959184,4,2,2,49,1,0
145920,431.654676258993,4,2,2,49,1,0
146207,576.923076923077,4,2,2,49,1,0
146399,508.474576271186,4,2,2,49,1,0
146907,471.512770137525,4,2,1,30,1,0
147692,597.014925373134,4,2,1,30,1,0
147891,491.803278688524,4,2,1,30,1,0
148382,504.201680672269,4,2,1,30,1,0
148550,-100,4,2,1,5,0,0
148718,472.44094488189,4,2,1,30,1,0
148875,471.512770137525,4,2,1,30,1,0
149346,476.190476190476,4,2,1,30,1,0
149664,582.52427184466,4,2,1,30,1,0
149858,483.870967741935,4,2,1,30,1,0
150341,461.538461538462,4,2,1,30,1,0
150648,566.037735849057,4,2,1,30,1,0
150836,461.538461538462,4,2,1,30,1,0
151605,550.45871559633,4,2,1,30,1,0
151788,476.190476190476,4,2,1,30,1,0
152264,434.782608695652,4,2,1,30,1,0
152553,582.52427184466,4,2,1,30,1,0
152747,495.867768595041,4,2,1,30,1,0
153242,465.116279069767,4,2,1,30,1,0
153552,560.747663551402,4,2,1,30,1,0
153738,497.92531120332,4,2,1,30,1,0
154069,504.201680672269,4,2,1,30,1,0
154741,452.830188679245,4,2,1,30,1,0
155495,591.133004926108,4,2,1,30,1,0
155692,483.870967741935,4,2,1,30,1,0
155853,-100,4,2,1,5,0,0
156014,-100,4,2,1,30,0,0
156337,-100,4,2,1,5,0,0
156497,-100,4,2,1,30,0,0
157143,460.652591170825,4,2,1,30,1,0
157450,517.241379310345,4,2,1,30,1,0
157450,-95.1644100580271,4,2,1,30,0,0
157622,480,4,2,1,30,1,0
158102,502.092050209205,4,2,1,30,1,0
158436,547.945205479452,4,2,1,30,1,0
158618,461.538461538462,4,2,1,30,1,0
159387,571.428571428571,4,2,1,30,1,0
159577,488.798370672097,4,2,1,30,1,0
160391,555.555555555556,4,2,1,30,1,0
160576,487.80487804878,4,2,1,30,1,0
162527,479.999999999999,4,2,2,49,1,0
163007,-90.9090909090909,4,2,2,49,0,0
163487,487.80487804878,4,2,2,49,1,0
163487,-90.9090909090909,4,2,2,49,0,0
163974,428.571428571429,4,2,2,49,1,0
164259,610.687022900763,4,2,2,49,1,0
164462,487.80487804878,4,2,2,49,1,0
164462,-90.9090909090909,4,2,2,49,0,0
164950,430.10752688172,4,2,2,49,1,0
165236,550.45871559633,4,2,2,49,1,0
165419,454.545454545455,4,2,2,49,1,0
165419,-90.9090909090909,4,2,2,49,0,0
165570,-90.9090909090909,4,2,2,5,0,0
165722,603.015075376884,4,2,2,49,1,0
165923,539.568345323741,4,2,2,49,1,0
166282,468.75,4,2,2,49,1,0
166282,-109.719876536016,4,2,2,49,0,0
166360,-109.719876536016,4,2,2,5,0,0
166438,472.0692368214,4,2,2,49,1,0
167067,-100,4,2,2,5,0,0
167224,571.428571428571,4,2,2,49,1,0
167404,479.999999999999,4,2,2,49,1,0
167404,-90.9090909090909,4,2,2,49,0,0
168204,512.820512820513,4,2,2,49,1,0
168374,472.440944881888,4,2,2,49,1,0
168374,-90.9090909090909,4,2,2,49,0,0
168531,-90.9090909090909,4,2,2,5,0,0
168688,-90.9090909090909,4,2,2,49,0,0
168846,437.956204379562,4,2,2,49,1,0
169137,505.902192242833,4,2,2,49,1,0
169137,-90.9090909090909,4,2,2,49,0,0
169811,495.867768595039,4,2,2,49,1,0
170141,487.804878048781,4,2,2,49,1,0
170303,-90.9090909090909,4,2,2,49,0,0
170791,504.201680672269,4,2,2,49,1,0
171295,476.190476190476,4,2,2,49,1,0
171295,-90.9090909090909,4,2,2,49,0,0
171453,-90.9090909090909,4,2,2,5,0,0
171612,-90.9090909090909,4,2,2,49,0,0
171771,483.870967741935,4,2,2,49,1,0
171771,-90.9090909090909,4,2,2,49,0,0
171932,-90.9090909090909,4,2,2,5,0,0
172093,-90.9090909090909,4,2,2,49,0,0
172254,472.440944881889,4,2,2,49,1,0
172254,-90.9090909090909,4,2,2,49,0,0
172411,-90.9090909090909,4,2,2,5,0,0
172568,-90.9090909090909,4,2,2,49,0,0
172647,-90.9090909090909,4,2,2,5,0,0
172726,-90.9090909090909,4,2,2,49,0,0
173041,504.201680672269,4,2,2,49,1,0
173041,-90.9090909090909,4,2,2,49,0,0
173377,-90.9090909090909,4,2,2,5,0,0
173545,-90.9090909090909,4,2,2,49,0,0
174217,487.80487804878,4,2,2,49,1,0
174217,-90.9090909090909,4,2,2,49,0,0
175680,495.86776859504,4,2,2,49,1,0
175680,-90.9090909090909,4,2,2,49,0,0
175845,-90.9090909090909,4,2,2,5,0,0
176010,-90.9090909090909,4,2,2,49,0,0
176175,497.925311203319,4,2,2,49,1,0
176175,-90.9090909090909,4,2,2,49,0,0
176981,507.399577167019,4,2,2,49,1,0
177150,496.894409937888,4,2,2,49,1,0
177150,-90.9090909090909,4,2,2,49,0,0
177298,-101.224489795918,4,2,2,5,0,0
177447,597.014925373134,4,2,2,49,1,0
177646,487.80487804878,4,2,2,49,1,0
178601,503.14465408805,4,2,2,45,1,0
178601,-90.9090909090909,4,2,2,45,0,0
179104,487.80487804878,4,2,2,45,1,0
179429,-90.9090909090909,4,2,2,45,0,0
180079,451.127819548872,4,2,2,45,1,0
180379,566.037735849057,4,2,2,45,1,0
180567,487.80487804878,4,2,2,45,1,0
180567,-90.9090909090909,4,2,2,45,0,0
181705,-90.9090909090909,4,2,2,5,0,0
181867,-90.9090909090909,4,2,2,45,0,0
182030,477.707006369427,4,2,2,45,1,0
182507,501.043841336117,4,2,2,45,1,0
182507,-90.9090909090909,4,2,2,45,0,0
183342,459.770114942529,4,2,2,45,1,0
183342,-90.9090909090909,4,2,2,45,0,0
183955,476.190476190476,4,2,2,45,1,0
184431,542.005420054201,4,2,2,45,1,0
184792,441.176470588235,4,2,2,45,1,0
184939,424.028268551237,4,2,2,45,1,0
184939,-90.9090909090909,4,2,2,45,0,0
185221,598.503740648379,4,2,2,45,1,0
185420,506.329113924051,4,2,2,45,1,0
185420,-90.9090909090909,4,2,2,45,0,0
185757,521.739130434783,4,2,2,45,1,0
185930,473.372781065089,4,2,2,45,1,0
185930,-90.9090909090909,4,2,2,45,0,0
187192,560.747663551402,4,2,2,45,1,0
187378,413.793103448276,4,2,2,45,1,0
187378,-90.9090909090909,4,2,2,45,0,0
187653,628.272251308901,4,2,2,45,1,0
187862,487.80487804878,4,2,2,45,1,0
188675,549.199084668192,4,2,2,45,1,0
188858,476.190476190476,4,2,2,45,1,0
188858,-90.9090909090909,4,2,2,45,0,0
189651,566.037735849057,4,2,2,45,1,0
189839,465.116279069767,4,2,2,45,1,0
190304,-90.9090909090909,4,2,2,45,0,0
190614,566.037735849057,4,2,2,45,1,0
190802,483.870967741935,4,2,2,45,1,0
191285,447.761194029851,4,2,2,45,1,0
191285,-90.9090909090909,4,2,2,45,0,0
191583,606.060606060606,4,2,2,45,1,0
191785,487.80487804878,4,2,1,27,1,0
191785,-131.351443704083,4,2,1,27,0,0
192110,-131.351443704083,4,2,1,12,0,0
192760,473.9336492891,4,2,2,5,1,0
193707,502.092050209205,4,2,1,5,1,0
194042,469.116497263487,4,2,1,12,1,0
194042,-250,4,2,1,12,0,0
194511,487.80487804878,4,2,1,5,1,0
194998,-100,4,2,1,12,0,0
195000,597.014925373134,4,2,1,12,1,0
195597,805.369127516779,4,2,1,12,1,0
195731,471.327572663001,4,2,1,12,1,0
195731,-249.2755206119847,4,2,1,12,0,0
196029,456.273764258555,4,2,1,12,1,0
196181,476.190476190476,4,2,2,5,1,0
196657,465.116279069767,4,2,2,5,1,0
197122,488.798370672098,4,2,2,5,1,0
197610,470.588235294118,4,2,1,5,1,0
198080,500,4,2,1,12,1,0
198080,-100,4,2,1,12,0,0
198413,487.804878048781,4,2,1,12,1,0
198413,-250,4,2,1,12,0,0
198900,-250,4,2,1,5,0,0
199388,863.309352517986,4,2,1,5,1,0
199675,475.812846946868,4,2,1,12,1,0
199675,-250.53684680661,4,2,1,12,0,0
199985,465.116279069767,4,2,2,5,1,0
200140,476.190476190476,4,2,1,5,1,0
200616,491.803278688524,4,2,1,5,1,0
201107,461.538461538461,4,2,1,5,1,0
201568,500,4,2,1,5,1,0
201900,-100,4,2,1,12,0,0
201901,497.92531120332,4,2,1,12,1,0
202398,-250,4,2,1,12,0,0
202896,750,4,2,1,5,1,0
203396,625,4,2,1,5,1,0
203552,483.48106365834,4,2,1,12,1,0
203552,-250,4,2,1,12,0,0
203857,458.015267175573,4,2,2,5,1,0
204010,497.92531120332,4,2,1,5,1,0
204508,478.000047800005,4,2,1,5,1,0
204986,497.92531120332,4,2,1,5,1,0
205484,482.897384305836,4,2,1,5,1,0
205966,513.918629550321,4,2,1,12,1,0
205966,-250,4,2,1,12,0,0
206308,463.320463320463,4,2,1,12,1,0
206771,604.229607250755,4,2,1,12,1,0
207576,487.80487804878,4,2,1,12,1,0
207576,-250,4,2,1,12,0,0
207657,-250,4,2,1,5,0,0

[Colours]
Combo1 : 255,123,213
Combo2 : 97,115,255
Combo3 : 182,181,131
Combo4 : 255,158,70
Combo5 : 255,96,96

[HitObjects]
88,257,579,5,10,3:2:0:0:
196,308,1066,1,8,2:0:0:0:
297,240,1554,1,0,3:2:0:0:
287,116,2019,1,8,2:0:0:0:
181,61,2484,5,8,3:2:0:0:
116,108,2817,2,0,B|75:136|75:136|38:119|-7:132,2,120,0|0|8,3:2|3:2|2:0,2:0:0:0:
271,46,4492,5,10,3:2:0:0:
390,49,4964,1,8,2:0:0:0:
389,170,5436,1,0,3:2:0:0:
269,166,5908,1,8,2:0:0:0:
166,228,6381,2,0,B|80:68|80:68|-2:241,1,360,4|0,3:2|2:0,2:0:0:0:
3,353,8454,5,10,3:2:0:0:
118,321,8922,2,0,P|167:315|229:314,1,80,8|8,2:0|2:0,2:0:0:0:
219,347,9391,2,0,P|268:353|330:354,1,80,0|0,3:2|2:0,2:0:0:0:
322,322,9878,2,0,P|371:316|433:315,1,80,8|0,2:0|2:0,2:0:0:0:
441,311,10343,5,0,3:2:0:0:
473,237,10684,2,0,P|444:152|351:238,1,240,12|0,2:0|2:0,2:0:0:0:
262,322,12344,1,8,3:2:0:0:
144,341,12798,6,0,P|136:296|101:252,1,80,8|0,2:0|2:0,2:0:0:0:
99,232,13270,2,0,P|119:197|124:158,1,80,0|0,3:2|3:2,2:0:0:0:
111,120,13772,2,0,P|139:93|142:137,1,80,8|8,2:0|2:0,2:0:0:0:
191,141,14259,2,0,B|236:89|286:17|286:17|335:89|381:141|381:141|331:142,1,360,0|0,3:2|2:0,2:0:0:0:
250,224,16211,1,10,3:2:0:0:
274,341,16681,6,0,B|319:323|319:323|355:330,1,80,8|8,2:0|2:0,2:0:0:0:
389,337,17152,2,0,B|407:292|407:292|400:256,1,80,0|0,3:2|2:0,2:0:0:0:
394,221,17632,2,0,B|387:190|387:190|405:145,1,80,8|0,2:0|2:0,2:0:0:0:
424,110,18088,5,0,3:2:0:0:
370,50,18418,2,0,B|300:16|242:41|277:62|201:97|132:50,1,240,12|0,2:0|2:0,2:0:0:0:
0,146,20071,6,0,P|36:202|37:245,1,80,8|0,3:2|2:0,2:0:0:0:
43,253,20545,2,0,P|39:319|14:354,1,80,8|0,2:0|2:0,2:0:0:0:
15,366,21019,1,0,3:2:0:0:
93,383,21346,2,0,P|156:370|233:365,1,120,0|0,3:2|2:0,2:0:0:0:
251,368,22002,5,0,3:2:0:0:
317,323,22343,2,0,P|379:358|415:295,1,160,8|0,2:0|2:0,2:0:0:0:
380,170,23537,1,8,2:0:0:0:
502,157,24003,6,0,B|517:110|506:75|506:75|492:61|471:55,1,120,2|8,3:2|2:0,2:0:0:0:
359,82,24966,2,0,L|265:88,1,80,0|0,3:2|2:0,2:0:0:0:
239,90,25438,1,8,2:0:0:0:
119,101,25929,2,0,L|103:8,1,80,0|0,3:2|2:0,2:0:0:0:
70,2,26399,2,0,L|-3:61,1,80,8|0,2:0|2:0,2:0:0:0:
13,92,26897,1,0,3:2:0:0:
37,173,27230,2,0,B|41:206|31:251|31:251|32:275|35:293,1,120,0|8,2:0|2:0,2:0:0:0:
53,336,27895,6,0,P|107:358|130:297,1,120,2|8,3:2|2:0,2:0:0:0:
133,193,28858,2,0,P|167:145|195:150,1,80,0|0,3:2|2:0,2:0:0:0:
214,169,29345,1,8,2:0:0:0:
233,287,29838,2,0,P|273:306|308:339,1,80,0|0,3:2|2:0,2:0:0:0:
337,314,30327,2,0,P|333:269|344:222,1,80,8|8,2:0|2:0,2:0:0:0:
360,201,30817,1,8,3:2:0:0:
436,176,31138,2,0,B|458:173|470:181|470:181|493:145|490:91,1,120,0|0,3:2|2:0,2:0:0:0:
486,60,31806,6,0,L|388:71,1,80,2|0,3:2|2:0,2:0:0:0:
361,76,32282,1,8,2:0:0:0:
275,159,32763,2,0,L|177:148,1,80,0|0,3:2|2:0,2:0:0:0:
155,145,33245,1,8,2:0:0:0:
71,144,33583,1,8,2:0:0:0:
71,144,33753,6,0,L|84:222,1,80,0|0,3:2|2:0,2:0:0:0:
93,265,34257,1,8,2:0:0:0:
116,345,34542,1,0,2:0:0:0:
116,345,34735,6,0,P|155:328|192:328,1,80,0|0,3:2|2:0,2:0:0:0:
228,345,35190,2,0,L|237:394,2,40,8|0|8,2:0|2:0|2:0,2:0:0:0:
263,320,35698,2,0,B|283:310|305:319|295:324|318:332|339:323,1,80,2|0,3:2|2:0,2:0:0:0:
377,307,36178,1,8,2:0:0:0:
426,245,36498,1,8,2:0:0:0:
426,245,36691,2,0,P|406:210|405:171,1,80,2|0,3:2|3:2,2:0:0:0:
417,134,37164,1,8,2:0:0:0:
395,57,37491,1,8,2:0:0:0:
395,57,37655,6,0,B|368:72|368:72|335:65|306:70,1,80,6|0,3:2|2:0,2:0:0:0:
275,71,38116,2,0,L|283:159,1,80,0|8,2:0|2:0,2:0:0:0:
291,200,38588,2,0,L|375:189,1,80,4|0,3:2|2:0,2:0:0:0:
415,187,39064,1,8,2:0:0:0:
480,244,39370,1,0,2:0:0:0:
480,244,39573,6,0,P|490:315|447:352,1,120,2|8,3:2|2:0,2:0:0:0:
361,275,40583,1,0,3:2:0:0:
288,365,41070,2,0,P|252:356|207:367,1,80,8|8,2:0|2:0,2:0:0:0:
175,383,41566,2,0,P|145:320|83:280,2,120,0|8|0,3:2|2:0|3:2,2:0:0:0:
294,369,43013,2,0,P|318:363|338:361,2,40,8|0|8,2:0|2:0|2:0,2:0:0:0:
270,337,43501,6,0,L|282:190,1,120,2|8,3:2|2:0,2:0:0:0:
285,98,44479,2,0,P|245:79|201:80,1,80,0|0,3:2|2:0,2:0:0:0:
170,86,44944,1,8,2:0:0:0:
94,122,45254,1,8,2:0:0:0:
94,122,45437,6,0,L|85:241,1,120,0|8,3:2|2:0,2:0:0:0:
83,361,46412,2,0,P|59:360|41:355,2,40,0|0|0,3:2|3:2|2:0,2:0:0:0:
121,347,46900,1,8,2:0:0:0:
185,238,47388,6,0,P|231:195|300:187,1,120,2|8,3:2|2:0,2:0:0:0:
285,308,48363,2,0,P|313:335|329:372,1,80,0|0,3:2|3:2,2:0:0:0:
369,372,48851,2,0,P|384:335|413:307,1,80,8|8,2:0|2:0,2:0:0:0:
451,294,49339,6,0,L|442:200,1,80,0|0,3:2|2:0,2:0:0:0:
440,174,49831,1,8,2:0:0:0:
462,97,50136,2,0,B|430:83|398:95|412:104|377:115|347:102,1,120,8|0,3:2|2:0,2:0:0:0:
316,78,50806,2,0,L|320:28,2,40,8|0|8,2:0|2:0|2:0,2:0:0:0:
301,115,51305,6,0,L|181:105,1,120,2|8,3:2|2:0,2:0:0:0:
89,182,52265,2,0,B|85:226|91:274|91:274|115:260,1,120,0|8,3:2|2:0,2:0:0:0:
216,194,53266,6,0,P|240:249|215:306,1,120,6|4,3:2|2:0,2:0:0:0:
118,367,54219,2,0,P|94:312|119:255,1,120,4|4,3:2|2:0,2:0:0:0:
216,194,55203,5,6,2:0:0:0:
262,317,55691,2,0,L|156:311,1,88.000002685547,8|0,3:2|2:0,2:0:0:0:
130,310,56179,2,0,P|66:274|100:169,1,198.000006042481,2|0,3:2|3:2,2:0:0:0:
141,159,57155,2,0,L|243:149,1,88.000002685547,2|0,3:2|2:0,2:0:0:0:
278,144,57631,1,8,2:0:0:0:
279,19,58108,6,0,L|384:30,1,88.000002685547,2|0,3:2|3:2,2:0:0:0:
410,34,58611,1,8,3:2:0:0:
444,114,58947,2,0,B|487:107|487:107|469:330,1,240,8|8,3:2|3:2,2:0:0:0:
468,353,60079,6,0,B|428:337|428:337|381:348,1,80,2|0,3:2|2:0,2:0:0:0:
341,357,60576,1,8,2:0:0:0:
259,340,60901,1,0,3:2:0:0:
259,340,61034,6,0,B|219:356|219:356|167:344,1,88.000002685547,2|0,3:2|2:0,2:0:0:0:
131,341,61512,1,8,2:0:0:0:
47,368,61812,2,0,B|15:373|15:373|1:296|10:268,1,132.00000402832,8|0,2:0|3:2,2:0:0:0:
22,232,62474,1,8,3:2:0:0:
71,160,62818,1,0,3:2:0:0:
71,160,62991,6,0,P|64:116|52:73,1,88.000002685547,6|0,2:0|2:0,2:0:0:0:
45,30,63456,2,0,P|87:34|141:31,1,88.000002685547,8|8,3:2|3:2,2:0:0:0:
175,21,63982,1,2,3:2:0:0:
267,29,64295,1,0,3:2:0:0:
267,29,64451,2,0,P|309:22|357:40,1,88.000002685547,8|8,3:2|3:2,2:0:0:0:
389,57,64929,6,0,L|381:192,1,132.00000402832,2|8,3:2|2:0,2:0:0:0:
361,274,65734,2,0,B|396:289|431:276|416:266|453:254|487:268,2,132.00000402832,6|8|8,3:2|3:2|3:2,2:0:0:0:
322,253,66894,6,0,P|276:242|224:249,1,88.000002685547,6|0,3:2|2:0,2:0:0:0:
189,258,67389,1,8,3:2:0:0:
67,310,67883,2,0,P|55:267|56:224,1,88.000002685547,2|0,3:2|3:2,2:0:0:0:
71,182,68373,2,0,P|81:139|80:96,1,88.000002685547,8|8,2:0|3:2,2:0:0:0:
75,51,68852,5,6,2:0:0:0:
206,62,69341,2,0,L|202:151,1,88.000002685547,8|8,2:0|2:0,2:0:0:0:
202,194,69831,2,0,L|300:198,1,88.000002685547,2|0,2:0|2:0,2:0:0:0:
333,201,70322,1,8,2:0:0:0:
342,69,70811,1,6,2:0:0:0:
452,2,71294,6,0,P|466:50|473:112,1,88.000002685547,8|0,3:2|2:0,2:0:0:0:
473,131,71787,1,2,3:2:0:0:
469,218,72140,2,0,L|335:203,1,132.00000402832,0|8,3:2|3:2,2:0:0:0:
293,201,72751,1,2,2:0:0:0:
300,69,73227,5,8,1:2:0:0:
168,53,73712,2,0,L|173:146,1,88.000002685547,2|0,1:2|2:0,2:0:0:0:
175,184,74197,2,0,L|180:295,1,88.000002685547,8|8,1:2|1:2,2:0:0:0:
181,315,74694,5,6,2:0:0:0:
67,381,75181,2,0,P|52:332|45:270,1,88.000002685547,8|0,3:2|2:0,2:0:0:0:
49,251,75669,1,2,3:2:0:0:
25,166,75990,2,0,B|60:150|96:163|80:173|118:186|152:171,1,132.00000402832,0|8,3:2|3:2,2:0:0:0:
193,155,76632,5,2,1:2:0:0:
305,86,77119,1,8,1:2:0:0:
395,183,77652,2,0,P|451:171|480:122,1,88.000002685547,10|0,1:2|3:2,2:0:0:0:
484,108,78107,1,8,3:2:0:0:
499,25,78418,1,8,3:2:0:0:
499,25,78623,6,0,B|446:17|446:17|428:31|428:31|365:20,1,132.00000402832,6|8,2:0|3:2,2:0:0:0:
240,10,79597,2,0,P|240:73|253:125,1,88.000002685547,2|0,3:2|3:2,2:0:0:0:
253,140,80085,2,0,P|253:203|239:255,1,88.000002685547,8|8,2:0|3:2,2:0:0:0:
238,270,80552,1,2,2:0:0:0:
119,328,81040,5,8,1:2:0:0:
60,210,81528,2,0,B|99:187|99:187|151:199,1,88.000002685547,2|0,1:2|2:0,2:0:0:0:
183,208,82016,2,0,B|222:217|222:217|268:191,1,88.000002685547,8|8,1:2|1:2,2:0:0:0:
299,168,82516,5,6,2:0:0:0:
364,53,82999,2,0,P|320:39|277:30,1,88.000002685547,8|0,3:2|2:0,2:0:0:0:
235,33,83484,1,2,3:2:0:0:
151,49,83809,1,0,3:2:0:0:
151,49,83971,2,0,L|160:173,1,88.000002685547,8|8,2:0|3:2,2:0:0:0:
161,180,84472,5,6,2:0:0:0:
256,192,84634,12,0,87674,2:0:0:0:
170,230,100111,5,10,3:2:0:0:
286,202,100606,2,0,P|283:255|257:297,1,80,8|8,2:0|2:0,2:0:0:0:
302,306,101102,2,0,P|349:281|398:283,1,80,0|0,3:2|2:0,2:0:0:0:
387,240,101575,2,0,P|341:211|318:167,1,80,8|8,2:0|2:0,2:0:0:0:
325,150,102033,6,0,B|340:133|340:133|279:117|279:117|251:61|251:61|217:115|217:115|156:125|156:125|197:174|197:174|187:236|187:236|244:213,1,436.800014663086,0|8,3:2|2:0,2:0:0:0:
344,253,104496,6,0,P|326:289|296:314,1,80,8|0,2:0|2:0,2:0:0:0:
314,353,104965,2,0,P|353:352|390:366,1,80,0|0,3:2|3:2,2:0:0:0:
412,331,105465,2,0,P|391:298|384:259,1,80,8|8,2:0|2:0,2:0:0:0:
385,218,105965,6,0,B|385:171|385:171|409:160|409:160|324:47|324:47|237:160|237:160|263:171|263:171|263:227|263:227|301:227,1,480,0|10,3:2|3:2,2:0:0:0:
348,298,108229,1,0,2:0:0:0:
348,298,108384,6,0,P|351:338|370:372,1,80,8|8,2:0|2:0,2:0:0:0:
411,380,108859,2,0,P|442:356|463:322,1,80,0|0,3:2|2:0,2:0:0:0:
451,284,109346,2,0,P|414:268|374:269,1,80,8|0,2:0|2:0,2:0:0:0:
334,270,109834,6,0,P|244:149|392:127,1,360,0|0,3:2|2:0,2:0:0:0:
449,246,111801,6,0,P|401:245|349:263,1,80,10|0,3:2|2:0,2:0:0:0:
334,270,112284,2,0,P|295:278|255:276,1,80,8|0,2:0|2:0,2:0:0:0:
218,260,112768,1,0,3:2:0:0:
146,296,113088,2,0,B|127:301|112:309|112:309|62:298|21:270,1,120,0|8,3:2|2:0,2:0:0:0:
0,250,113731,5,0,3:2:0:0:
76,158,114243,1,12,2:0:0:0:
2,63,114730,1,12,2:0:0:0:
121,50,115218,2,0,P|172:47|213:50,1,80,12|0,2:0|2:0,2:0:0:0:
239,57,115698,6,0,B|266:39|306:32|306:32|367:92|434:73,1,200,2|8,3:2|2:0,2:0:0:0:
461,75,116673,2,0,L|459:173,1,80,0|0,3:2|2:0,2:0:0:0:
459,195,117147,1,8,2:0:0:0:
510,304,117621,6,0,P|462:316|416:307,1,80,0|0,3:2|3:2,2:0:0:0:
393,302,118095,2,0,P|353:299|315:310,1,80,8|8,2:0|2:0,2:0:0:0:
277,325,118589,1,0,3:2:0:0:
198,340,118919,2,0,P|180:282|177:222,1,120,12|8,2:0|2:0,2:0:0:0:
178,182,119572,6,0,P|130:120|71:206,1,200,0|8,3:2|2:0,2:0:0:0:
73,229,120559,2,0,P|113:242|144:268,1,80,0|0,3:2|2:0,2:0:0:0:
165,298,121046,1,8,2:0:0:0:
265,232,121534,6,0,P|305:213|340:180,1,80,0|0,3:2|2:0,2:0:0:0:
369,205,122034,2,0,P|365:250|376:297,1,80,8|8,2:0|2:0,2:0:0:0:
391,318,122506,2,0,L|462:322,2,40,0|0|0,3:2|3:2|2:0,2:0:0:0:
351,325,123028,2,0,P|314:351|268:364,1,80,8|8,2:0|2:0,2:0:0:0:
241,358,123485,6,0,L|230:260,1,80,2|0,3:2|2:0,2:0:0:0:
227,238,123981,1,8,2:0:0:0:
144,209,124288,1,8,2:0:0:0:
144,209,124474,2,0,L|155:111,1,80,0|0,3:2|3:2,2:0:0:0:
159,90,124954,1,8,2:0:0:0:
210,20,125274,1,8,2:0:0:0:
210,20,125434,6,0,B|244:27|262:23|262:23|265:2|329:7,1,120,0|8,3:2|2:0,2:0:0:0:
405,16,126274,2,0,L|399:58,1,40,8|0,2:0|3:2,2:0:0:0:
406,175,126925,2,0,L|363:167,2,40,8|0|8,2:0|2:0|2:0,2:0:0:0:
403,215,127416,6,0,L|391:301,1,80,2|0,3:2|2:0,2:0:0:0:
390,334,127886,2,0,L|433:342,2,40,8|0|8,2:0|2:0|2:0,2:0:0:0:
363,364,128357,6,0,P|313:343|254:343,1,80,2|0,3:2|3:2,2:0:0:0:
246,349,128861,1,8,2:0:0:0:
163,383,129197,1,8,2:0:0:0:
163,383,129365,6,0,B|154:290,1,80,2|0,3:2|2:0,2:0:0:0:
153,261,129836,1,8,2:0:0:0:
166,179,130134,1,8,2:0:0:0:
166,179,130324,2,0,B|212:174|212:174|254:203|276:208,1,120,0|8,3:2|2:0,2:0:0:0:
408,191,131286,6,0,P|422:94|316:67,1,220.000006713867,6|8,3:2|2:0,2:0:0:0:
282,82,132273,2,0,B|232:119|167:97|205:79|148:40|77:80,1,220.000006713867,6|8,3:2|2:0,2:0:0:0:
38,100,133289,2,0,L|47:207,1,88.000002685547,6|0,3:2|3:2,2:0:0:0:
52,231,133743,1,8,3:2:0:0:
0,302,134046,2,0,B|65:330|65:330|130:282,1,132.00000402832,8|0,3:2|3:2,2:0:0:0:
145,262,134701,1,8,3:2:0:0:
271,296,135232,6,0,B|373:307|335:193|452:196,1,220.000006713867,6|8,3:2|2:0,2:0:0:0:
451,152,136152,2,0,B|408:114|405:55|405:55|374:100|312:113,1,220.000006713867,6|8,3:2|2:0,2:0:0:0:
271,122,137152,2,0,L|286:292,1,132.00000402832,6|8,3:2|3:2,2:0:0:0:
194,262,137945,2,0,L|179:92,1,132.00000402832,2|0,3:2|3:2,2:0:0:0:
178,77,138617,1,8,3:2:0:0:
46,72,139100,6,0,L|67:293,1,220.000006713867,6|8,3:2|2:0,2:0:0:0:
74,333,140068,2,0,B|131:342|159:324|159:324|217:331|217:331|263:309|313:331,1,220.000006713867,6|8,3:2|2:0,2:0:0:0:
324,350,141058,2,0,P|388:373|416:340,1,88.000002685547,6|0,3:2|2:0,2:0:0:0:
426,331,141543,1,8,3:2:0:0:
512,311,141867,2,0,B|493:280|490:251|490:251|456:255|423:242,1,132.00000402832,8|0,3:2|3:2,2:0:0:0:
381,229,142515,1,8,3:2:0:0:
256,152,143015,6,0,P|276:55|372:78,1,220.000006713867,6|8,3:2|2:0,2:0:0:0:
396,111,143956,2,0,P|402:201|441:328,1,220.000006713867,6|8,3:2|2:0,2:0:0:0:
464,361,144968,6,0,L|332:373,2,132.00000402832,6|8|2,1:2|1:2|1:2,2:0:0:0:
499,233,146399,1,8,1:2:0:0:
418,143,146907,6,0,P|355:139|332:271,1,200,2|0,3:2|2:0,2:0:0:0:
337,283,147891,1,0,3:2:0:0:
227,332,148382,2,0,P|191:323|146:334,1,80,8|8,2:0|2:0,2:0:0:0:
113,349,148875,2,0,P|77:295|78:230,1,120,0|8,3:2|2:0,2:0:0:0:
105,117,149858,1,0,3:2:0:0:
230,131,150341,2,0,L|301:140,2,40,8|0|8,2:0|2:0|2:0,2:0:0:0:
203,161,150836,6,0,P|198:221|334:244,1,200,2|0,3:2|2:0,2:0:0:0:
350,245,151788,2,0,P|389:242|425:224,1,80,0|0,3:2|2:0,2:0:0:0:
448,192,152264,1,8,2:0:0:0:
420,118,152553,1,8,2:0:0:0:
420,119,152747,6,0,P|384:101|345:101,1,80,2|0,3:2|2:0,2:0:0:0:
308,117,153242,2,0,B|272:134|272:134|225:111,1,80,8|0,2:0|2:0,2:0:0:0:
200,97,153738,2,0,L|198:33,2,40,8|8|0,3:2|3:2|2:0,2:0:0:0:
164,115,154237,1,8,2:0:0:0:
44,110,154741,6,0,L|33:340,1,200,2|0,3:2|2:0,2:0:0:0:
32,349,155692,2,0,P|70:342|109:351,1,80,0|0,3:2|3:2,2:0:0:0:
140,326,156175,2,0,P|118:292|113:252,1,80,8|8,2:0|2:0,2:0:0:0:
132,217,156659,2,0,P|170:210|209:219,1,80,0|0,3:2|2:0,2:0:0:0:
245,238,157143,1,8,2:0:0:0:
322,261,157450,6,0,B|336:229|324:197|315:211|304:177|317:146,1,120,0|0,2:0|2:0,2:0:0:0:
347,121,158102,2,0,L|353:81,2,40,8|0|8,2:0|2:0|2:0,2:0:0:0:
389,127,158618,6,0,P|473:99|441:15,1,200,2|0,3:2|2:0,2:0:0:0:
402,0,159577,2,0,B|353:10|309:0|309:0|289:3|266:20,1,120,8|8,3:2|2:0,2:0:0:0:
275,92,160391,1,8,2:0:0:0:
275,92,160576,6,0,B|228:90|202:84|202:84|257:217|221:261|168:268|151:258|124:221|131:203|155:171,1,360,6|0,3:2|2:0,2:0:0:0:
39,124,162527,5,6,2:0:0:0:
5,239,163007,2,0,P|10:278|37:319,1,88.000002685547,8|0,3:2|2:0,2:0:0:0:
77,334,163487,2,0,L|237:325,1,132.00000402832,2|8,3:2|2:0,2:0:0:0:
300,319,164259,1,0,3:2:0:0:
300,319,164462,2,0,P|326:251|268:219,1,132.00000402832,2|8,3:2|2:0,2:0:0:0:
160,170,165419,6,0,L|165:74,1,88.000002685547,2|0,3:2|3:2,2:0:0:0:
168,38,165923,1,8,3:2:0:0:
255,52,166282,2,0,B|314:75|315:128|291:217|241:278,1,220.000006713867,8|8,3:2|3:2,2:0:0:0:
217,268,167404,6,0,B|117:252|117:252|211:160,1,220.000006713867,2|0,3:2|3:2,2:0:0:0:
222,131,168374,2,0,B|134:114,1,88.000002685547,2|0,3:2|2:3,2:0:0:0:
92,107,168846,1,8,2:0:0:0:
19,56,169137,6,0,B|14:24|14:24|92:3|161:31,1,176.000005371094,8|8,2:0|3:2,2:0:0:0:
230,73,170141,1,8,3:2:0:0:
230,73,170303,6,0,B|221:122|221:122|216:161|230:181|250:194,1,132.00000402832,2|8,2:0|3:2,2:0:0:0:
337,170,171127,1,8,3:2:0:0:
337,170,171295,2,0,P|334:220|323:259,1,88.000002685547,2|0,3:2|3:2,2:0:0:0:
311,298,171771,2,0,P|267:290|235:315,1,88.000002685547,8|8,3:2|3:2,2:0:0:0:
217,355,172254,6,0,L|80:347,1,132.00000402832,2|8,3:2|2:0,2:0:0:0:
2,376,173041,2,0,B|-14:340|0:304|10:320|22:282|8:247,2,132.00000402832,6|8|8,3:2|3:2|3:2,2:0:0:0:
45,381,174217,6,0,P|89:382|133:370,1,88.000002685547,6|0,3:2|2:0,2:0:0:0:
168,347,174704,2,0,P|169:303|157:260,1,88.000002685547,8|8,3:2|2:0,2:0:0:0:
137,221,175192,1,2,3:2:0:0:
155,134,175517,1,0,3:2:0:0:
155,134,175680,2,0,P|194:153|237:159,1,88.000002685547,8|8,2:0|3:2,2:0:0:0:
280,169,176175,6,0,L|265:303,1,132.00000402832,6|8,2:0|2:0,2:0:0:0:
392,315,177150,2,0,L|406:180,1,132.00000402832,6|8,2:0|2:0,2:0:0:0:
346,85,178133,1,6,2:0:0:0:
448,1,178601,6,0,P|462:49|469:110,1,88.000002685547,8|0,3:2|2:0,2:0:0:0:
471,130,179103,1,2,3:2:0:0:
467,217,179429,2,0,L|333:204,1,132.00000402832,0|8,3:2|3:2,2:0:0:0:
291,201,180079,1,2,2:0:0:0:
303,69,180567,6,0,L|214:71,1,88.000002685547,8|0,1:2|2:0,2:0:0:0:
170,75,181054,1,2,1:2:0:0:
173,198,181542,2,0,L|178:308,1,88.000002685547,8|8,1:2|1:2,2:0:0:0:
178,329,182030,5,6,2:0:0:0:
57,382,182507,2,0,P|43:334|36:273,1,88.000002685547,8|0,3:2|2:0,2:0:0:0:
37,251,183008,1,2,3:2:0:0:
15,166,183342,2,0,B|51:150|86:164|71:174|108:186|143:172,1,132.00000402832,0|8,3:2|3:2,2:0:0:0:
184,158,183955,5,2,1:2:0:0:
295,87,184431,1,8,1:2:0:0:
393,177,184939,2,0,B|435:195|435:195|471:171,1,88.000002685547,2|0,1:2|3:2,2:0:0:0:
472,127,185420,2,0,L|471:39,1,88.000002685547,8|8,3:2|3:2,2:0:0:0:
452,10,185930,6,0,B|400:3|400:3|383:16|383:16|321:6,1,132.00000402832,6|8,2:0|3:2,2:0:0:0:
218,85,186876,2,0,P|218:148|231:199,1,88.000002685547,2|0,3:2|3:2,2:0:0:0:
235,214,187378,2,0,P|235:277|222:328,1,88.000002685547,8|8,2:0|3:2,2:0:0:0:
218,343,187862,1,6,2:0:0:0:
86,329,188349,5,8,1:2:0:0:
26,211,188858,2,0,B|65:189|65:189|116:201,1,88.000002685547,2|0,1:2|2:0,2:0:0:0:
149,208,189334,2,0,B|189:217|189:217|235:191,1,88.000002685547,8|0,1:2|1:2,2:0:0:0:
263,165,189839,5,6,2:0:0:0:
334,53,190304,2,0,P|294:41|244:36,1,88.000002685547,8|0,3:2|2:0,2:0:0:0:
205,44,190802,1,2,3:2:0:0:
177,130,191124,1,0,3:2:0:0:
177,130,191285,2,0,L|186:253,1,88.000002685547,8|8,2:0|3:2,2:0:0:0:
200,253,191785,6,0,B|384:253|384:253|287:149|287:149|253:178,1,360.000013732911,6|8,2:0|2:0,2:0:0:0:
184,176,194042,2,0,P|160:174|136:170,1,48,8|0,2:0|3:2,2:0:0:0:
40,139,194998,1,0,3:2:0:0:
174,89,195731,6,0,B|239:2|239:2|300:95|300:95|274:95,1,240,2|0,3:2|3:2,2:0:0:0:
225,154,198413,2,0,L|225:201,1,47.9999985351563,8|0,3:2|3:2,2:0:0:0:
166,316,199675,6,0,B|124:367|67:320|67:320|41:249|107:230,1,224,6|8,2:0|2:0,2:0:0:0:
183,237,202398,2,0,L|183:186,1,48,0|0,3:2|3:2,2:0:0:0:
154,104,203552,6,0,P|224:54|249:136,1,192,2|0,2:0|2:0,2:0:0:0:
225,202,205966,2,0,L|224:239,1,32,8|0,3:2|3:2,2:0:0:0:
222,316,206771,1,0,3:2:0:0:
324,314,207576,6,0,B|324:267|324:267|305:258|305:258|374:165|374:165|446:258|446:258|425:267|425:267|425:314|425:314|400:314,1,384,0|0,2:0|2:0,2:0:0:0:
