osu file format v14

[General]
AudioFilename: audio.mp3
AudioLeadIn: 0
PreviewTime: 163007
Countdown: 0
SampleSet: Soft
StackLeniency: 0.7
Mode: 0
LetterboxInBreaks: 0
WidescreenStoryboard: 1

[Editor]
Bookmarks: 8368,23974,39573,55204,70812,84472,100059,115698,131286,146907,162527,178133,191785
DistanceSpacing: 1.2
BeatDivisor: 6
GridSize: 8
TimelineZoom: 2.099999

[Metadata]
Title:Haru no Tonari
TitleUnicode:はるのとなり
Artist:Sasaki Eri
ArtistUnicode:佐々木恵梨
Creator:GfMRT
Version:Hard
Source:ゆるキャン△ SEASON2
Tags:laid-back yurukyan yurucamp yuru camp ed2 ending2 full anime japanese pop jpop folk coloured glazee coloured_glazee
BeatmapID:2892426
BeatmapSetID:1400388

[Difficulty]
HPDrainRate:4.6
CircleSize:4
OverallDifficulty:5.4
ApproachRate:7.6
SliderMultiplier:1.5
SliderTickRate:1

[Events]
//Background and Video events
0,0,"pid_84429567.jpg",0,0
//Break Periods
2,87924,99301
//Storyboard Layer 0 (Background)
//Storyboard Layer 1 (Fail)
//Storyboard Layer 2 (Pass)
//Storyboard Layer 3 (Foreground)
//Storyboard Layer 4 (Overlay)
//Storyboard Sound Samples

[TimingPoints]
416,487.80487804878,4,2,1,15,1,0
579,487.80487804878,4,2,1,15,1,0
1554,465.116279069767,4,2,1,15,1,0
2484,500,4,2,1,15,1,0
2817,476.190476190476,4,2,1,15,1,0
3134,-100,4,2,1,5,0,0
3293,-100,4,2,1,15,0,0
3610,-100,4,2,1,5,0,0
3769,599.400599400599,4,2,1,15,1,0
4368,371.517027863777,4,2,1,15,1,0
4492,472.44094488189,4,2,1,15,1,0
4964,472.44094488189,4,2,1,15,1,0
6381,518.358531317495,4,2,1,15,1,0
6381,-125,4,2,1,15,0,0
6467,-125,4,2,1,5,0,0
8454,468.75,4,2,1,20,1,0
9391,487.80487804878,4,2,1,20,1,0
9878,465.116279069767,4,2,1,20,1,0
10343,512.820512820513,4,2,1,20,1,0
10684,498.13200498132,4,2,1,20,1,0
10684,-125,4,2,1,20,0,0
12344,454.545454545455,4,2,1,20,1,0
12798,472.44094488189,4,2,1,20,1,0
13585,472.44094488189,4,2,1,20,1,0
13772,487.80487804878,4,2,1,20,1,0
13934,-100,4,2,1,5,0,0
14097,-100,4,2,1,20,0,0
14585,-117.647058823529,4,2,1,20,0,0
14666,-117.647058823529,4,2,1,5,0,0
16211,470.588235294117,4,2,1,20,1,0
17152,480,4,2,1,20,1,0
17632,456.273764258555,4,2,1,20,1,0
18088,495.867768595041,4,2,1,20,1,0
18418,-125,4,2,1,20,0,0
20071,474.308300395257,4,2,1,20,1,0
21019,491.803278688525,4,2,1,20,1,0
21674,-100,4,2,1,5,0,0
21837,-100,4,2,1,20,0,0
22002,511.727078891258,4,2,1,20,1,0
22343,-125,4,2,1,20,0,0
22428,-125,4,2,1,5,0,0
23537,466.926070038911,4,2,1,20,1,0
23537,-125,4,2,1,20,0,0
24003,-90.9090909090909,4,2,1,30,0,0
24469,497.92531120332,4,2,1,30,1,0
24966,472.44094488189,4,2,1,30,1,0
24966,-90.9090909090909,4,2,1,30,0,0
25438,491.4,4,2,1,30,1,0
25929,470.588235294118,4,2,1,30,1,0
25929,-90.9090909090909,4,2,1,30,0,0
26399,498.960498960499,4,2,1,30,1,0
26399,-90.9090909090909,4,2,1,30,0,0
27396,444.444444444444,4,2,1,30,1,0
27895,481.927710843374,4,2,1,30,1,0
27895,-90.9090909090909,4,2,1,30,0,0
28858,487.804878048781,4,2,1,30,1,0
28858,-90.9090909090909,4,2,1,30,0,0
29345,493.827160493828,4,2,1,30,1,0
29838,489.795918367348,4,2,1,30,1,0
29838,-90.9090909090909,4,2,1,30,0,0
30491,-90.9090909090909,4,2,1,5,0,0
30653,-90.9090909090909,4,2,1,30,0,0
30817,482.575020308365,4,2,1,30,1,0
30817,-90.9090909090909,4,2,1,30,0,0
31138,510.63829787234,4,2,1,30,1,0
31308,-90.9090909090909,4,2,1,30,0,0
31648,476.190476190477,4,2,1,30,1,0
31806,-90.9090909090909,4,2,1,30,0,0
32282,481.927710843374,4,2,1,30,1,0
32763,-90.9090909090909,4,2,1,30,0,0
33245,508.474576271187,4,2,1,30,1,0
33753,504.201680672269,4,2,1,30,1,0
33753,-90.9090909090909,4,2,1,30,0,0
34257,428.571428571429,4,2,1,30,1,0
34542,581.113801452785,4,2,1,30,1,0
34735,444.444444444444,4,2,1,30,1,0
34735,-90.9090909090909,4,2,1,30,0,0
35032,476.190476190476,4,2,1,30,1,0
35190,-90.9090909090909,4,2,1,30,0,0
35508,572.792362768496,4,2,1,30,1,0
35698,480.000000000001,4,2,1,30,1,0
35698,-90.9090909090909,4,2,1,30,0,0
36498,579.710144927536,4,2,1,30,1,0
36691,473.372781065089,4,2,1,30,1,0
36691,-90.9090909090909,4,2,1,30,0,0
36848,-90.9090909090909,4,2,1,5,0,0
37006,-90.9090909090909,4,2,1,30,0,0
37164,491.803278688525,4,2,1,30,1,0
37164,-90.9090909090909,4,2,1,30,0,0
37327,-90.9090909090909,4,2,1,5,0,0
37491,-90.9090909090909,4,2,1,30,0,0
37655,461.538461538462,4,2,1,30,1,0
37655,-90.9090909090909,4,2,1,30,0,0
38116,437.956204379562,4,2,1,30,1,0
38116,-90.9090909090909,4,2,1,30,0,0
38261,-90.9090909090909,4,2,1,5,0,0
38407,544.21768707483,4,2,1,30,1,0
38588,422.535211267606,4,2,1,30,1,0
38588,-90.9090909090909,4,2,1,30,0,0
38869,586.79706601467,4,2,1,30,1,0
39064,459.770114942529,4,2,1,30,1,0
39064,-90.9090909090909,4,2,1,30,0,0
39370,610.687022900763,4,2,1,30,1,0
39573,488.798370672097,4,2,1,39,1,0
39573,-90.9090909090909,4,2,1,39,0,0
40061,461.538461538462,4,2,1,39,1,0
40368,645.161290322581,4,2,1,39,1,0
40583,487.80487804878,4,2,1,39,1,0
40583,-90.9090909090909,4,2,1,39,0,0
41232,-90.9090909090909,4,2,1,5,0,0
41396,512.820512820513,4,2,1,39,1,0
41566,487.804878048781,4,2,1,39,1,0
41566,-90.9090909090909,4,2,1,39,0,0
42053,441.176470588235,4,2,1,39,1,0
42200,-100,4,2,1,5,0,0
42347,582.52427184466,4,2,1,39,1,0
42541,472.44094488189,4,2,1,39,1,0
43013,488.798370672098,4,2,1,39,1,0
43013,-90.9090909090909,4,2,1,39,0,0
44479,465.116279069768,4,2,1,39,1,0
44479,-90.9090909090909,4,2,1,39,0,0
45254,550.45871559633,4,2,1,39,1,0
45437,487.80487804878,4,2,1,39,1,0
45437,-90.9090909090909,4,2,1,39,0,0
49013,-90.9090909090909,4,2,1,5,0,0
49176,-90.9090909090909,4,2,1,39,0,0
49338,493.827160493827,4,2,1,39,1,0
49339,-90.9090909090909,4,2,1,39,0,0
49831,456.273764258555,4,2,1,39,1,0
49831,-90.9090909090909,4,2,1,39,0,0
49983,-90.9090909090909,4,2,1,5,0,0
50135,-90.9090909090909,4,2,1,39,0,0
50136,547.945205479452,4,2,1,39,1,0
50318,487.80487804878,4,2,1,39,1,0
50806,495.867768595041,4,2,1,39,1,0
50806,-90.9090909090909,4,2,1,39,0,0
51136,508.474576271186,4,2,1,39,1,0
51305,480,4,2,1,39,1,0
51305,-90.9090909090909,4,2,1,39,0,0
51785,436.363636363636,4,2,1,39,1,0
51785,-90.9090909090909,4,2,1,39,0,0
51930,-90.9090909090909,4,2,1,5,0,0
52075,571.428571428571,4,2,1,39,1,0
52265,480,4,2,1,39,1,0
52265,-90.9090909090909,4,2,1,39,0,0
52745,566.037735849057,4,2,1,39,1,0
53122,434.782608695652,4,2,1,39,1,0
53266,462.42774566474,4,2,1,39,1,0
53266,-90.9090909090909,4,2,1,39,0,0
53574,-90.9090909090909,4,2,1,5,0,0
53728,491.803278688525,4,2,1,39,1,0
53728,-90.9090909090909,4,2,1,39,0,0
54055,-90.9090909090909,4,2,1,5,0,0
54219,-90.9090909090909,4,2,1,39,0,0
54546,-90.9090909090909,4,2,1,5,0,0
54711,-90.9090909090909,4,2,1,39,0,0
55038,-90.9090909090909,4,2,1,5,0,0
55203,-90.9090909090909,4,2,2,48,0,0
55204,487.80487804878,4,2,2,48,1,0
55691,-83.3333333333333,4,2,2,48,0,0
56667,365.853658536585,4,2,2,48,1,0
56911,733.94495412844,4,2,2,48,1,0
57155,476.190476190476,4,2,2,48,1,0
57155,-83.3333333333333,4,2,2,48,0,0
57631,416.666666666667,4,2,2,48,1,0
57631,-83.3333333333333,4,2,2,48,0,0
57908,600,4,2,2,48,1,0
58107,504.201680672269,4,2,2,48,1,0
58947,465.116279069767,4,2,2,48,1,0
59102,-83.3333333333333,4,2,2,48,0,0
59877,606.060606060606,4,2,2,48,1,0
60079,497.92531120332,4,2,2,48,1,0
60079,-83.3333333333333,4,2,2,48,0,0
60576,487.80487804878,4,2,2,48,1,0
60901,400,4,2,2,48,1,0
61034,428.571428571429,4,2,2,48,1,0
61034,-83.3333333333333,4,2,2,48,0,0
61176,-83.3333333333333,4,2,2,5,0,0
61319,444.444444444444,4,2,2,48,1,0
61512,451.127819548872,4,2,2,48,1,0
61512,-83.3333333333333,4,2,2,48,0,0
61812,471.512770137525,4,2,2,48,1,0
62283,575.539568345324,4,2,2,48,1,0
62474,517.241379310345,4,2,2,48,1,0
62991,465.116279069768,4,2,2,48,1,0
62991,-83.3333333333333,4,2,2,48,0,0
63456,492.813141683778,4,2,2,48,1,0
63784,594.059405940594,4,2,2,48,1,0
63982,469.667318982387,4,2,2,48,1,0
63982,-83.3333333333333,4,2,2,48,0,0
64138,-83.3333333333333,4,2,2,5,0,0
64295,-83.3333333333333,4,2,2,48,0,0
64451,478.08764940239,4,2,2,48,1,0
64929,483.48106365834,4,2,2,48,1,0
64929,-83.3333333333333,4,2,2,48,0,0
65090,-83.3333333333333,4,2,2,5,0,0
65251,-83.3333333333333,4,2,2,48,0,0
65734,487.804878048781,4,2,2,48,1,0
65734,-83.3333333333333,4,2,2,48,0,0
66059,-83.3333333333333,4,2,2,5,0,0
66221,-83.3333333333333,4,2,2,48,0,0
66709,556.844547563805,4,2,2,48,1,0
66894,495.867768595041,4,2,2,48,1,0
66894,-83.3333333333333,4,2,2,48,0,0
67720,489.795918367346,4,2,2,48,1,0
68373,475.247524752475,4,2,2,48,1,0
68689,489.795918367346,4,2,2,48,1,0
68852,489.795918367346,4,2,2,48,1,0
68852,-83.3333333333333,4,2,2,48,0,0
69831,461.538461538462,4,2,2,48,1,0
70138,552.995391705069,4,2,2,48,1,0
70322,489.795918367346,4,2,2,48,1,0
70322,-83.3333333333333,4,2,2,48,0,0
70811,-83.3333333333333,4,2,2,46,0,0
70812,482.897384305834,4,2,2,46,1,0
71294,493.827160493826,4,2,2,46,1,0
71294,-83.3333333333333,4,2,2,46,0,0
71787,530.973451327434,4,2,2,46,1,0
72140,446.096654275093,4,2,2,46,1,0
72140,-82.0224719101124,4,2,2,46,0,0
72278,463.320463320463,4,2,2,46,1,0
72586,495.867768595041,4,2,2,46,1,0
72751,476.190476190476,4,2,2,46,1,0
72751,-83.3333333333333,4,2,2,46,0,0
73227,485.82995951417,4,2,2,46,1,0
73227,-83.3333333333333,4,2,2,46,0,0
73712,485.82995951417,4,2,2,46,1,0
73712,-83.3333333333333,4,2,2,46,0,0
74197,497.92531120332,4,2,2,46,1,0
74694,487.80487804878,4,2,2,46,1,0
74694,-83.3333333333333,4,2,2,46,0,0
75669,481.927710843373,4,2,2,46,1,0
75990,-83.3333333333333,4,2,2,46,0,0
76632,487.80487804878,4,2,2,46,1,0
76632,-83.3333333333333,4,2,2,46,0,0
77119,533.333333333332,4,2,2,46,1,0
77119,-83.3333333333333,4,2,2,46,0,0
77652,451.127819548872,4,2,2,46,1,0
77952,466.926070038911,4,2,2,46,1,0
78418,615.384615384615,4,2,2,46,1,0
78622,487.80487804878,4,2,2,46,1,0
78623,-83.3333333333333,4,2,2,46,0,0
80085,458.015267175573,4,2,2,46,1,0
80390,487.80487804878,4,2,2,46,1,0
80552,-83.3333333333333,4,2,2,46,0,0
82016,499.999999999999,4,2,2,46,1,0
82516,483.870967741935,4,2,2,46,1,0
82516,-83.3333333333333,4,2,2,46,0,0
82999,476.190476190476,4,2,2,46,1,0
82999,-83.3333333333333,4,2,2,46,0,0
83316,504.201680672269,4,2,2,46,1,0
83484,487.80487804878,4,2,2,46,1,0
83971,465.116279069767,4,2,2,46,1,0
84281,574.162679425837,4,2,2,46,1,0
84472,487.80487804878,4,2,1,27,1,0
84472,-205.13017630176,4,2,1,27,0,0
85447,468.75,4,2,2,5,1,0
86384,517.241379310345,4,2,2,5,1,0
86729,454.545454545455,4,2,2,5,1,0
87183,491.803278688525,4,2,1,15,1,0
87674,580.27079303675,4,2,1,15,1,0
88254,480,4,2,1,15,1,0
88414,470.957613814757,4,2,1,15,1,0
88716,453.514739229025,4,2,1,15,1,0
88868,476.190476190476,4,2,1,15,1,0
89344,465.116279069767,4,2,1,15,1,0
89809,488.798370672098,4,2,1,15,1,0
90297,470.551329307505,4,2,1,15,1,0
90767,500,4,2,1,15,1,0
91080,487.80487804878,4,2,1,15,1,0
91567,508.474576271186,4,2,1,15,1,0
92075,660.06600660066,4,2,1,15,1,0
92295,481.927710843374,4,2,1,15,1,0
92776,483.870967741935,4,2,1,15,1,0
93259,468.75,4,2,1,15,1,0
94196,500,4,2,1,15,1,0
94529,469.667318982387,4,2,1,15,1,0
95468,588.235294117647,4,2,1,15,1,0
96252,467.653936087295,4,2,1,15,1,0
96534,424.028268551237,4,2,1,15,1,0
96676,477.13717693837,4,2,1,15,1,0
98107,472.813238770686,4,2,2,5,1,0
99525,586.797066014669,4,2,2,5,1,0
100111,495.867768595042,4,2,1,20,1,0
101102,422.535211267606,4,2,1,20,1,0
101383,576.923076923077,4,2,1,20,1,0
101575,458.015267175573,4,2,1,20,1,0
102033,498.960498960501,4,2,1,20,1,0
104028,468.750000000002,4,2,1,20,1,0
104965,500.000000000002,4,2,1,20,1,0
105631,-100,4,2,1,5,0,0
105798,-100,4,2,1,20,0,0
105965,488.798370672099,4,2,1,20,1,0
106290,-125,4,2,1,20,0,0
107920,464.216634429402,4,2,1,20,1,0
108384,475.247524752477,4,2,1,20,1,0
108542,-100,4,2,1,5,0,0
108700,-100,4,2,1,20,0,0
108859,487.804878048782,4,2,1,20,1,0
109834,491.803278688526,4,2,1,20,1,0
110161,-125,4,2,1,20,0,0
111801,483.870967741936,4,2,1,20,1,0
112768,480,4,2,1,20,1,0
113088,455.407969639469,4,2,1,20,1,0
113390,-100,4,2,1,5,0,0
113543,566.037735849057,4,2,1,20,1,0
113731,512.820512820513,4,2,1,20,1,0
114072,-100,4,2,1,5,0,0
114243,487.804878048781,4,2,1,15,1,0
114568,-100,4,2,1,5,0,0
114730,-100,4,2,1,22,0,0
115055,-100,4,2,1,5,0,0
115218,480.000000000001,4,2,1,28,1,0
115218,-90.9090909090909,4,2,1,28,0,0
115538,-90.9090909090909,4,2,1,5,0,0
115698,487.804878048782,4,2,1,35,1,0
115698,-90.9090909090909,4,2,1,35,0,0
116673,474.308300395258,4,2,1,35,1,0
116673,-90.9090909090909,4,2,1,35,0,0
118095,494.845360824743,4,2,1,35,1,0
118095,-90.9090909090909,4,2,1,35,0,0
118259,-90.9090909090909,4,2,1,5,0,0
118424,-90.9090909090909,4,2,1,35,0,0
118753,-90.9090909090909,4,2,1,5,0,0
118919,-90.9090909090909,4,2,1,35,0,0
119248,-90.9090909090909,4,2,1,5,0,0
119414,474.308300395258,4,2,1,35,1,0
119414,-95.8956655159187,4,2,1,35,0,0
119493,-95.8956655159187,4,2,1,5,0,0
119572,513.918629550321,4,2,1,35,1,0
120085,415.023863872173,4,2,1,35,1,0
120085,-90.9090909090909,4,2,1,35,0,0
120223,-90.9090909090909,4,2,1,5,0,0
120361,-90.9090909090909,4,2,1,35,0,0
120362,592.592592592593,4,2,1,35,1,0
120559,487.80487804878,4,2,1,35,1,0
120559,-90.9090909090909,4,2,1,35,0,0
121534,499.999999999999,4,2,1,35,1,0
121534,-90.9090909090909,4,2,1,35,0,0
122034,472.440944881889,4,2,1,35,1,0
122034,-90.9090909090909,4,2,1,35,0,0
122191,-90.9090909090909,4,2,1,5,0,0
122348,-90.9090909090909,4,2,1,35,0,0
122506,508.474576271186,4,2,1,35,1,0
122844,552.995391705069,4,2,1,35,1,0
123028,458.015267175573,4,2,1,35,1,0
123028,-90.9090909090909,4,2,1,35,0,0
123180,-90.9090909090909,4,2,1,5,0,0
123333,458.015267175573,4,2,1,35,1,0
123485,-90.9090909090909,4,2,1,35,0,0
123791,571.428571428571,4,2,1,35,1,0
123981,461.538461538462,4,2,1,35,1,0
123981,-90.9090909090909,4,2,1,35,0,0
124134,-90.9090909090909,4,2,1,5,0,0
124288,558.139534883721,4,2,1,35,1,0
124474,480,4,2,1,35,1,0
124474,-90.9090909090909,4,2,1,35,0,0
124634,-90.9090909090909,4,2,1,5,0,0
124794,-90.9090909090909,4,2,1,35,0,0
125114,-90.9090909090909,4,2,1,5,0,0
125274,-90.9090909090909,4,2,1,35,0,0
125434,521.739130434783,4,2,1,35,1,0
125434,-87.2412889703956,4,2,1,35,0,0
125600,-90.9090909090909,4,2,1,5,0,0
125767,563.380281690141,4,2,1,35,1,0
125954,480,4,2,1,35,1,0
126274,-92.28154967395,4,2,1,35,0,0
126434,491.803278688525,4,2,1,35,1,0
126925,476.190476190476,4,2,1,35,1,0
127242,524.017467248908,4,2,1,35,1,0
127416,470.588235294118,4,2,1,35,1,0
127416,-90.9090909090909,4,2,1,35,0,0
128357,504.201680672269,4,2,1,35,1,0
128357,-90.9090909090909,4,2,1,35,0,0
128525,-90.9090909090909,4,2,1,5,0,0
128693,-90.9090909090909,4,2,1,35,0,0
129029,-90.9090909090909,4,2,1,5,0,0
129197,-90.9090909090909,4,2,1,35,0,0
129365,471.512770137525,4,2,1,35,1,0
129365,-90.9090909090909,4,2,1,35,0,0
129836,447.761194029851,4,2,1,35,1,0
129836,-90.9090909090909,4,2,1,35,0,0
130134,571.428571428571,4,2,1,35,1,0
130324,468.75,4,2,1,35,1,0
130324,-79.254079254079,4,2,1,35,0,0
130596,457.142857142857,4,2,1,35,1,0
130791,454.545454545455,4,2,1,35,1,0
131094,576.923076923077,4,2,1,35,1,0
131286,493.827160493827,4,2,2,49,1,0
131286,-83.3333333333333,4,2,2,49,0,0
132273,508.474576271186,4,2,2,49,1,0
132273,-83.3333333333333,4,2,2,49,0,0
133289,454.545454545455,4,2,2,49,1,0
133289,-83.3333333333333,4,2,2,49,0,0
133440,-83.3333333333333,4,2,2,5,0,0
133592,-83.3333333333333,4,2,2,49,0,0
134122,-83.3333333333333,4,2,2,5,0,0
134197,-83.3333333333333,4,2,2,49,0,0
134501,600,4,2,2,49,1,0
134701,552.995391705069,4,2,2,49,1,0
134701,-83.3333333333333,4,2,2,49,0,0
134885,-83.3333333333333,4,2,2,5,0,0
135069,491.803278688525,4,2,2,49,1,0
135232,440.366972477064,4,2,2,49,1,0
135232,-83.3333333333333,4,2,2,49,0,0
135672,480,4,2,2,49,1,0
136152,500,4,2,2,49,1,0
136152,-83.3333333333333,4,2,2,49,0,0
137152,476.190476190476,4,2,2,49,1,0
137152,-83.3333333333333,4,2,2,49,0,0
138421,588.235294117647,4,2,2,49,1,0
138617,483.870967741935,4,2,2,49,1,0
138617,-83.3333333333333,4,2,2,49,0,0
138778,-83.3333333333333,4,2,2,5,0,0
138939,-83.3333333333333,4,2,2,49,0,0
140067,495.867768595041,4,2,2,49,1,0
140068,-83.3333333333333,4,2,2,49,0,0
141058,485.82995951417,4,2,2,49,1,0
141058,-83.3333333333333,4,2,2,49,0,0
142515,500,4,2,2,49,1,0
143015,465.116279069767,4,2,2,49,1,0
143015,-83.3333333333333,4,2,2,49,0,0
143790,498.960498960499,4,2,2,49,1,0
143956,506.329113924051,4,2,2,49,1,0
143956,-83.3333333333333,4,2,2,49,0,0
144968,476.190476190477,4,2,2,49,1,0
144968,-83.3333333333333,4,2,2,49,0,0
145444,408.163265306122,4,2,2,49,1,0
145444,-83.3333333333333,4,2,2,49,0,0
145580,-83.3333333333333,4,2,2,5,0,0
145716,612.244897959184,4,2,2,49,1,0
145920,431.654676258993,4,2,2,49,1,0
145920,-83.3333333333333,4,2,2,49,0,0
146063,-83.3333333333333,4,2,2,5,0,0
146207,576.923076923077,4,2,2,49,1,0
146399,508.474576271186,4,2,2,49,1,0
146399,-83.3333333333333,4,2,2,49,0,0
146907,471.512770137525,4,2,1,30,1,0
147692,597.014925373134,4,2,1,30,1,0
147891,491.803278688524,4,2,1,30,1,0
148382,504.201680672269,4,2,1,30,1,0
148550,-100,4,2,1,5,0,0
148718,472.44094488189,4,2,1,30,1,0
148875,471.512770137525,4,2,1,30,1,0
149346,476.190476190476,4,2,1,30,1,0
149664,582.52427184466,4,2,1,30,1,0
149858,483.870967741935,4,2,1,30,1,0
150341,461.538461538462,4,2,1,30,1,0
150648,566.037735849057,4,2,1,30,1,0
150836,461.538461538462,4,2,1,30,1,0
151605,550.45871559633,4,2,1,30,1,0
151788,476.190476190476,4,2,1,30,1,0
152264,434.782608695652,4,2,1,30,1,0
152553,582.52427184466,4,2,1,30,1,0
152747,495.867768595041,4,2,1,30,1,0
153242,465.116279069767,4,2,1,30,1,0
153552,560.747663551402,4,2,1,30,1,0
153738,497.92531120332,4,2,1,30,1,0
154069,504.201680672269,4,2,1,30,1,0
154741,452.830188679245,4,2,1,30,1,0
155495,591.133004926108,4,2,1,30,1,0
155692,483.870967741935,4,2,1,30,1,0
155853,-100,4,2,1,5,0,0
156014,-100,4,2,1,30,0,0
156337,-100,4,2,1,5,0,0
156497,-100,4,2,1,30,0,0
157143,460.652591170825,4,2,1,30,1,0
157450,517.241379310345,4,2,1,30,1,0
157622,480,4,2,1,30,1,0
158102,502.092050209205,4,2,1,30,1,0
158436,547.945205479452,4,2,1,30,1,0
158618,461.538461538462,4,2,1,30,1,0
159387,571.428571428571,4,2,1,30,1,0
159577,488.798370672097,4,2,1,30,1,0
160391,555.555555555556,4,2,1,30,1,0
160576,487.80487804878,4,2,1,30,1,0
160576,-133.333333333333,4,2,1,30,0,0
162527,479.999999999999,4,2,2,49,1,0
163007,-83.3333333333333,4,2,2,49,0,0
163487,487.80487804878,4,2,2,49,1,0
163487,-79.130791307913,4,2,2,49,0,0
163974,428.571428571429,4,2,2,49,1,0
164259,610.687022900763,4,2,2,49,1,0
164462,487.80487804878,4,2,2,49,1,0
164462,-83.3333333333333,4,2,2,49,0,0
164950,430.10752688172,4,2,2,49,1,0
165236,550.45871559633,4,2,2,49,1,0
165419,454.545454545455,4,2,2,49,1,0
165722,603.015075376884,4,2,2,49,1,0
165923,539.568345323741,4,2,2,49,1,0
166282,468.75,4,2,2,49,1,0
166282,-83.7864220821243,4,2,2,49,0,0
166360,-83.7864220821243,4,2,2,5,0,0
166438,472.0692368214,4,2,2,49,1,0
167224,571.428571428571,4,2,2,49,1,0
167404,479.999999999999,4,2,2,49,1,0
167404,-83.3333333333333,4,2,2,49,0,0
168204,512.820512820513,4,2,2,49,1,0
168374,472.440944881888,4,2,2,49,1,0
168374,-83.3333333333333,4,2,2,49,0,0
168531,-83.3333333333333,4,2,2,5,0,0
168688,-83.3333333333333,4,2,2,49,0,0
168846,437.956204379562,4,2,2,49,1,0
168846,-83.3333333333333,4,2,2,49,0,0
169137,505.902192242833,4,2,2,49,1,0
169811,495.867768595039,4,2,2,49,1,0
170141,487.804878048781,4,2,2,49,1,0
170141,-83.3333333333333,4,2,2,49,0,0
170222,-83.3333333333333,4,2,2,5,0,0
170303,-83.3333333333333,4,2,2,49,0,0
170791,504.201680672269,4,2,2,49,1,0
170791,-83.3333333333333,4,2,2,49,0,0
170959,-83.3333333333333,4,2,2,5,0,0
171127,-83.3333333333333,4,2,2,49,0,0
171295,476.190476190476,4,2,2,49,1,0
171771,483.870967741935,4,2,2,49,1,0
172254,472.440944881889,4,2,2,49,1,0
172568,-83.3333333333333,4,2,2,49,0,0
172647,-83.3333333333333,4,2,2,5,0,0
172726,-83.3333333333333,4,2,2,49,0,0
173041,504.201680672269,4,2,2,49,1,0
173041,-83.3333333333333,4,2,2,49,0,0
173377,-83.3333333333333,4,2,2,5,0,0
173545,-83.3333333333333,4,2,2,49,0,0
174217,487.80487804878,4,2,2,49,1,0
174217,-83.3333333333333,4,2,2,49,0,0
175517,-84.3600273785078,4,2,2,49,0,0
175680,495.86776859504,4,2,2,49,1,0
175845,-100,4,2,2,5,0,0
176010,-100,4,2,2,49,0,0
176175,497.925311203319,4,2,2,49,1,0
176175,-81.0213108162444,4,2,2,49,0,0
176981,507.399577167019,4,2,2,49,1,0
177150,496.894409937888,4,2,2,49,1,0
177150,-74.8574289690757,4,2,2,49,0,0
177298,-83.3333333333333,4,2,2,5,0,0
177447,597.014925373134,4,2,2,49,1,0
177646,487.80487804878,4,2,2,49,1,0
177646,-83.3333333333333,4,2,2,49,0,0
178601,503.14465408805,4,2,2,45,1,0
178601,-83.3333333333333,4,2,2,45,0,0
179104,487.80487804878,4,2,2,45,1,0
179429,-83.3333333333333,4,2,2,45,0,0
180079,451.127819548872,4,2,2,45,1,0
180079,-83.3333333333333,4,2,2,45,0,0
180379,566.037735849057,4,2,2,45,1,0
180567,487.80487804878,4,2,2,45,1,0
180567,-83.3333333333333,4,2,2,45,0,0
182030,477.707006369427,4,2,2,45,1,0
182030,-83.3333333333333,4,2,2,45,0,0
182507,501.043841336117,4,2,2,45,1,0
182507,-83.3333333333333,4,2,2,45,0,0
183342,459.770114942529,4,2,2,45,1,0
183342,-83.3333333333333,4,2,2,45,0,0
183955,476.190476190476,4,2,2,45,1,0
183955,-83.3333333333333,4,2,2,45,0,0
184431,542.005420054201,4,2,2,45,1,0
184431,-83.3333333333333,4,2,2,45,0,0
184792,441.176470588235,4,2,2,45,1,0
184939,424.028268551237,4,2,2,45,1,0
185221,598.503740648379,4,2,2,45,1,0
185420,506.329113924051,4,2,2,45,1,0
185757,521.739130434783,4,2,2,45,1,0
185930,473.372781065089,4,2,2,45,1,0
185930,-83.3333333333333,4,2,2,45,0,0
187192,560.747663551402,4,2,2,45,1,0
187378,413.793103448276,4,2,2,45,1,0
187653,628.272251308901,4,2,2,45,1,0
187862,487.80487804878,4,2,2,45,1,0
187862,-83.3333333333333,4,2,2,45,0,0
188675,549.199084668192,4,2,2,45,1,0
188858,476.190476190476,4,2,2,45,1,0
188858,-83.3333333333333,4,2,2,45,0,0
189651,566.037735849057,4,2,2,45,1,0
189839,465.116279069767,4,2,2,45,1,0
189839,-83.3333333333333,4,2,2,45,0,0
190614,566.037735849057,4,2,2,45,1,0
190802,483.870967741935,4,2,2,45,1,0
191285,447.761194029851,4,2,2,45,1,0
191583,606.060606060606,4,2,2,45,1,0
191785,487.80487804878,4,2,1,27,1,0
191785,-131.351443704083,4,2,1,27,0,0
192110,-131.351443704083,4,2,1,12,0,0
192760,473.9336492891,4,2,2,5,1,0
193707,502.092050209205,4,2,1,5,1,0
194042,469.116497263487,4,2,1,12,1,0
194042,-250,4,2,1,12,0,0
194511,487.80487804878,4,2,1,5,1,0
194998,-100,4,2,1,12,0,0
195000,597.014925373134,4,2,1,12,1,0
195597,805.369127516779,4,2,1,12,1,0
195731,471.327572663001,4,2,1,12,1,0
195731,-216.74540488669,4,2,1,12,0,0
196029,456.273764258555,4,2,1,12,1,0
196181,476.190476190476,4,2,2,5,1,0
196657,465.116279069767,4,2,2,5,1,0
197122,488.798370672098,4,2,2,5,1,0
197610,470.588235294118,4,2,1,5,1,0
198080,500,4,2,1,12,1,0
198413,487.804878048781,4,2,1,12,1,0
198413,-333.333333333333,4,2,1,12,0,0
198900,-333.333333333333,4,2,1,5,0,0
199388,863.309352517986,4,2,1,5,1,0
199675,475.812846946868,4,2,1,12,1,0
199675,-248.5556722689,4,2,1,12,0,0
199985,465.116279069767,4,2,2,5,1,0
200140,476.190476190476,4,2,1,5,1,0
200616,491.803278688524,4,2,1,5,1,0
201107,461.538461538461,4,2,1,5,1,0
201568,500,4,2,1,5,1,0
201901,497.92531120332,4,2,1,12,1,0
201901,-250,4,2,1,12,0,0
202398,-250,4,2,1,5,0,0
202896,750,4,2,1,5,1,0
203396,625,4,2,1,5,1,0
203552,483.48106365834,4,2,1,12,1,0
203552,-250,4,2,1,12,0,0
203857,458.015267175573,4,2,2,5,1,0
204010,497.92531120332,4,2,1,5,1,0
204508,478.000047800005,4,2,1,5,1,0
204986,497.92531120332,4,2,1,5,1,0
205484,482.897384305836,4,2,1,5,1,0
205966,513.918629550321,4,2,1,12,1,0
205966,-200,4,2,1,12,0,0
206308,463.320463320463,4,2,1,12,1,0
206771,604.229607250755,4,2,1,12,1,0
207576,487.80487804878,4,2,1,12,1,0
207576,-333.333333333333,4,2,1,12,0,0
207657,-333.333333333333,4,2,1,5,0,0

[Colours]
Combo1 : 255,123,213
Combo2 : 97,115,255
Combo3 : 182,181,131
Combo4 : 255,158,70
Combo5 : 255,96,96

[HitObjects]
20,208,579,6,0,B|66:188|66:188|145:218,1,100,10|0,3:2|2:0,2:0:0:0:
158,225,1066,2,0,B|204:245|204:245|283:215,1,100,8|0,2:0|2:0,2:0:0:0:
290,196,1554,2,0,P|315:148|316:83,1,100,0|0,3:2|2:0,2:0:0:0:
369,104,2019,2,0,P|374:153|398:197,1,100,8|0,2:0|2:0,2:0:0:0:
437,227,2484,5,8,3:2:0:0:
504,300,2817,2,0,B|456:333|456:333|412:313|358:329,2,150,0|0|8,3:2|3:2|2:0,2:0:0:0:
486,161,4492,6,0,B|440:141|440:141|393:158,1,100,10|0,3:2|2:0,2:0:0:0:
348,178,4964,2,0,B|302:198|302:198|255:180,1,100,8|0,2:0|2:0,2:0:0:0:
208,163,5436,2,0,P|194:210|211:262,1,100,0|0,3:2|2:0,2:0:0:0:
235,299,5908,2,0,P|187:285|140:299,1,100,8|0,2:0|2:0,2:0:0:0:
116,331,6381,6,0,B|47:202|47:202|-18:341|-18:341|68:341,1,360,4|0,3:2|2:0,2:0:0:0:
252,350,8454,6,0,P|315:364|368:336,1,100,10|0,3:2|2:0,2:0:0:0:
346,283,8922,2,0,P|283:269|230:297,1,100,8|8,2:0|2:0,2:0:0:0:
190,316,9391,2,0,P|127:330|74:302,1,100,0|0,3:2|2:0,2:0:0:0:
49,265,9878,2,0,L|49:154,1,100,8|0,2:0|2:0,2:0:0:0:
65,97,10343,5,0,3:2:0:0:
65,97,10513,1,0,3:2:0:0:
65,97,10684,2,0,B|132:58|196:92|154:109|229:144|307:84,1,240,12|0,2:0|2:0,2:0:0:0:
418,200,12344,6,0,B|415:245|437:301,1,100,8|0,3:2|2:0,2:0:0:0:
389,350,12798,2,0,B|344:347|288:369,1,100,8|0,2:0|2:0,2:0:0:0:
221,365,13270,2,0,B|168:344|123:347,1,100,0|0,3:2|3:2,2:0:0:0:
77,295,13772,2,0,B|97:242|94:197,1,100,8|8,2:0|2:0,2:0:0:0:
91,127,14259,5,0,3:2:0:0:
218,149,14585,2,0,B|218:113|218:113|201:105|201:105|258:30|258:30|315:105|315:105|298:113|298:113|298:151,1,297.500005674362,8|0,2:0|2:0,2:0:0:0:
302,314,16211,6,0,B|255:333|255:333|186:300,1,100,10|0,3:2|2:0,2:0:0:0:
211,241,16681,2,0,B|258:222|258:222|327:255,1,100,8|8,2:0|2:0,2:0:0:0:
364,280,17152,2,0,P|427:294|480:266,1,100,0|0,3:2|2:0,2:0:0:0:
505,229,17632,2,0,L|505:118,1,100,8|0,2:0|2:0,2:0:0:0:
502,58,18088,5,0,3:2:0:0:
502,58,18253,1,0,3:2:0:0:
502,58,18418,2,0,B|435:26|373:53|413:69|341:104|276:59,1,240,12|0,2:0|2:0,2:0:0:0:
82,138,20071,6,0,L|82:238,1,100,8|0,3:2|2:0,2:0:0:0:
128,292,20545,2,0,P|175:304|222:289,1,100,8|0,2:0|2:0,2:0:0:0:
284,253,21019,2,0,B|328:231|328:231|375:250,1,100,0|0,3:2|3:2,2:0:0:0:
376,321,21510,2,0,B|331:342|331:342|284:323,1,100,8|0,2:0|2:0,2:0:0:0:
222,289,22002,5,0,3:2:0:0:
113,315,22343,2,0,P|63:377|44:271,1,240,8|0,2:0|2:0,2:0:0:0:
101,246,23537,2,0,B|134:269|134:269|196:234,1,80,8|0,2:0|2:0,2:0:0:0:
278,237,24003,6,0,B|270:281|270:281|269:317|294:342|333:347|352:325,1,165.000005035401,2|8,3:2|2:0,2:0:0:0:
457,226,24800,1,8,2:0:0:0:
457,226,24966,2,0,P|459:163|375:193,1,165.000005035401,0|8,3:2|2:0,2:0:0:0:
235,177,25765,1,8,2:0:0:0:
235,177,25929,6,0,L|124:158,1,110.000003356934,0|0,3:2|2:0,2:0:0:0:
70,106,26399,2,0,L|141:19,1,110.000003356934,8|0,2:0|2:0,2:0:0:0:
210,33,26897,2,0,L|249:138,1,110.000003356934,0|0,3:2|2:0,2:0:0:0:
272,203,27396,1,8,2:0:0:0:
416,232,27692,1,8,2:0:0:0:
416,232,27895,6,0,B|434:118|434:118|384:138,1,165.000005035401,2|8,3:2|2:0,2:0:0:0:
270,219,28698,1,8,2:0:0:0:
270,219,28858,2,0,B|288:333|288:333|241:316,1,165.000005035401,0|8,3:2|2:0,2:0:0:0:
116,255,29674,1,8,2:0:0:0:
116,255,29838,6,0,P|107:182|83:113,1,110.000003356934,0|0,3:2|2:0,2:0:0:0:
158,111,30327,2,0,P|225:139|297:153,1,110.000003356934,8|8,2:0|2:0,2:0:0:0:
331,160,30817,6,0,P|333:132|338:105,2,55.0000016784668,8|8|0,3:2|2:0|3:2,2:0:0:0:
344,232,31308,2,0,P|396:217|447:195,1,110.000003356934,8|0,2:0|2:0,2:0:0:0:
463,125,31806,6,0,P|444:70|373:70,1,110.000003356934,2|0,3:2|2:0,2:0:0:0:
334,90,32282,1,8,2:0:0:0:
238,192,32603,1,8,2:0:0:0:
168,206,32763,2,0,P|124:185|111:117,1,110.000003356934,0|0,3:2|2:0,2:0:0:0:
126,60,33245,1,8,2:0:0:0:
256,10,33583,1,8,2:0:0:0:
325,28,33753,6,0,B|375:47|417:33|417:33|430:14|430:14|448:14|476:24,1,165.000005035401,0|8,3:2|2:0,2:0:0:0:
456,173,34542,1,0,2:0:0:0:
456,173,34735,2,0,L|340:182,1,110.000003356934,0|0,3:2|2:0,2:0:0:0:
273,202,35190,2,0,L|201:193,1,55.0000016784668,8|0,2:0|2:0,2:0:0:0:
176,172,35508,1,8,2:0:0:0:
176,172,35698,6,0,P|120:156|69:179,1,110.000003356934,2|0,3:2|2:0,2:0:0:0:
47,241,36178,2,0,L|53:295,1,55.0000016784668,8|0,2:0|2:0,2:0:0:0:
69,353,36498,1,8,2:0:0:0:
69,353,36691,2,0,P|125:337|176:360,1,110.000003356934,2|0,3:2|3:2,2:0:0:0:
229,313,37164,2,0,P|279:331|331:315,1,110.000003356934,8|8,2:0|2:0,2:0:0:0:
397,343,37655,6,0,B|435:343|435:343|446:249,1,110.000003356934,6|0,3:2|2:0,2:0:0:0:
443,200,38116,2,0,B|435:138|435:138|387:138,1,110.000003356934,0|8,2:0|2:0,2:0:0:0:
316,150,38588,2,0,B|265:171|265:171|208:150,1,110.000003356934,4|0,3:2|2:0,2:0:0:0:
149,120,39064,2,0,B|97:101|97:101|46:122,1,110.000003356934,8|0,2:0|2:0,2:0:0:0:
51,232,39573,6,0,B|95:256|133:240|120:229|157:208|209:238,1,165.000005035401,2|8,3:2|2:0,2:0:0:0:
361,350,40583,2,0,L|353:238,1,110.000003356934,0|0,3:2|2:0,2:0:0:0:
373,172,41070,2,0,P|346:168|320:176,1,55.0000016784668,8|0,2:0|2:0,2:0:0:0:
276,236,41396,1,8,2:0:0:0:
276,236,41566,6,0,B|232:260|194:244|207:233|170:212|118:242,2,165.000005035401,0|8|0,3:2|2:0|3:2,2:0:0:0:
121,160,43013,6,0,L|129:86,1,55.0000016784668,8|0,2:0|2:0,2:0:0:0:
142,34,43338,1,8,2:0:0:0:
142,34,43501,6,0,P|215:-3|268:53,1,165.000005035401,2|8,3:2|2:0,2:0:0:0:
264,191,44316,1,8,2:0:0:0:
264,191,44479,2,0,P|321:241|391:204,1,165.000005035401,0|8,3:2|2:0,2:0:0:0:
320,84,45254,1,8,2:0:0:0:
320,84,45437,6,0,L|197:98,1,110.000003356934,0|0,3:2|2:0,2:0:0:0:
189,164,45924,2,0,L|70:149,1,110.000003356934,8|0,2:0|2:0,2:0:0:0:
8,139,46412,2,0,L|17:84,1,55.0000016784668,0|0,3:2|3:2,2:0:0:0:
35,15,46737,1,0,2:0:0:0:
35,15,46900,2,0,P|86:-3|141:13,1,110.000003356934,8|0,2:0|2:0,2:0:0:0:
204,44,47388,6,0,L|187:226,1,165.000005035401,2|8,3:2|2:0,2:0:0:0:
188,379,48363,2,0,P|134:383|91:350,1,110.000003356934,0|0,3:2|3:2,2:0:0:0:
73,281,48851,2,0,L|68:226,1,55.0000016784668,8|0,2:0|2:0,2:0:0:0:
63,154,49176,1,8,2:0:0:0:
63,154,49339,2,0,P|116:149|159:182,1,110.000003356934,0|0,3:2|2:0,2:0:0:0:
229,195,49831,2,0,P|282:199|325:166,1,110.000003356934,8|8,2:0|2:0,2:0:0:0:
263,129,50318,1,0,3:2:0:0:
385,18,50806,6,0,P|425:12|452:16,1,55.0000016784668,8|0,2:0|2:0,2:0:0:0:
487,73,51136,1,8,2:0:0:0:
487,73,51305,2,0,L|446:175,1,110.000003356934,2|0,3:2|2:0,2:0:0:0:
376,190,51785,2,0,L|307:103,1,110.000003356934,8|8,2:0|2:0,2:0:0:0:
330,30,52265,2,0,L|438:13,1,110.000003356934,0|0,3:2|2:0,2:0:0:0:
512,0,52745,1,8,2:0:0:0:
407,223,53266,6,0,B|459:234|459:234|512:214,1,110.000003356934,6|0,3:2|2:0,2:0:0:0:
507,138,53728,2,0,B|454:126|454:126|401:146,1,110.000003356934,4|0,2:0|2:0,2:0:0:0:
337,186,54219,2,0,P|284:200|231:187,1,110.000003356934,4|0,3:2|2:0,2:0:0:0:
168,143,54711,2,0,P|110:129|51:151,1,110.000003356934,4|0,2:0|2:0,2:0:0:0:
12,194,55203,5,6,2:0:0:0:
182,249,55691,2,0,L|172:372,1,119.999996337891,8|0,3:2|2:0,2:0:0:0:
265,307,56179,2,0,B|364:280|306:382|425:342,1,179.999994506836,2|8,3:2|2:0,2:0:0:0:
474,232,56911,1,0,3:2:0:0:
512,162,57155,6,0,P|458:130|443:201,1,119.999996337891,2|0,3:2|2:0,2:0:0:0:
351,176,57631,2,0,P|297:144|282:215,1,119.999996337891,8|8,2:0|2:0,2:0:0:0:
313,243,58108,1,2,3:2:0:0:
280,357,58443,1,0,3:2:0:0:
207,384,58611,1,8,3:2:0:0:
83,350,58947,1,8,3:2:0:0:
10,322,59102,6,0,L|31:124,1,179.999994506836,6|8,2:0|2:0,2:0:0:0:
131,77,59877,1,8,3:2:0:0:
200,113,60079,2,0,B|265:105|281:78|312:71|341:105|342:142|320:163|298:164,1,179.999994506836,2|8,3:2|2:0,2:0:0:0:
225,228,60901,1,0,3:2:0:0:
187,298,61034,6,0,P|241:330|256:259,1,119.999996337891,2|0,3:2|2:0,2:0:0:0:
348,284,61512,2,0,P|402:316|417:245,1,119.999996337891,8|8,2:0|2:0,2:0:0:0:
386,217,61969,1,2,2:0:0:0:
456,109,62283,1,0,3:2:0:0:
428,35,62474,1,8,3:2:0:0:
303,66,62818,1,0,3:2:0:0:
283,141,62991,6,0,P|228:97|195:161,1,119.999996337891,6|0,2:0|2:0,2:0:0:0:
221,193,63456,1,8,3:2:0:0:
107,234,63784,1,8,3:2:0:0:
127,308,63982,2,0,P|162:264|213:286,1,119.999996337891,2|0,3:2|3:2,2:0:0:0:
189,361,64451,1,8,3:2:0:0:
342,332,64769,1,8,3:2:0:0:
431,342,64929,6,0,P|419:286|430:192,1,119.999996337891,2|0,3:2|3:2,2:0:0:0:
445,149,65412,1,8,2:0:0:0:
292,218,65734,6,0,L|278:62,1,119.999996337891,6|0,3:2|2:0,2:0:0:0:
205,62,66221,2,0,L|76:152,1,119.999996337891,8|0,3:2|2:0,2:0:0:0:
37,177,66709,1,8,3:2:0:0:
2,248,66894,6,0,P|57:277|68:205,1,119.999996337891,6|0,3:2|2:0,2:0:0:0:
162,226,67389,2,0,P|217:255|228:183,1,119.999996337891,8|8,3:2|2:0,2:0:0:0:
197,157,67883,1,2,3:2:0:0:
189,37,68209,1,0,3:2:0:0:
265,50,68373,1,8,2:0:0:0:
368,111,68689,1,8,3:2:0:0:
444,95,68852,6,0,P|451:184|463:229,1,119.999996337891,6|0,2:0|2:0,2:0:0:0:
481,288,69341,1,8,2:0:0:0:
382,355,69668,1,8,2:0:0:0:
305,369,69831,1,2,2:0:0:0:
227,276,70138,1,0,2:0:0:0:
152,255,70322,2,0,P|145:344|133:389,1,119.999996337891,8|0,2:0|2:0,2:0:0:0:
62,352,70811,5,6,2:0:0:0:
56,153,71294,2,0,P|123:174|184:178,1,119.999996337891,8|0,3:2|2:0,2:0:0:0:
245,153,71787,1,2,3:2:0:0:
400,138,72140,2,0,L|391:270,1,119.999996337891,0|0,3:2|2:0,2:0:0:0:
380,335,72586,1,8,3:2:0:0:
305,359,72751,6,0,B|281:366|255:356|255:356|246:369|246:369|217:357|188:366,1,119.999996337891,2|0,2:0|2:0,2:0:0:0:
148,287,73227,6,0,P|160:238|194:275,1,119.999996337891,8|0,1:2|2:0,2:0:0:0:
281,251,73712,2,0,P|338:265|387:233,1,119.999996337891,2|0,1:2|2:0,2:0:0:0:
405,157,74197,1,8,1:2:0:0:
507,39,74528,1,8,1:2:0:0:
498,116,74694,6,0,B|465:115|440:97|459:88|419:55|349:73,1,119.999996337891,6|0,2:0|2:0,2:0:0:0:
316,86,75181,2,0,P|248:107|187:111,1,119.999996337891,8|0,3:2|2:0,2:0:0:0:
123,97,75669,1,2,3:2:0:0:
0,33,75990,2,0,L|9:165,1,119.999996337891,0|0,3:2|2:0,2:0:0:0:
15,230,76472,1,8,3:2:0:0:
96,266,76632,6,0,P|107:217|143:252,1,119.999996337891,2|0,1:2|2:0,2:0:0:0:
155,341,77119,2,0,P|190:375|199:325,1,119.999996337891,8|0,1:2|2:0,2:0:0:0:
235,256,77652,1,10,1:2:0:0:
307,351,77952,1,0,3:2:0:0:
382,332,78107,1,8,3:2:0:0:
481,265,78418,1,8,3:2:0:0:
480,187,78623,6,0,P|419:193|359:188,1,119.999996337891,6|0,2:0|2:0,2:0:0:0:
361,110,79109,2,0,P|421:103|481:109,1,119.999996337891,8|0,3:2|2:0,2:0:0:0:
486,30,79597,1,2,3:2:0:0:
354,16,79922,1,0,3:2:0:0:
277,29,80085,1,8,2:0:0:0:
160,0,80390,1,8,3:2:0:0:
156,77,80552,6,0,L|170:204,1,119.999996337891,2|0,2:0|2:0,2:0:0:0:
233,240,81040,6,0,P|174:271|118:254,1,119.999996337891,8|0,1:2|2:0,2:0:0:0:
54,224,81528,2,0,P|18:254|23:199,1,119.999996337891,2|0,1:2|2:0,2:0:0:0:
72,147,82016,1,8,1:2:0:0:
187,178,82349,1,8,1:2:0:0:
258,146,82516,6,0,P|240:92|177:134,1,119.999996337891,6|0,2:0|2:0,2:0:0:0:
118,138,82999,2,0,P|109:190|110:273,1,119.999996337891,8|0,3:2|2:0,2:0:0:0:
121,333,83484,1,2,3:2:0:0:
274,356,83809,1,0,3:2:0:0:
293,280,83971,1,8,2:0:0:0:
256,153,84281,1,8,3:2:0:0:
231,76,84472,6,0,P|423:40|350:238,1,480,6|0,2:0|2:0,2:0:0:0:
90,50,100111,5,10,3:2:0:0:
127,196,100606,6,0,P|159:158|213:147,1,100,8|8,2:0|2:0,2:0:0:0:
264,98,101102,2,0,P|280:144|263:196,1,100,0|0,3:2|2:0,2:0:0:0:
281,265,101575,2,0,P|232:256|195:215,1,100,8|8,2:0|2:0,2:0:0:0:
207,147,102033,5,0,3:2:0:0:
188,132,102199,1,0,3:2:0:0:
175,112,102365,2,0,B|186:72|186:72|137:83|137:83|97:55|97:55|93:105|93:105|54:135|54:135|101:154|101:154|117:201|117:201|148:163,1,350,12|0,2:0|2:0,2:0:0:0:
349,198,104028,5,8,2:0:0:0:
431,323,104496,2,0,P|388:348|339:350,1,100,8|0,2:0|2:0,2:0:0:0:
269,285,104965,2,0,P|312:308|338:350,1,100,0|0,3:2|3:2,2:0:0:0:
247,378,105465,2,0,P|245:328|268:284,1,100,8|8,2:0|2:0,2:0:0:0:
311,223,105965,1,0,3:2:0:0:
194,192,106290,6,0,B|194:158|194:158|209:150|209:150|156:80|156:80|103:150|103:150|119:158|119:158|119:216,1,280,8|0,2:0|2:0,2:0:0:0:
273,50,107920,5,10,3:2:0:0:
426,152,108229,1,0,2:0:0:0:
426,152,108384,2,0,L|350:227,1,100,8|8,2:0|2:0,2:0:0:0:
285,187,108859,2,0,L|257:83,1,100,0|0,3:2|2:0,2:0:0:0:
323,50,109346,2,0,L|425:78,1,100,8|0,2:0|2:0,2:0:0:0:
485,111,109834,5,0,3:2:0:0:
491,140,109997,1,0,3:2:0:0:
486,169,110161,2,0,P|371:222|356:104,1,280,12|0,2:0|2:0,2:0:0:0:
411,157,111801,6,0,B|378:166|330:170|330:170|347:186|339:182,1,100,10|0,3:2|2:0,2:0:0:0:
393,238,112284,2,0,B|387:234|404:251|404:251|356:255|323:264,1,100,8|0,2:0|2:0,2:0:0:0:
261,302,112768,1,0,3:2:0:0:
141,310,113088,1,0,3:2:0:0:
141,310,113239,2,0,P|134:268|112:226,1,50,8|0,2:0|2:0,2:0:0:0:
42,230,113543,1,8,2:0:0:0:
32,271,113731,2,0,P|97:267|151:255,1,100,0|0,3:2|2:0,2:0:0:0:
201,233,114243,6,0,P|186:180|220:162,1,100,12|0,2:0|2:0,2:0:0:0:
298,212,114730,6,0,P|290:159|304:108,1,100,12|0,2:0|2:0,2:0:0:0:
404,189,115218,6,0,P|351:205|297:211,1,110.000003356934,12|0,2:0|2:0,2:0:0:0:
212,134,115698,6,0,P|181:68|111:130,1,165.000005035401,2|8,3:2|2:0,2:0:0:0:
19,236,116511,1,8,2:0:0:0:
90,222,116673,2,0,B|171:207|171:207|140:270,1,110.000003356934,0|0,3:2|2:0,2:0:0:0:
121,293,117147,2,0,P|133:347|201:344,1,110.000003356934,8|0,2:0|2:0,2:0:0:0:
230,305,117621,5,0,3:2:0:0:
336,343,117937,1,0,3:2:0:0:
343,316,118095,2,0,P|339:260|333:245,1,55.0000016784668,8|0,2:0|2:0,2:0:0:0:
449,313,118424,1,8,2:0:0:0:
457,285,118589,2,0,P|453:229|447:214,1,55.0000016784668,0|0,3:2|2:0,2:0:0:0:
412,158,118919,2,0,B|375:152|375:152|329:145|316:183,1,110.000003356934,12|0,2:0|2:0,2:0:0:0:
262,244,119414,6,0,B|242:299|174:290|174:290|118:281,1,165.000005035401,8|0,2:0|2:0,2:0:0:0:
41,312,120085,2,0,P|35:285|46:227,1,55.0000016784668,8|0,2:0|2:0,2:0:0:0:
94,207,120361,1,8,2:0:0:0:
162,170,120559,2,0,P|171:96|76:104,1,165.000005035401,0|8,3:2|2:0,2:0:0:0:
173,245,121534,6,0,L|330:234,1,110.000003356934,0|0,3:2|2:0,2:0:0:0:
350,284,122034,2,0,P|360:229|340:177,1,110.000003356934,8|8,2:0|2:0,2:0:0:0:
281,123,122506,5,0,3:2:0:0:
307,75,122675,1,0,3:2:0:0:
360,62,122844,1,0,2:0:0:0:
407,90,123028,2,0,P|462:104|507:72,1,110.000003356934,8|8,2:0|2:0,2:0:0:0:
446,25,123485,6,0,L|454:178,1,110.000003356934,2|0,3:2|2:0,2:0:0:0:
485,204,123981,2,0,P|460:211|419:203,1,55.0000016784668,8|0,2:0|2:0,2:0:0:0:
359,181,124288,1,8,2:0:0:0:
283,201,124474,2,0,L|274:354,1,110.000003356934,0|0,3:2|3:2,2:0:0:0:
298,384,124954,2,0,P|270:387|244:379,1,55.0000016784668,8|0,2:0|2:0,2:0:0:0:
188,334,125274,1,8,2:0:0:0:
200,261,125434,6,0,P|163:220|101:255,1,110.000003356934,0|0,3:2|3:2,2:0:0:0:
78,297,125954,1,8,2:0:0:0:
3,149,126274,2,0,P|39:81|96:133,1,165.000005035401,8|0,2:0|2:0,2:0:0:0:
115,232,126925,5,8,2:0:0:0:
162,258,127083,1,0,2:0:0:0:
214,240,127242,1,8,2:0:0:0:
238,191,127416,2,0,P|276:148|331:151,1,110.000003356934,2|0,3:2|2:0,2:0:0:0:
402,182,127886,5,8,2:0:0:0:
399,236,128043,1,0,2:0:0:0:
395,291,128200,1,8,2:0:0:0:
389,345,128357,2,0,L|274:331,1,110.000003356934,2|0,3:2|3:2,2:0:0:0:
237,262,128861,2,0,L|122:276,1,110.000003356934,8|8,2:0|2:0,2:0:0:0:
45,286,129365,6,0,B|38:262|48:236|48:236|47:198|38:169,1,110.000003356934,2|0,3:2|2:0,2:0:0:0:
24,96,129836,2,0,B|51:41|41:27|19:52|60:75|108:75,1,110.000003356934,8|8,2:0|2:0,2:0:0:0:
123,148,130324,2,0,B|149:145|190:169|169:194|159:180|186:125,1,110.000003356934,0|0,3:2|2:0,2:0:0:0:
228,56,130791,1,8,2:0:0:0:
289,185,131094,1,8,2:0:0:0:
366,188,131286,6,0,P|349:134|268:111,1,119.999996337891,6|0,3:2|2:0,2:0:0:0:
223,139,131779,1,8,3:2:0:0:
162,268,132109,1,8,2:0:0:0:
85,271,132273,6,0,P|102:217|183:194,1,119.999996337891,6|0,3:2|2:0,2:0:0:0:
228,222,132781,1,8,3:2:0:0:
289,351,133120,1,8,2:0:0:0:
366,354,133289,6,0,L|380:231,1,119.999996337891,6|0,3:2|3:2,2:0:0:0:
332,172,133743,1,8,3:2:0:0:
313,17,134046,2,0,L|253:24,1,59.9999981689454,8|0,3:2|2:0,2:0:0:0:
140,77,134501,1,0,3:2:0:0:
78,125,134701,2,0,P|113:152|200:128,1,119.999996337891,8|8,3:2|2:0,2:0:0:0:
263,98,135232,6,0,L|272:273,1,119.999996337891,6|0,3:2|2:0,2:0:0:0:
274,295,135672,1,8,3:2:0:0:
137,350,135992,1,8,2:0:0:0:
72,306,136152,6,0,P|117:252|150:295,1,119.999996337891,6|0,3:2|2:0,2:0:0:0:
209,314,136652,1,8,3:2:0:0:
340,256,136985,1,8,2:0:0:0:
402,304,137152,6,0,P|367:331|280:307,1,119.999996337891,6|0,3:2|3:2,2:0:0:0:
262,257,137628,1,8,3:2:0:0:
114,206,137945,2,0,L|126:122,1,59.9999981689454,2|0,3:2|2:0,2:0:0:0:
101,301,138421,1,0,3:2:0:0:
61,368,138617,2,0,P|76:376|171:337,1,119.999996337891,8|0,3:2|2:0,2:0:0:0:
267,361,139100,6,0,P|249:321|304:232,1,119.999996337891,6|0,3:2|2:0,2:0:0:0:
343,221,139584,1,8,3:2:0:0:
429,91,139907,1,8,2:0:0:0:
507,120,140068,6,0,P|481:155|376:152,1,119.999996337891,6|0,3:2|2:0,2:0:0:0:
344,129,140562,1,8,3:2:0:0:
188,119,140893,1,8,2:0:0:0:
174,37,141058,6,0,P|217:41|267:133,1,119.999996337891,6|0,3:2|2:0,2:0:0:0:
263,174,141543,1,8,3:2:0:0:
88,220,141867,2,0,B|25:238|25:238|17:123,1,179.999994506836,8|0,3:2|3:2,2:0:0:0:
12,45,142515,1,8,3:2:0:0:
192,47,142848,1,8,3:2:0:0:
186,125,143015,6,0,B|177:263,1,119.999996337891,6|0,3:2|2:0,2:0:0:0:
175,322,143480,1,8,3:2:0:0:
343,323,143790,1,8,2:0:0:0:
289,258,143956,6,0,P|319:216|371:267,1,119.999996337891,6|0,3:2|2:0,2:0:0:0:
458,264,144462,1,8,3:2:0:0:
432,85,144799,1,8,2:0:0:0:
498,125,144968,6,0,B|507:158|507:158|421:163,1,119.999996337891,6|0,1:2|2:0,2:0:0:0:
341,121,145444,6,0,B|308:130|308:130|303:44,1,119.999996337891,8|8,1:2|3:2,2:0:0:0:
213,41,145920,6,0,B|208:127|208:127|175:118,1,119.999996337891,2|0,1:2|3:2,2:0:0:0:
102,163,146399,6,0,B|16:158|16:158|25:125,1,119.999996337891,8|0,1:2|2:0,2:0:0:0:
91,85,146907,6,0,L|98:255,1,150,2|8,3:2|2:0,2:0:0:0:
143,378,147891,2,0,B|178:370|178:370|196:380|196:380|237:371,1,100,0|0,3:2|2:0,2:0:0:0:
313,370,148382,2,0,P|305:340|292:317,1,50,8|0,2:0|2:0,2:0:0:0:
259,284,148718,1,8,2:0:0:0:
274,210,148875,6,0,B|340:195|340:195|368:212|368:212|424:198,1,150,0|8,3:2|2:0,2:0:0:0:
437,120,149664,2,0,P|423:88|391:58,1,50,8|0,2:0|3:2,2:0:0:0:
229,75,150341,2,0,P|197:69|174:71,1,50,8|0,2:0|2:0,2:0:0:0:
137,133,150648,1,8,2:0:0:0:
137,133,150836,6,0,P|89:154|41:106,1,100,2|0,3:2|2:0,2:0:0:0:
27,63,151297,1,8,2:0:0:0:
144,0,151605,1,0,2:0:0:0:
209,36,151788,2,0,L|365:25,1,150,0|8,3:2|2:0,2:0:0:0:
468,37,152553,1,8,2:0:0:0:
461,112,152747,6,0,L|456:214,1,100,2|0,3:2|2:0,2:0:0:0:
449,286,153242,2,0,L|347:281,1,100,8|0,2:0|2:0,2:0:0:0:
279,274,153738,2,0,L|281:223,2,50,8|8|0,3:2|3:2|2:0,2:0:0:0:
275,344,154237,2,0,P|229:360|178:310,1,100,8|0,2:0|2:0,2:0:0:0:
152,274,154741,6,0,B|95:255|69:280|87:293|54:313|2:289,1,150,2|8,3:2|2:0,2:0:0:0:
34,121,155692,2,0,P|43:145|45:170,1,50,0|0,3:2|2:0,2:0:0:0:
26,215,156014,1,0,3:2:0:0:
26,215,156175,2,0,P|81:193|128:195,1,100,8|8,2:0|2:0,2:0:0:0:
198,224,156659,6,0,P|199:164|215:115,1,100,0|0,3:2|2:0,2:0:0:0:
285,126,157143,2,0,P|297:174|297:224,1,100,8|0,2:0|2:0,2:0:0:0:
368,248,157622,2,0,P|403:212|446:188,1,100,0|0,3:2|2:0,2:0:0:0:
439,114,158102,1,8,2:0:0:0:
390,100,158269,1,0,2:0:0:0:
346,74,158436,1,8,2:0:0:0:
312,37,158618,6,0,P|312:86|299:135,1,100,2|0,3:2|2:0,2:0:0:0:
223,134,159079,2,0,P|210:85|209:35,1,100,8|0,2:0|2:0,2:0:0:0:
136,21,159577,1,8,3:2:0:0:
24,65,159902,1,0,3:2:0:0:
32,114,160065,1,8,2:0:0:0:
138,159,160391,1,8,2:0:0:0:
101,225,160576,6,0,B|56:176|1:212|-12:263|33:310|83:341|83:341|149:331|191:289,1,337.500012874604,6|0,3:2|2:0,2:0:0:0:
246,137,162527,5,6,2:0:0:0:
439,232,163007,2,0,L|274:222,1,119.999996337891,8|0,3:2|2:0,2:0:0:0:
247,218,163487,2,0,B|207:206|187:194|187:194|203:320|163:350|116:343|100:325|93:278|131:265|154:275,1,299.999990844727,2|0,3:2|3:2,2:0:0:0:
39,219,164462,2,0,P|55:298|130:273,1,179.999994506836,2|8,3:2|2:0,2:0:0:0:
35,212,165419,5,2,3:2:0:0:
128,138,165722,1,0,3:2:0:0:
103,64,165923,1,8,3:2:0:0:
0,0,166282,6,0,B|56:59|124:50|117:-6|167:1|234:28,1,239.999992675781,8|8,3:2|2:0,2:0:0:0:
303,112,167224,1,8,3:2:0:0:
260,178,167404,2,0,P|178:182|166:101,1,179.999994506836,2|8,3:2|2:0,2:0:0:0:
305,30,168204,1,0,3:2:0:0:
326,104,168374,6,0,B|411:86|411:86|392:146,1,119.999996337891,2|0,3:2|2:3,2:0:0:0:
357,182,168846,2,0,B|347:213|347:213|432:195,1,119.999996337891,8|8,2:0|2:0,2:0:0:0:
491,143,169305,1,2,2:0:0:0:
511,261,169642,1,0,3:2:0:0:
500,338,169811,1,8,3:2:0:0:
372,349,170141,6,0,B|348:386|311:379|289:358|291:328|291:328|303:264,1,179.999994506836,8|0,3:2|2:0,2:0:0:0:
321,191,170791,2,0,L|250:179,1,59.9999981689454,8|0,3:2|2:0,2:0:0:0:
183,172,171127,1,8,3:2:0:0:
175,249,171295,1,2,3:2:0:0:
45,231,171612,1,0,3:2:0:0:
58,307,171771,1,8,3:2:0:0:
158,383,172093,1,8,3:2:0:0:
235,370,172254,5,2,3:2:0:0:
352,347,172568,2,0,P|355:308|431:331,1,119.999996337891,0|0,3:2|3:2,2:0:0:0:
470,367,173041,2,0,L|483:207,1,119.999996337891,6|0,3:2|2:0,2:0:0:0:
484,169,173545,2,0,L|325:174,1,119.999996337891,8|0,3:2|2:0,2:0:0:0:
307,234,174049,5,8,3:2:0:0:
288,152,174217,2,0,P|259:112|197:172,1,119.999996337891,6|0,3:2|2:0,2:0:0:0:
124,112,174704,2,0,P|95:72|33:132,1,119.999996337891,8|8,3:2|2:0,2:0:0:0:
62,165,175192,1,2,3:2:0:0:
25,316,175517,2,0,B|30:326|67:335|97:326|97:326|141:296|195:334,1,179.999994506836,0|8,3:2|3:2,2:0:0:0:
270,349,176175,6,0,P|318:262|163:274,1,299.999990844727,6|8,2:0|2:0,2:0:0:0:
166,317,177150,2,0,P|111:336|60:307,1,119.999996337891,6|0,2:0|2:0,2:0:0:0:
67,230,177646,2,0,P|121:210|172:239,1,119.999996337891,8|0,2:0|2:0,2:0:0:0:
241,278,178133,5,6,2:0:0:0:
452,165,178601,2,0,P|385:186|324:190,1,119.999996337891,8|0,3:2|2:0,2:0:0:0:
263,165,179103,1,2,3:2:0:0:
107,169,179429,2,0,B|89:176|67:199|67:199|65:169|33:111|33:111|77:93,1,179.999994506836,0|8,3:2|3:2,2:0:0:0:
143,91,180079,6,0,B|167:84|193:94|193:94|202:81|202:81|231:93|260:84,1,119.999996337891,2|0,2:0|2:0,2:0:0:0:
331,85,180567,6,0,P|364:48|316:38,1,119.999996337891,8|0,1:2|2:0,2:0:0:0:
242,8,181054,2,0,P|235:67|221:148,1,119.999996337891,2|0,1:2|2:0,2:0:0:0:
203,202,181542,1,8,1:2:0:0:
35,189,181867,1,8,1:2:0:0:
110,151,182030,6,0,B|109:118|91:93|82:112|49:72|67:2,1,119.999996337891,6|0,2:0|2:0,2:0:0:0:
146,39,182507,2,0,P|214:18|275:14,1,119.999996337891,8|0,3:2|2:0,2:0:0:0:
341,42,183008,1,2,3:2:0:0:
508,26,183342,2,0,L|499:158,1,119.999996337891,0|0,3:2|2:0,2:0:0:0:
497,230,183801,1,8,3:2:0:0:
416,266,183955,6,0,P|405:217|369:252,1,119.999996337891,2|0,1:2|2:0,2:0:0:0:
357,341,184431,2,0,P|322:375|313:325,1,119.999996337891,8|0,1:2|2:0,2:0:0:0:
275,250,184939,1,2,1:2:0:0:
156,272,185221,1,0,3:2:0:0:
138,348,185420,1,8,3:2:0:0:
21,267,185757,1,8,3:2:0:0:
38,191,185930,6,0,P|99:197|159:192,1,119.999996337891,6|0,2:0|2:0,2:0:0:0:
157,114,186403,2,0,P|97:107|37:113,1,119.999996337891,8|0,3:2|2:0,2:0:0:0:
32,34,186876,1,2,3:2:0:0:
151,18,187192,1,0,3:2:0:0:
227,34,187378,1,8,2:0:0:0:
319,159,187653,1,8,3:2:0:0:
357,90,187862,6,0,B|362:86|385:60|385:60|392:103|424:142,1,119.999996337891,6|0,2:0|2:0,2:0:0:0:
408,221,188349,6,0,P|357:250|299:239,1,119.999996337891,8|0,1:2|2:0,2:0:0:0:
237,175,188858,2,0,P|224:126|190:162,1,119.999996337891,2|0,1:2|2:0,2:0:0:0:
194,239,189334,1,8,1:2:0:0:
47,329,189651,1,0,1:2:0:0:
35,239,189839,6,0,P|36:166|54:102,1,119.999996337891,6|0,2:0|2:0,2:0:0:0:
129,84,190304,2,0,P|191:121|238:168,1,119.999996337891,8|0,3:2|2:0,2:0:0:0:
272,229,190802,1,2,3:2:0:0:
361,96,191124,1,0,3:2:0:0:
377,175,191285,1,8,2:0:0:0:
402,291,191583,1,8,3:2:0:0:
329,310,191785,6,0,B|110:310|110:310|226:187|226:187|271:228,1,450.000017166138,6|8,2:0|2:0,2:0:0:0:
355,228,194042,2,0,P|388:223|416:222,1,60,8|0,2:0|3:2,2:0:0:0:
426,308,194998,1,0,3:2:0:0:
271,228,195731,6,0,B|204:102|204:102|137:238|137:238|203:238,1,344.999988418579,2|0,3:2|3:2,2:0:0:0:
241,302,198413,2,0,L|241:358,1,44.999998626709,8|0,3:2|3:2,2:0:0:0:
97,189,199675,6,0,B|43:140|-27:192|0:277|109:294,1,240,6|0,2:0|2:0,2:0:0:0:
170,264,201901,2,0,P|192:243|209:215,2,60,8|0|0,2:0|3:2|3:2,2:0:0:0:
215,138,203552,6,0,P|299:79|330:177,1,240,2|0,2:0|2:0,2:0:0:0:
293,249,205966,2,0,P|285:272|282:307,1,50,8|0,3:2|3:2,2:0:0:0:
282,380,206771,1,0,3:2:0:0:
173,334,207576,6,0,B|173:295|173:295|190:288|190:288|131:209|131:209|71:288|71:288|89:295|89:295|88:334|88:334|145:334,1,359.999989013672,0|0,2:0|2:0,2:0:0:0:
