osu file format v14

[General]
AudioFilename: audio.mp3
AudioLeadIn: 0
PreviewTime: 46410
Countdown: 0
SampleSet: Soft
StackLeniency: 0.7
Mode: 0
LetterboxInBreaks: 0
WidescreenStoryboard: 1

[Editor]
DistanceSpacing: 1.5
BeatDivisor: 4
GridSize: 16
TimelineZoom: 1.2

[Metadata]
Title:Fuyu Biyori
TitleUnicode:ふゆびより
Artist:Sasaki Eri
ArtistUnicode:佐々木恵梨
Creator:CoLouRed GlaZeE
Version:Yuru
Source:ゆるキャン△
Tags:_lai firika laid-back yurukyan yuru camp△ laid back ed ending full size version comfy C-Station Manga Time Kirara Forward
BeatmapID:1962224
BeatmapSetID:847690

[Difficulty]
HPDrainRate:6
CircleSize:4
OverallDifficulty:7
ApproachRate:8
SliderMultiplier:1.6
SliderTickRate:1

[Events]
//Background and Video events
0,0,"Yuru.Camp.full.2267577.png",0,0
//Break Periods
//Storyboard Layer 0 (Background)
//Storyboard Layer 1 (Fail)
//Storyboard Layer 2 (Pass)
//Storyboard Layer 3 (Foreground)
//Storyboard Sound Samples

[TimingPoints]
668,545.454545454546,4,2,1,40,1,0
9395,-100,4,2,1,30,0,0
26849,-100,4,2,1,35,0,0
46486,-100,4,2,1,40,0,1
46622,-100,4,2,1,40,0,0
55213,-100,4,2,1,40,0,1
55349,-100,4,2,1,40,0,0
63940,-66.6666666666667,4,2,1,40,0,1
64077,-66.6666666666667,4,2,1,40,0,0
72668,-66.6666666666667,4,2,1,40,0,1
72804,-66.6666666666667,4,2,1,40,0,0
79213,-100,4,2,1,40,0,0
86849,-80,4,2,1,40,0,0
87940,-100,4,2,1,30,0,0
105395,-100,4,2,1,35,0,0
125031,-80,4,2,1,40,0,1
133622,-80,4,2,1,40,0,0
133758,-80,4,2,1,40,0,1
140304,-80,4,2,1,40,0,0
142486,-66.6666666666667,4,2,1,40,0,1
151077,-66.6666666666667,4,2,1,40,0,0
151213,-66.6666666666667,4,2,1,40,0,1
157758,-100,4,2,1,40,0,0
159940,-66.6666666666667,4,2,1,40,0,1
160077,-66.6666666666667,4,2,1,40,0,0
168668,-66.6666666666667,4,2,1,40,0,1
168804,-66.6666666666667,4,2,1,40,0,0
177395,-200,4,2,1,25,0,0
187486,-200,4,2,1,5,0,0
188304,-200,4,2,1,25,0,0
189668,-200,4,2,1,5,0,0
190486,-200,4,2,1,20,0,0
192668,-200,4,2,1,15,0,0
194304,-200,4,2,1,5,0,0
194849,-133.333333333333,4,2,1,25,0,1
194986,-133.333333333333,4,2,1,25,0,0
197577,-133.333333333333,4,2,1,5,0,0
197713,-133.333333333333,4,2,1,25,0,0
201940,-133.333333333333,4,2,1,5,0,0
202213,-133.333333333333,4,2,1,25,0,0
207668,-100,4,2,1,35,0,0
210122,-100,4,2,1,40,0,0
212304,-80,4,2,1,45,0,1
220895,-80,4,2,1,45,0,0
221031,-80,4,2,1,45,0,1
227577,-80,4,2,1,45,0,0
229758,-66.6666666666667,4,2,1,45,0,1
238349,-66.6666666666667,4,2,1,45,0,0
238486,-66.6666666666667,4,2,1,45,0,1
245031,-100,4,2,1,40,0,0
247213,-133.333333333333,4,2,1,30,0,0
253758,-100,4,2,1,40,0,0
262758,-100,4,2,1,30,0,0

[Colours]
Combo1 : 235,143,150
Combo2 : 158,118,99
Combo3 : 111,133,170
Combo4 : 142,140,180
Combo5 : 212,197,166

[HitObjects]
61,58,668,6,0,P|125:65|196:58,2,120,4|0|0,0:1|0:0|0:0,0:0:0:0:
10,119,1758,2,0,P|8:168|-6:211,1,80,2|0,0:0|0:0,0:0:0:0:
43,264,2304,2,0,P|85:267|124:260,1,80
229,350,2849,6,0,P|216:291|218:221,2,120,2|0|0,0:0|0:0|0:0,0:0:0:0:
299,314,3940,2,0,P|336:322|379:328,1,80,2|2,0:0|0:0,0:0:0:0:
452,353,4486,2,0,P|461:313|465:274,1,80,0|0,0:0|0:0,0:0:0:0:
388,209,5031,6,0,L|399:87,2,120,2|0|0,0:0|0:0|0:0,0:0:0:0:
471,197,6122,2,0,P|474:242|488:280,1,80,2|0,0:0|0:0,0:0:0:0:
397,299,6668,2,0,P|354:281|316:277,1,80,0|0,0:0|0:0,0:0:0:0:
168,195,7213,6,0,P|119:206|73:275,2,120,2|0|0,0:0|0:0|0:0,0:0:0:0:
240,219,8304,1,0,0:0:0:0:
491,58,9395,6,0,P|504:115|499:179,2,120,2|0|0,0:0|0:0|0:0,0:0:0:0:
427,90,10486,2,0,L|345:74,1,80,2|0,0:0|0:0,0:0:0:0:
361,153,11031,2,0,L|282:174,1,80,0|0,0:0|0:0,0:0:0:0:
441,230,11577,2,0,P|308:255|257:343,1,240,2|0,0:0|0:0,0:0:0:0:
343,322,12668,2,0,L|423:337,1,80,2|0,0:0|0:0,0:0:0:0:
500,255,13213,2,0,L|410:265,1,80,0|0,0:0|0:0,0:0:0:0:
319,125,13758,6,0,P|399:133|463:125,2,120,4|0|0,0:1|0:0|0:0,0:0:0:0:
265,180,14849,2,0,L|180:191,1,80,2|0,0:0|0:0,0:0:0:0:
101,249,15395,2,0,L|110:161,1,80,0|0,0:0|0:0,0:0:0:0:
182,64,15940,6,0,P|97:51|54:12,2,120,2|0|0,0:0|0:0|0:0,0:0:0:0:
254,110,17031,2,0,L|264:30,1,80,2|0,0:0|0:0,0:0:0:0:
344,83,17577,2,0,L|355:167,1,80,0|0,0:0|0:0,0:0:0:0:
509,45,18122,6,0,P|516:126|512:171,2,120,4|0|2,3:1|0:0|0:0,0:0:0:0:
434,132,19213,2,0,P|441:212|436:278,2,120,0|0|2,3:0|0:0|0:0,0:0:0:0:
366,221,20304,2,0,P|364:281|369:364,2,120,0|0|2,3:0|0:0|0:0,0:0:0:0:
366,221,21395,1,0,3:0:0:0:
290,353,21668,2,0,P|284:308|288:269,1,80
104,290,22213,6,0,P|107:248|101:120,1,160,2|2,0:0|0:0,0:0:0:0:
119,52,23031,2,0,L|38:59,1,80,0|2,0:0|0:0,0:0:0:0:
180,107,23577,2,0,L|262:116,1,80,2|0,0:0|0:0,0:0:0:0:
350,160,24122,2,0,L|340:76,1,80,2|0,0:0|0:0,0:0:0:0:
251,235,24668,6,0,P|308:274|358:269,2,120,2|0|2,0:0|0:0|0:0,0:0:0:0:
119,288,25758,2,0,P|206:298|255:365,1,160,2|0,0:0|0:0,0:0:0:0:
477,224,26849,5,4,0:1:0:0:
477,224,26986,2,0,P|474:155|476:106,1,80,2|2,0:0|0:0,0:0:0:0:
478,131,27395,2,0,L|387:135,1,80,0|2,0:0|0:0,0:0:0:0:
333,175,27940,1,0,0:0:0:0:
234,57,28213,1,2,0:0:0:0:
306,82,28486,1,2,0:0:0:0:
257,191,28758,1,0,0:0:0:0:
356,310,29031,6,0,P|404:294|477:288,2,120,2|2|2,0:0|0:0|0:0,0:0:0:0:
293,262,30122,2,0,P|257:277|213:278,1,80,2|0,0:0|0:0,0:0:0:0:
150,322,30668,2,0,L|75:283,1,80,2|0,0:0|0:0,0:0:0:0:
174,185,31213,6,0,P|195:146|193:62,2,120,2|2|2,0:0|0:0|0:0,0:0:0:0:
104,146,32304,2,0,L|12:161,1,80,0|2,0:0|0:0,0:0:0:0:
143,250,32849,2,0,L|62:237,1,80,2|0,0:0|0:0,0:0:0:0:
268,209,33395,5,0,0:0:0:0:
366,224,33668,1,2,0:0:0:0:
340,320,33940,1,2,0:0:0:0:
244,307,34213,1,0,0:0:0:0:
319,206,34486,5,0,0:0:0:0:
247,257,34758,1,0,0:0:0:0:
290,335,35031,1,2,0:0:0:0:
365,284,35304,1,0,0:0:0:0:
481,335,35577,6,0,P|478:295|481:249,1,80,4|0,0:1|0:0,0:0:0:0:
399,196,36122,2,0,P|405:113|397:63,1,120,2|0,0:0|0:0,0:0:0:0:
388,86,36668,2,0,L|295:80,1,80,0|2,0:0|0:0,0:0:0:0:
235,99,37213,1,2,0:0:0:0:
159,83,37486,1,0,0:0:0:0:
79,202,37758,6,0,P|18:161|7:100,2,120,2|2|2,0:0|0:0|0:0,0:0:0:0:
154,188,38849,2,0,L|182:270,1,80
106,285,39395,2,0,L|24:267,1,80,2|0,0:0|0:0,0:0:0:0:
216,145,39940,6,0,P|216:216|245:266,2,120,4|2|0,0:1|0:0|0:0,0:0:0:0:
214,133,40895,1,2,0:0:0:0:
212,121,41031,2,0,P|259:118|301:122,1,80,2|2,0:0|0:0,0:0:0:0:
428,177,41577,2,0,P|385:183|335:181,1,80,0|2,0:0|0:0,0:0:0:0:
210,300,42122,6,0,P|261:293|332:303,2,120,4|2|2,0:1|0:0|0:0,0:0:0:0:
206,208,43213,2,0,L|295:219,1,80,0|2,0:0|0:0,0:0:0:0:
470,173,43758,2,0,L|455:94,1,80,2|0,0:0|0:0,0:0:0:0:
241,41,44304,6,0,P|160:44|98:56,2,120,4|2|2,0:1|0:0|0:0,0:0:0:0:
310,90,45395,1,0,3:0:0:0:
205,189,45668,1,2,0:0:0:0:
320,275,45940,2,0,P|325:318|322:357,1,80,2|0,0:0|0:0,0:0:0:0:
449,252,46486,6,0,L|462:125,1,120,4|0,0:1|0:0,0:0:0:0:
470,110,47031,2,0,P|432:127|394:128,1,80,2|0,0:0|0:0,0:0:0:0:
276,72,47577,2,0,L|153:80,1,120
130,76,48122,2,0,P|83:88|39:83,1,80,2|0,0:0|0:0,0:0:0:0:
201,268,48668,5,0,3:0:0:0:
201,268,49077,1,0,0:0:0:0:
201,268,49213,1,2,0:0:0:0:
184,178,49486,1,2,0:0:0:0:
276,146,49758,1,2,0:0:0:0:
288,242,50031,1,0,0:0:0:0:
318,230,50168,1,2,0:0:0:0:
349,232,50304,2,0,P|345:189|349:140,1,80,2|0,0:0|0:0,0:0:0:0:
512,50,50849,6,0,P|496:106|434:137,2,120,4|2|2,0:1|0:0|0:0,0:0:0:0:
380,87,51940,2,0,P|319:82|256:89,1,120,2|2,0:0|0:0,0:0:0:0:
236,97,52486,1,2,0:0:0:0:
108,40,52758,1,0,0:0:0:0:
76,32,52895,1,2,0:0:0:0:
44,38,53031,2,0,P|47:106|43:174,1,120,2|2,0:0|0:0,0:0:0:0:
43,185,53577,1,0,0:0:0:0:
58,276,53849,1,2,0:0:0:0:
171,172,54122,6,0,P|161:210|160:251,1,80,0|0,3:0|3:0,0:0:0:0:
308,351,54668,2,0,P|317:310|317:263,1,80,2|0,3:0|0:0,0:0:0:0:
193,46,55213,6,0,P|218:54|257:53,1,53.3333333333333,4|2,0:1|0:0,0:0:0:0:
332,162,55622,2,0,P|312:159|292:154,1,40,2|0,0:0|0:0,0:0:0:0:
384,71,56031,1,2,0:0:0:0:
504,43,56304,1,0,0:0:0:0:
462,148,56577,1,0,0:0:0:0:
470,178,56713,1,0,0:0:0:0:
479,208,56849,1,2,0:0:0:0:
463,297,57122,1,0,0:0:0:0:
230,169,57395,6,0,P|179:178|95:157,1,120,4|2,0:1|0:0,0:0:0:0:
88,154,57940,1,0,0:0:0:0:
0,183,58213,1,2,0:0:0:0:
210,96,58486,1,0,0:0:0:0:
322,138,58758,1,2,0:0:0:0:
353,130,58895,1,0,0:0:0:0:
384,123,59031,1,2,0:0:0:0:
478,140,59304,1,0,0:0:0:0:
384,274,59577,6,0,P|315:269|256:291,1,120,4|0,0:1|0:0,0:0:0:0:
248,300,60122,1,2,0:0:0:0:
170,351,60395,1,0,0:0:0:0:
149,324,60531,1,2,0:0:0:0:
129,298,60668,2,0,L|48:289,1,80
216,144,61213,2,0,L|232:238,1,80,2|0,0:0|0:0,0:0:0:0:
395,325,61758,5,4,0:1:0:0:
395,325,62168,1,2,0:0:0:0:
395,325,62304,1,0,0:0:0:0:
400,249,62577,1,2,0:0:0:0:
405,173,62849,2,0,P|356:123|411:46,1,160,0|2,0:0|0:0,0:0:0:0:
391,51,63668,1,0,0:0:0:0:
226,228,63940,6,0,P|162:215|100:120,1,180.000006866455,4|0,3:1|0:0,0:0:0:0:
78,53,64486,2,0,L|209:61,1,120.000004577637,2|0,0:0|0:0,0:0:0:0:
229,68,64895,1,2,0:0:0:0:
263,60,65031,1,0,0:0:0:0:
353,70,65304,1,2,0:0:0:0:
282,85,65577,2,0,P|285:118|281:204,1,120.000004577637,2|0,0:0|0:0,0:0:0:0:
414,349,66122,6,0,P|476:310|479:204,1,180.000006866455,0|0,3:0|0:0,0:0:0:0:
501,142,66668,2,0,P|472:140|441:142,2,60.0000022888184,2|0|0,0:0|0:0|0:0,0:0:0:0:
323,292,67213,5,0,0:0:0:0:
272,354,67486,1,2,0:0:0:0:
211,305,67758,1,2,0:0:0:0:
261,245,68031,1,0,0:0:0:0:
430,68,68304,6,0,P|365:59|248:71,1,180.000006866455,0|0,3:0|0:0,0:0:0:0:
179,56,68849,2,0,P|183:127|175:200,1,120.000004577637,2|0,0:0|0:0,0:0:0:0:
165,204,69258,1,0,0:0:0:0:
152,177,69395,1,2,0:0:0:0:
258,204,69668,1,0,0:0:0:0:
364,176,69940,2,0,P|359:242|366:313,1,120.000004577637,2|0,0:0|0:0,0:0:0:0:
128,352,70486,6,0,P|53:327|44:201,1,180.000006866455,0|0,3:0|0:0,0:0:0:0:
10,167,71031,2,0,P|8:106|14:40,1,120.000004577637,2|0,0:0|0:0,0:0:0:0:
240,217,71577,2,0,P|248:279|242:345,1,120.000004577637,2|2,0:0|0:0,0:0:0:0:
476,165,72122,2,0,P|470:93|479:22,1,120.000004577637,2|0,0:0|0:0,0:0:0:0:
332,236,72668,6,0,P|288:163|160:141,1,180.000006866455,4|2,0:1|0:0,0:0:0:0:
143,93,73213,2,0,L|25:142,1,120.000004577637,0|2,0:0|0:0,0:0:0:0:
9,161,73622,1,0,0:0:0:0:
33,178,73758,1,2,0:0:0:0:
124,191,74031,1,0,0:0:0:0:
71,236,74304,2,0,P|73:302|72:358,1,120.000004577637,2|0,0:0|0:0,0:0:0:0:
174,318,74849,6,0,P|221:268|334:272,1,180.000006866455,4|2,0:1|0:0,0:0:0:0:
393,236,75395,2,0,P|401:304|395:364,1,120.000004577637,0|2,0:0|0:0,0:0:0:0:
474,217,75940,1,0,0:0:0:0:
485,310,76213,1,0,0:0:0:0:
496,235,76486,2,0,P|498:168|491:101,1,120.000004577637,2|0,0:0|0:0,0:0:0:0:
375,140,77031,6,0,P|287:97|180:149,1,180.000006866455,4|2,0:1|0:0,0:0:0:0:
142,136,77577,1,0,0:0:0:0:
309,213,77849,2,0,L|300:286,2,60.0000022888184,2|0|4,0:0|0:0|0:1,0:0:0:0:
489,164,78395,1,2,0:3:0:0:
479,210,78531,1,2,0:3:0:0:
489,256,78668,1,2,0:3:0:0:
302,272,78940,1,0,3:0:0:0:
107,156,79213,6,0,P|126:88|118:37,1,120,4|0,0:1|0:0,0:0:0:0:
102,28,79758,2,0,P|165:30|210:30,1,80,0|0,1:0|0:0,0:0:0:0:
325,59,80304,1,2,0:0:0:0:
405,32,80577,1,0,0:0:0:0:
419,30,80713,1,0,3:0:0:0:
434,29,80849,2,0,P|438:54|436:109,1,80,0|0,3:0|0:0,0:0:0:0:
222,128,81395,6,0,P|217:190|225:269,1,120,2|0,0:0|0:0,0:0:0:0:
216,262,81940,2,0,L|309:267,1,80,0|0,1:0|0:0,0:0:0:0:
384,231,82486,1,2,0:0:0:0:
433,328,82758,2,0,P|432:288|435:266,1,40,0|0,0:0|3:0,0:0:0:0:
362,341,83031,2,0,L|361:293,1,40,0|0,3:0|3:0,0:0:0:0:
290,351,83304,2,0,P|290:307|289:292,1,40,0|0,3:0|3:0,0:0:0:0:
179,356,83577,6,0,P|104:331|86:270,1,120,4|0,0:1|0:0,0:0:0:0:
71,293,84122,2,0,P|73:252|71:210,1,80,0|0,1:0|0:0,0:0:0:0:
49,53,84668,1,2,0:0:0:0:
8,125,84940,1,0,0:0:0:0:
20,133,85077,1,0,3:0:0:0:
33,142,85213,2,0,P|83:141|126:142,1,80,0|0,0:0|0:0,0:0:0:0:
207,260,85758,6,0,P|239:214|328:209,1,120,2|0,0:0|0:0,0:0:0:0:
306,186,86304,2,0,P|353:190|392:187,1,80,0|0,1:0|0:0,0:0:0:0:
138,209,86849,6,0,P|132:144|137:30,1,150,2|0,3:0|0:0,0:0:0:0:
118,39,87395,2,0,P|176:38|238:40,1,100,0|0,3:0|3:0,0:0:0:0:
259,45,87804,1,0,3:0:0:0:
301,41,87940,1,4,0:1:0:0:
225,255,88349,5,2,0:0:0:0:
225,255,88486,2,0,P|222:295|226:339,1,80,0|2,0:0|0:0,0:0:0:0:
308,193,89031,2,0,P|306:279|311:326,1,120,2|2,0:0|0:0,0:0:0:0:
303,326,89577,2,0,P|348:328|394:326,1,80,0|2,0:0|0:0,0:0:0:0:
228,220,90122,6,0,P|206:179|243:109,1,120,2|2,0:0|0:0,0:0:0:0:
214,118,90668,2,0,P|172:120|129:115,1,80,0|2,0:0|0:0,0:0:0:0:
304,137,91213,1,2,0:0:0:0:
381,112,91486,1,2,0:0:0:0:
385,127,91622,1,2,0:0:0:0:
389,142,91758,1,0,0:0:0:0:
468,125,92031,1,0,0:0:0:0:
457,278,92304,6,0,P|407:274|326:278,1,120,4|2,0:1|0:0,0:0:0:0:
323,277,92849,2,0,P|279:279|237:278,1,80,0|2,0:0|0:0,0:0:0:0:
157,300,93395,1,2,0:0:0:0:
101,235,93668,1,2,0:0:0:0:
30,283,93940,1,0,0:0:0:0:
82,351,94213,1,2,0:0:0:0:
180,225,94486,6,0,P|188:180|183:106,1,120,2|2,0:0|0:0,0:0:0:0:
180,93,95031,1,0,0:0:0:0:
263,171,95304,2,0,P|265:133|263:90,1,80,2|0,0:0|0:0,0:0:0:0:
325,40,95849,1,2,0:0:0:0:
346,117,96122,1,2,0:0:0:0:
336,196,96395,1,0,0:0:0:0:
196,135,96668,6,0,P|145:139|63:132,1,120,4|2,0:1|0:0,0:0:0:0:
64,128,97213,2,0,P|61:86|63:47,1,80,0|2,0:0|0:0,0:0:0:0:
154,217,97758,2,0,P|223:220|296:215,1,120,0|2,0:0|0:0,0:0:0:0:
286,222,98304,2,0,P|289:179|286:137,1,80,0|2,0:0|0:0,0:0:0:0:
226,320,98849,2,0,P|175:318|100:320,1,120,0|2,0:0|0:0,0:0:0:0:
92,323,99395,1,0,0:0:0:0:
181,238,99668,2,0,L|100:248,1,80,2|0,0:0|0:0,0:0:0:0:
23,217,100213,2,0,P|25:259|25:306,1,80,2|0,0:0|0:0,0:0:0:0:
124,169,100758,5,2,0:0:0:0:
194,115,101031,1,0,0:0:0:0:
283,215,101304,1,2,0:0:0:0:
283,124,101577,1,0,0:0:0:0:
279,108,101713,1,2,0:0:0:0:
275,92,101849,1,2,0:0:0:0:
369,157,102122,1,0,0:0:0:0:
452,115,102395,1,0,0:0:0:0:
494,205,102668,1,2,0:0:0:0:
491,220,102804,1,2,0:0:0:0:
488,235,102940,1,0,0:0:0:0:
362,349,103213,6,0,P|298:354|224:348,1,120,2|2,0:0|0:0,0:0:0:0:
226,354,103758,2,0,P|223:330|223:312,2,40,0|2|2,0:0|0:0|0:0,0:0:0:0:
314,258,104304,1,2,0:0:0:0:
397,311,104577,1,2,0:0:0:0:
419,314,104713,1,0,3:0:0:0:
438,311,104849,1,0,3:0:0:0:
502,264,105122,1,0,3:0:0:0:
395,151,105395,5,4,0:1:0:0:
395,151,105531,2,0,P|361:171|314:173,1,80,2|2,0:0|0:0,0:0:0:0:
292,168,105940,2,0,L|274:91,1,80,2|2,3:0|0:0,0:0:0:0:
205,42,106486,1,2,0:0:0:0:
187,134,106758,1,0,0:0:0:0:
97,118,107031,1,2,3:0:0:0:
110,29,107304,1,0,0:0:0:0:
176,216,107577,6,0,P|116:193|51:194,1,120,2|2,0:0|0:0,0:0:0:0:
36,197,108122,1,2,3:0:0:0:
108,265,108395,1,0,0:0:0:0:
122,271,108531,1,2,0:0:0:0:
138,277,108668,2,0,P|145:318|142:356,1,80,2|0,0:0|0:0,0:0:0:0:
220,334,109213,2,0,P|265:343|316:339,1,80,2|0,3:0|0:0,0:0:0:0:
196,208,109758,5,0,0:0:0:0:
196,208,109895,2,0,P|185:160|187:118,1,80,2|2,0:0|0:0,0:0:0:0:
169,110,110304,1,2,3:0:0:0:
215,31,110577,1,2,0:0:0:0:
74,55,110849,1,0,3:0:0:0:
102,149,111122,1,0,3:0:0:0:
17,230,111395,1,2,3:0:0:0:
0,316,111668,1,0,0:0:0:0:
148,233,111940,6,0,P|181:280|248:295,1,120
269,292,112486,1,2,3:0:0:0:
213,194,112758,1,0,0:0:0:0:
203,181,112895,1,0,0:0:0:0:
193,168,113031,2,0,L|187:87,1,80,2|0,0:0|3:0,0:0:0:0:
138,33,113577,1,2,3:0:0:0:
273,120,113849,6,0,L|317:134,1,40,0|0,3:0|3:0,0:0:0:0:
381,171,114122,1,4,0:1:0:0:
381,171,114258,2,0,P|383:125|391:90,1,80,2|2,0:0|0:0,0:0:0:0:
407,68,114668,2,0,L|485:85,1,80,2|2,3:0|0:0,0:0:0:0:
509,158,115213,1,2,0:0:0:0:
445,223,115486,1,0,0:0:0:0:
512,285,115758,1,2,3:0:0:0:
445,223,116031,1,0,0:0:0:0:
334,315,116304,6,0,P|336:248|331:178,1,120,2|0,0:0|0:0,0:0:0:0:
332,165,116849,1,2,3:0:0:0:
263,249,117122,1,0,0:0:0:0:
253,262,117258,1,0,0:0:0:0:
243,275,117395,2,0,P|201:277|160:274,1,80,2|0,0:0|0:0,0:0:0:0:
200,189,117940,1,2,3:0:0:0:
60,198,118213,5,0,0:0:0:0:
51,184,118349,1,0,0:0:0:0:
43,170,118486,2,0,P|29:86|41:38,1,120,4|0,0:1|0:0,0:0:0:0:
49,27,119031,1,2,3:0:0:0:
146,187,119304,1,0,0:0:0:0:
150,171,119440,1,2,0:0:0:0:
154,155,119577,2,0,P|156:110|152:70,1,80,0|0,3:0|3:0,0:0:0:0:
158,60,119986,1,0,0:0:0:0:
164,45,120122,2,0,L|84:47,1,80,2|0,3:0|0:0,0:0:0:0:
264,108,120668,6,0,P|318:100|388:110,1,120,4|0,0:1|0:0,0:0:0:0:
410,118,121213,1,2,3:0:0:0:
340,213,121486,1,0,3:0:0:0:
267,306,121758,2,0,P|214:307|138:302,1,120,2|0,0:0|3:0,0:0:0:0:
116,300,122304,1,2,3:0:0:0:
238,92,122577,5,0,3:0:0:0:
268,83,122713,1,0,3:0:0:0:
299,88,122849,2,0,P|382:83|452:93,1,120,4|0,0:1|0:0,0:0:0:0:
451,95,123395,1,2,3:0:0:0:
372,210,123668,1,2,3:0:0:0:
279,333,123940,5,0,3:0:0:0:
240,336,124077,1,0,3:0:0:0:
200,335,124213,1,4,3:0:0:0:
206,84,124486,5,2,3:0:0:0:
259,67,124622,1,2,3:0:0:0:
313,78,124758,1,0,3:0:0:0:
252,210,125031,6,0,P|191:207|88:211,1,150,4|2,0:1|0:0,0:0:0:0:
67,201,125577,1,2,3:0:0:0:
201,282,125849,1,2,0:0:0:0:
311,148,126122,2,0,P|376:141|446:150,1,100,0|0,3:0|0:0,0:0:0:0:
450,136,126531,1,2,0:0:0:0:
488,128,126668,2,0,L|483:235,1,100,2|0,3:0|0:0,0:0:0:0:
254,354,127213,5,0,3:0:0:0:
254,354,127622,1,2,0:0:0:0:
254,354,127758,1,2,3:0:0:0:
205,258,128031,1,2,0:0:0:0:
337,181,128304,1,2,0:0:0:0:
157,110,128577,1,0,0:0:0:0:
145,70,128713,1,2,3:0:0:0:
155,29,128849,1,2,3:0:0:0:
57,278,129122,5,0,3:0:0:0:
39,236,129258,1,0,3:0:0:0:
34,190,129395,2,0,P|97:198|187:194,1,150,4|2,0:1|0:0,0:0:0:0:
223,196,129940,1,2,3:0:0:0:
321,237,130213,1,2,0:0:0:0:
460,104,130486,2,0,P|469:171|462:258,1,150,0|2,3:0|0:0,0:0:0:0:
463,290,131031,1,2,3:0:0:0:
353,108,131304,1,0,0:0:0:0:
308,116,131440,1,2,0:0:0:0:
264,106,131577,2,0,P|210:100|108:106,1,150,0|2,3:0|0:0,0:0:0:0:
76,83,132122,2,0,L|83:184,1,100,2|2,3:0|0:0,0:0:0:0:
255,353,132668,5,0,3:0:0:0:
255,353,132940,2,0,L|263:303,1,50,0|0,3:0|3:0,0:0:0:0:
213,227,133213,2,0,L|194:174,1,50,2|0,3:0|3:0,0:0:0:0:
290,114,133486,2,0,L|316:50,1,50,0|0,3:0|3:0,0:0:0:0:
167,46,133758,6,0,P|150:44|85:30,1,66.6666666666667,4|2,0:1|0:0,0:0:0:0:
56,144,134168,2,0,P|80:151|105:153,1,50,2|2,0:0|3:0,0:0:0:0:
216,147,134577,1,2,0:0:0:0:
255,40,134849,1,0,3:0:0:0:
356,116,135122,1,0,0:0:0:0:
393,103,135258,1,0,0:0:0:0:
431,91,135395,1,2,3:0:0:0:
512,153,135668,1,0,0:0:0:0:
308,236,135940,6,0,P|251:224|140:234,1,150,4|2,0:1|0:0,0:0:0:0:
115,228,136486,1,2,3:0:0:0:
0,268,136758,1,2,0:0:0:0:
166,350,137031,1,2,0:0:0:0:
296,318,137304,1,0,3:0:0:0:
334,329,137440,1,2,0:0:0:0:
372,340,137577,1,2,3:0:0:0:
486,136,137849,5,0,3:0:0:0:
495,185,137986,1,0,3:0:0:0:
504,234,138122,2,0,P|404:210|370:141,1,150,4|2,0:1|0:0,0:0:0:0:
344,144,138668,1,2,3:0:0:0:
235,70,138940,1,2,0:0:0:0:
211,102,139077,1,2,0:0:0:0:
188,134,139213,2,0,L|89:154,1,100,0|0,3:0|3:0,0:0:0:0:
310,275,139758,2,0,L|200:264,1,100,2|0,3:0|3:0,0:0:0:0:
484,150,140304,5,4,0:1:0:0:
484,150,140713,1,2,0:0:0:0:
484,150,140849,1,2,3:0:0:0:
477,232,141122,1,2,0:0:0:0:
470,314,141395,1,0,0:0:0:0:
369,177,141668,1,0,3:0:0:0:
373,208,141804,1,0,3:0:0:0:
377,239,141940,1,2,0:0:0:0:
389,332,142213,1,0,0:0:0:0:
185,89,142486,6,0,P|203:166|205:291,1,180.000006866455,4|2,0:1|0:0,0:0:0:0:
229,334,143031,2,0,P|157:346|90:346,1,120.000004577637,2|0,3:0|0:0,0:0:0:0:
66,340,143440,1,2,0:0:0:0:
21,348,143577,1,0,3:0:0:0:
87,225,143849,1,0,0:0:0:0:
10,251,144122,2,0,P|13:176|7:118,1,120.000004577637,2|0,3:0|0:0,0:0:0:0:
326,173,144668,6,0,P|236:146|192:50,1,180.000006866455,0|2,3:0|0:0,0:0:0:0:
129,45,145213,2,0,L|67:54,2,60.0000022888184,2|0|2,3:0|0:0|0:0,0:0:0:0:
374,68,145758,5,0,3:0:0:0:
302,34,146031,1,0,0:0:0:0:
262,101,146304,1,2,3:0:0:0:
334,135,146577,1,0,0:0:0:0:
89,297,146849,6,0,P|147:242|263:249,1,180.000006866455,0|2,3:0|0:0,0:0:0:0:
308,208,147395,2,0,P|375:211|432:207,1,120.000004577637,2|0,3:0|0:0,0:0:0:0:
465,174,147804,1,0,0:0:0:0:
512,157,147940,1,2,0:0:0:0:
407,290,148213,1,2,0:0:0:0:
343,350,148486,2,0,P|282:348|203:352,1,120.000004577637,0|2,3:0|0:0,0:0:0:0:
362,142,149031,6,0,P|331:197|212:221,1,180.000006866455,0|2,3:0|0:0,0:0:0:0:
169,274,149577,2,0,L|106:279,2,60.0000022888184,2|0|2,3:0|0:0|0:0,0:0:0:0:
480,192,150122,5,2,0:0:0:0:
480,192,150395,2,0,L|419:222,1,60.0000022888184,0|0,3:0|3:0,0:0:0:0:
353,137,150668,2,0,L|286:120,1,60.0000022888184,2|0,3:0|3:0,0:0:0:0:
236,228,150940,2,0,L|155:248,1,60.0000022888184,0|0,3:0|3:0,0:0:0:0:
33,138,151213,6,0,P|103:87|227:111,1,180.000006866455,4|2,0:1|0:0,0:0:0:0:
260,52,151758,2,0,P|265:137|258:197,1,120.000004577637,2|0,3:0|0:0,0:0:0:0:
289,217,152168,1,2,0:0:0:0:
283,270,152304,1,0,3:0:0:0:
405,311,152577,1,0,3:0:0:0:
490,328,152849,2,0,P|486:263|490:198,1,120.000004577637,2|0,3:0|0:0,0:0:0:0:
289,319,153395,6,0,P|183:311|72:320,1,180.000006866455,4|2,0:1|0:0,0:0:0:0:
39,342,153940,2,0,P|37:277|40:211,1,120.000004577637,2|2,3:0|0:0,0:0:0:0:
148,160,154486,1,0,3:0:0:0:
211,95,154758,1,0,3:0:0:0:
240,96,154895,1,0,3:0:0:0:
269,102,155031,1,2,3:0:0:0:
477,39,155304,5,0,3:0:0:0:
492,90,155440,1,0,3:0:0:0:
492,144,155577,2,0,P|457:216|347:230,1,180.000006866455,4|2,0:1|0:0,0:0:0:0:
331,281,156122,1,2,3:0:0:0:
219,120,156395,1,0,0:0:0:0:
231,172,156531,1,2,0:0:0:0:
237,225,156668,2,0,P|241:292|237:347,1,120.000004577637,0|0,3:0|0:0,0:0:0:0:
377,155,157213,2,0,P|435:169|490:191,1,120.000004577637,2|0,3:0|0:0,0:0:0:0:
185,42,157758,5,4,0:1:0:0:
185,42,158168,1,2,0:0:0:0:
185,42,158304,1,2,3:0:0:0:
190,125,158577,1,2,0:0:0:0:
273,138,158849,1,0,3:0:0:0:
102,115,159122,1,0,3:0:0:0:
109,150,159258,1,0,3:0:0:0:
116,185,159395,1,2,3:0:0:0:
33,316,159668,5,0,3:0:0:0:
79,325,159804,1,0,3:0:0:0:
125,335,159940,2,0,P|245:341|318:339,1,180.000006866455,4|2,0:1|0:0,0:0:0:0:
353,351,160486,1,2,3:0:0:0:
342,304,160622,1,0,0:0:0:0:
360,259,160758,1,2,0:0:0:0:
404,241,160895,1,2,0:0:0:0:
451,249,161031,1,0,3:0:0:0:
299,180,161304,1,0,3:0:0:0:
255,246,161577,2,0,P|175:246|107:249,1,120.000004577637,2|0,3:0|0:0,0:0:0:0:
230,73,162122,6,0,P|130:66|50:107,1,180.000006866455,0|2,3:0|0:0,0:0:0:0:
15,95,162668,1,2,3:0:0:0:
41,134,162804,1,2,0:0:0:0:
51,180,162940,1,2,0:0:0:0:
46,228,163077,1,0,0:0:0:0:
27,272,163213,2,0,P|108:270|159:272,1,120.000004577637,0|0,3:0|0:0,0:0:0:0:
232,207,163758,2,0,P|313:205|364:207,1,120.000004577637,2|0,3:0|0:0,0:0:0:0:
451,56,164304,6,0,P|502:110|473:212,1,180.000006866455,0|2,3:0|0:0,0:0:0:0:
496,251,164849,1,2,3:0:0:0:
447,247,164986,1,0,0:0:0:0:
401,263,165122,1,2,0:0:0:0:
367,297,165258,1,2,0:0:0:0:
356,344,165395,1,0,3:0:0:0:
206,278,165668,1,0,3:0:0:0:
177,351,165940,2,0,P|114:353|45:351,1,120.000004577637,2|0,3:0|0:0,0:0:0:0:
279,244,166486,6,0,P|311:189|287:73,1,180.000006866455,0|2,3:0|0:0,0:0:0:0:
347,33,167031,2,0,L|414:40,2,60.0000022888184,2|0|2,3:0|0:0|0:0,0:0:0:0:
32,192,167577,5,2,3:0:0:0:
32,192,167849,2,0,P|63:213|85:233,1,60.0000022888184,0|0,3:0|3:0,0:0:0:0:
152,123,168122,2,0,P|181:119|218:110,1,60.0000022888184,2|2,3:0|3:0,0:0:0:0:
299,228,168395,2,0,P|331:229|360:234,1,60.0000022888184,0|0,3:0|3:0,0:0:0:0:
471,45,168668,6,0,P|390:128|313:134,1,180.000006866455,4|2,0:1|0:0,0:0:0:0:
291,175,169213,1,2,3:0:0:0:
245,158,169349,1,2,0:0:0:0:
197,165,169486,1,0,3:0:0:0:
166,201,169622,1,0,3:0:0:0:
160,248,169758,1,2,0:0:0:0:
352,240,170031,1,0,3:0:0:0:
431,212,170304,2,0,P|429:270|433:346,1,120.000004577637,2|0,3:0|0:0,0:0:0:0:
242,262,170849,6,0,P|135:242|72:283,1,180.000006866455,4|2,0:1|0:0,0:0:0:0:
16,233,171395,2,0,L|-1:294,2,60.0000022888184,2|0|2,3:0|0:0|0:0,0:0:0:0:
152,99,171940,5,0,3:0:0:0:
235,170,172213,1,0,3:0:0:0:
269,159,172349,1,0,3:0:0:0:
304,150,172486,1,2,3:0:0:0:
137,323,172758,5,0,3:0:0:0:
189,336,172895,1,0,3:0:0:0:
241,349,173031,2,0,P|324:326|368:214,1,180.000006866455,4|2,0:1|0:0,0:0:0:0:
417,247,173577,1,2,3:0:0:0:
384,211,173713,1,0,0:0:0:0:
384,163,173849,1,2,0:0:0:0:
410,122,173986,1,2,0:0:0:0:
455,108,174122,1,0,3:0:0:0:
290,34,174395,5,0,3:0:0:0:
276,79,174531,1,2,0:0:0:0:
247,117,174668,1,2,3:0:0:0:
207,143,174804,1,0,3:0:0:0:
160,154,174940,1,0,3:0:0:0:
113,148,175077,1,2,3:0:0:0:
71,126,175213,1,4,0:1:0:0:
264,298,175622,5,0,3:0:0:0:
264,298,175758,1,2,3:0:0:0:
356,313,176031,1,2,0:0:0:0:
420,161,176304,1,0,3:0:0:0:
471,233,176577,1,0,3:0:0:0:
383,237,176849,1,4,0:1:0:0:
67,264,177395,5,0,3:0:0:0:
67,264,178486,2,0,P|112:260|162:244,1,80,0|0,0:0|3:0,0:0:0:0:
192,154,179577,2,0,P|151:159|104:174,1,80,0|0,0:0|3:0,0:0:0:0:
219,266,180668,2,0,P|261:261|300:247,1,80,0|0,0:0|3:0,0:0:0:0:
343,118,181758,2,0,P|302:130|260:139,1,80,0|0,0:0|3:0,0:0:0:0:
419,166,182849,2,0,P|455:155|495:143,2,80,0|0|0,0:0|3:0|3:0,0:0:0:0:
306,332,185031,2,0,P|357:326|395:314,1,80,0|0,0:0|3:0,0:0:0:0:
479,315,186122,6,0,P|470:248|472:240,1,60,0|0,0:0|3:0,0:0:0:0:
407,189,186940,2,0,P|317:199|278:270,1,160
230,315,188304,2,0,P|195:306|168:307,1,60,0|0,0:0|3:0,0:0:0:0:
90,348,189122,2,0,P|79:272|88:171,1,160,0|0,0:0|0:0,0:0:0:0:
174,161,190486,6,0,P|194:160|220:164,1,40,0|0,0:0|0:0,0:0:0:0:
253,229,191031,2,0,P|284:225|297:220,1,40,0|0,0:0|0:0,0:0:0:0:
334,118,191577,2,0,P|339:140|339:159,1,40,2|0,0:0|0:0,0:0:0:0:
397,204,192122,2,0,P|393:235|388:245,1,40,2|0,0:0|0:0,0:0:0:0:
300,297,192668,6,0,P|264:290|241:276,2,60,2|0|0,0:0|0:0|0:0,0:0:0:0:
369,321,193758,2,0,P|382:261|400:191,1,120,2|0,0:0|0:0,0:0:0:0:
445,96,194849,6,0,P|375:61|361:40,2,90.0000034332277,2|0|0,0:0|3:0|3:0,0:0:0:0:
504,170,195940,2,0,P|518:218|510:263,2,90.0000034332277,2|0|0,0:0|3:0|3:0,0:0:0:0:
413,194,197031,2,0,P|342:175|170:187,1,240.000009155274,2|2,0:0|3:0,0:0:0:0:
74,325,198668,2,0,P|33:304|23:288,1,60.0000022888184,2|0,3:0|3:0,0:0:0:0:
69,205,199213,6,0,P|79:159|59:112,2,90.0000034332277,2|0|0,0:0|3:0|3:0,0:0:0:0:
162,242,200304,2,0,P|168:286|154:333,2,90.0000034332277,2|0|0,0:0|3:0|3:0,0:0:0:0:
256,209,201395,2,0,P|273:166|218:45,1,180.000006866455,2|0,0:0|0:0,0:0:0:0:
167,115,202486,2,0,P|76:101|42:90,1,120.000004577637,0|2,3:0|3:0,0:0:0:0:
153,258,203577,6,0,P|163:312|156:371,2,90.0000034332277,2|0|0,0:0|3:0|3:0,0:0:0:0:
222,188,204668,2,0,P|260:205|296:253,2,90.0000034332277,2|0|0,0:0|3:0|3:0,0:0:0:0:
381,183,205758,2,0,P|431:165|454:136,2,90.0000034332277,2|0|0,0:0|3:0|3:0,0:0:0:0:
297,136,206849,1,2,0:0:0:0:
292,124,206986,1,0,3:0:0:0:
285,114,207122,1,0,3:0:0:0:
276,105,207258,1,0,3:0:0:0:
265,99,207395,1,2,3:0:0:0:
152,149,207668,5,0,3:0:0:0:
143,126,207804,1,0,3:0:0:0:
126,107,207940,2,0,P|65:109|18:160,1,120,4|2,0:1|0:0,0:0:0:0:
11,176,208486,1,2,3:0:0:0:
60,275,208758,1,0,0:0:0:0:
88,259,208895,1,2,0:0:0:0:
118,249,209031,2,0,P|165:243|206:242,1,80,0|0,3:0|0:0,0:0:0:0:
295,348,209577,2,0,P|297:308|295:269,1,80,2|0,3:0|0:0,0:0:0:0:
369,59,210122,5,4,0:1:0:0:
369,59,210531,1,2,0:0:0:0:
369,59,210668,1,2,3:0:0:0:
329,140,210940,1,0,0:0:0:0:
470,241,211213,5,2,3:0:0:0:
415,234,211349,1,2,3:0:0:0:
360,241,211486,1,4,3:0:0:0:
209,107,211758,5,0,3:0:0:0:
239,133,211895,1,0,3:0:0:0:
261,167,212031,1,0,3:0:0:0:
382,338,212304,6,0,P|293:309|219:345,1,150,4|2,0:1|0:0,0:0:0:0:
194,314,212849,1,2,3:0:0:0:
54,348,213122,1,2,0:0:0:0:
209,189,213395,1,2,0:0:0:0:
107,238,213668,1,0,3:0:0:0:
63,227,213804,1,2,0:0:0:0:
19,216,213940,1,2,3:0:0:0:
163,81,214213,5,0,3:0:0:0:
263,36,214486,2,0,P|339:45|408:114,1,150,0|2,3:0|0:0,0:0:0:0:
439,117,215031,1,2,3:0:0:0:
412,241,215304,1,2,0:0:0:0:
114,189,215577,5,0,3:0:0:0:
185,118,215849,1,0,3:0:0:0:
189,126,215986,1,0,3:0:0:0:
194,134,216122,2,0,P|201:164|205:188,1,50,2|0,3:0|3:0,0:0:0:0:
324,280,216395,2,0,P|329:236|331:224,1,50,0|2,3:0|3:0,0:0:0:0:
459,63,216668,6,0,P|491:130|490:219,1,150,4|2,0:1|0:0,0:0:0:0:
512,257,217213,1,2,3:0:0:0:
412,348,217486,1,2,0:0:0:0:
155,193,217758,1,0,3:0:0:0:
341,246,218031,1,0,3:0:0:0:
297,258,218168,1,2,0:0:0:0:
253,270,218304,1,2,3:0:0:0:
435,75,218577,5,0,3:0:0:0:
387,61,218713,1,2,0:0:0:0:
339,47,218849,2,0,P|262:51|156:29,1,150,0|2,3:0|0:0,0:0:0:0:
136,33,219395,1,2,3:0:0:0:
246,161,219668,1,2,0:0:0:0:
115,278,219940,5,0,3:0:0:0:
274,351,220213,1,0,3:0:0:0:
285,302,220349,1,0,3:0:0:0:
282,252,220486,1,2,3:0:0:0:
478,269,220758,1,0,3:0:0:0:
487,215,220895,1,0,3:0:0:0:
485,164,221031,2,0,P|481:124|480:93,1,66.6666666666667,4|2,0:1|0:0,0:0:0:0:
342,112,221440,2,0,P|343:135|346:163,1,50,2|2,0:0|3:0,0:0:0:0:
405,318,221849,1,2,0:0:0:0:
219,284,222122,5,0,3:0:0:0:
106,348,222395,1,0,3:0:0:0:
114,298,222531,1,0,3:0:0:0:
122,248,222668,1,2,0:0:0:0:
288,340,222940,1,0,3:0:0:0:
421,123,223213,6,0,P|430:203|424:278,1,150,4|2,0:1|0:0,0:0:0:0:
439,323,223758,1,2,3:0:0:0:
302,240,224031,1,2,0:0:0:0:
256,32,224304,5,0,3:0:0:0:
354,56,224577,1,0,3:0:0:0:
362,60,224713,1,0,3:0:0:0:
370,64,224849,2,0,L|381:129,1,50,2|2,3:0|3:0,0:0:0:0:
230,176,225122,2,0,L|221:240,1,50,0|0,3:0|3:0,0:0:0:0:
418,310,225395,6,0,P|358:328|262:316,1,150,4|2,0:1|0:0,0:0:0:0:
221,303,225940,1,2,3:0:0:0:
97,336,226213,1,0,3:0:0:0:
91,291,226349,1,2,0:0:0:0:
85,246,226486,2,0,P|84:187|73:145,1,100,0|2,3:0|0:0,0:0:0:0:
266,217,227031,2,0,P|334:211|383:202,1,100,2|0,3:0|0:0,0:0:0:0:
512,59,227577,5,4,0:1:0:0:
512,59,227986,1,2,0:0:0:0:
512,59,228122,1,2,3:0:0:0:
434,120,228395,1,2,0:0:0:0:
338,79,228668,1,0,0:0:0:0:
308,82,228804,1,2,0:0:0:0:
278,85,228940,1,0,3:0:0:0:
248,89,229077,1,0,3:0:0:0:
218,92,229213,1,2,3:0:0:0:
121,70,229486,1,0,3:0:0:0:
321,225,229758,6,0,P|385:255|432:361,1,180.000006866455,4|2,0:1|0:0,0:0:0:0:
502,336,230304,2,0,L|512:217,1,120.000004577637,2|0,3:0|0:0,0:0:0:0:
476,177,230713,1,2,0:0:0:0:
474,125,230849,1,0,3:0:0:0:
287,165,231122,5,0,3:0:0:0:
204,131,231395,1,2,3:0:0:0:
281,85,231668,1,0,0:0:0:0:
232,272,231940,6,0,P|147:283|87:357,1,180.000006866455,0|2,3:0|0:0,0:0:0:0:
23,322,232486,2,0,P|19:252|23:189,1,120.000004577637,2|0,3:0|0:0,0:0:0:0:
8,152,232895,1,2,0:0:0:0:
10,100,233031,1,2,0:0:0:0:
186,194,233304,5,2,0:0:0:0:
272,159,233577,1,2,3:0:0:0:
353,200,233849,1,2,0:0:0:0:
489,46,234122,6,0,L|291:57,1,180.000006866455,0|2,3:0|0:0,0:0:0:0:
241,37,234668,2,0,P|170:45|105:42,1,120.000004577637,2|0,3:0|0:0,0:0:0:0:
75,30,235077,1,2,0:0:0:0:
85,74,235213,1,0,3:0:0:0:
259,154,235486,5,0,3:0:0:0:
194,211,235758,1,2,3:0:0:0:
276,241,236031,1,0,0:0:0:0:
501,85,236304,6,0,P|468:162|484:267,1,180.000006866455,0|2,3:0|0:0,0:0:0:0:
450,321,236849,2,0,L|501:352,2,60.0000022888184,2|2|0,3:0|0:0|0:0,0:0:0:0:
256,68,237395,5,0,3:0:0:0:
256,68,237668,2,0,P|287:86|318:99,1,60.0000022888184,0|0,3:0|3:0,0:0:0:0:
200,199,237940,2,0,L|131:202,1,60.0000022888184,2|2,3:0|3:0,0:0:0:0:
306,319,238213,2,0,P|337:308|372:301,1,60.0000022888184,0|0,3:0|3:0,0:0:0:0:
79,348,238486,6,0,P|166:338|244:254,1,180.000006866455,4|2,0:1|0:0,0:0:0:0:
292,237,239031,2,0,P|339:189|383:161,1,120.000004577637,2|0,3:0|0:0,0:0:0:0:
437,151,239440,1,2,0:0:0:0:
493,146,239577,2,0,P|469:206|452:262,1,120.000004577637,0|0,3:0|0:0,0:0:0:0:
150,251,240122,2,0,P|174:191|191:135,1,120.000004577637,2|0,3:0|0:0,0:0:0:0:
395,37,240668,6,0,P|375:162|350:223,1,180.000006866455,4|2,0:1|0:0,0:0:0:0:
322,276,241213,2,0,P|266:328|221:353,1,120.000004577637,2|2,3:0|0:0,0:0:0:0:
32,192,241758,5,0,3:0:0:0:
32,192,242031,2,0,P|48:140|50:130,1,60.0000022888184,0|0,3:0|3:0,0:0:0:0:
209,238,242304,2,0,P|211:189|210:173,1,60.0000022888184,2|0,3:0|3:0,0:0:0:0:
396,183,242577,2,0,P|392:133|390:116,1,60.0000022888184,0|2,3:0|3:0,0:0:0:0:
295,36,242849,6,0,P|231:80|128:91,1,180.000006866455,4|2,0:1|0:0,0:0:0:0:
70,130,243395,2,0,P|62:200|61:258,1,120.000004577637,2|0,3:0|0:0,0:0:0:0:
37,297,243804,1,2,0:0:0:0:
46,351,243940,1,0,3:0:0:0:
231,213,244213,1,0,3:0:0:0:
225,266,244349,1,2,0:0:0:0:
232,319,244486,1,2,3:0:0:0:
398,160,244758,1,0,3:0:0:0:
390,214,244895,1,0,3:0:0:0:
397,267,245031,1,4,0:1:0:0:
256,32,245440,5,2,0:0:0:0:
256,32,245577,1,2,3:0:0:0:
291,118,245849,1,2,0:0:0:0:
228,186,246122,1,0,3:0:0:0:
280,264,246395,1,0,3:0:0:0:
256,352,246668,2,0,P|209:352|153:354,1,80,4|0,0:1|0:0,0:0:0:0:
362,205,247213,6,0,P|382:164|422:140,2,90.0000034332277,2|0|0,0:0|0:0|0:0,0:0:0:0:
308,264,248304,2,0,P|222:274|177:282,1,120.000004577637,2|0,0:0|0:0,0:0:0:0:
40,69,249395,6,0,P|14:106|10:160,2,90.0000034332277,2|0|0,0:0|0:0|0:0,0:0:0:0:
93,162,250486,2,0,P|101:230|105:286,1,120.000004577637,2|0,0:0|0:0,0:0:0:0:
412,214,251577,6,0,P|472:196|496:170,2,90.0000034332277,2|0|0,0:0|0:0|0:0,0:0:0:0:
335,190,252668,2,0,P|328:250|324:320,1,120.000004577637,2|0,0:0|0:0,0:0:0:0:
193,72,253758,6,0,P|141:90|56:84,2,120,4|0|0,0:1|0:0|0:0,0:0:0:0:
266,36,254849,2,0,P|306:43|345:57,1,80,2|0,0:0|0:0,0:0:0:0:
409,102,255395,2,0,P|455:91|495:92,1,80,0|0,0:0|0:0,0:0:0:0:
325,191,255940,6,0,P|333:244|334:311,2,120,2|0|0,0:0|0:0|0:0,0:0:0:0:
273,130,257031,2,0,P|239:163|210:189,1,80,2|2,0:0|0:0,0:0:0:0:
214,264,257577,2,0,L|124:287,1,80,0|0,0:0|0:0,0:0:0:0:
365,307,258122,6,0,P|417:307|499:336,2,120,2|0|0,0:0|0:0|0:0,0:0:0:0:
298,262,259213,2,0,L|333:180,1,80,2|0,0:0|0:0,0:0:0:0:
258,152,259758,2,0,P|264:110|264:66,1,80,0|0,0:0|0:0,0:0:0:0:
113,35,260304,6,0,P|47:66|25:108,2,120,2|0|0,0:0|0:0|0:0,0:0:0:0:
181,76,261395,2,0,P|181:115|174:162,1,80,2|2,0:0|0:0,0:0:0:0:
239,201,261940,2,0,P|244:241|244:288,1,80
256,192,262758,12,4,265349,0:1:0:0:
