osu file format v14

[General]
AudioFilename: audio.mp3
AudioLeadIn: 0
PreviewTime: 41814
Countdown: 0
SampleSet: Soft
StackLeniency: 0.7
Mode: 0
LetterboxInBreaks: 0
WidescreenStoryboard: 0

[Editor]
Bookmarks: 11385,21671,31957,42242,52528,61528,65385,71876
DistanceSpacing: 1.1
BeatDivisor: 2
GridSize: 32
TimelineZoom: 1.4

[Metadata]
Title:Dia vo Lhizer
TitleUnicode:Dia vo Lhizer
Artist:Sasaki Eri
ArtistUnicode:佐々木恵梨
Creator:Cami
Version:Normal
Source:勇者ネプテューヌ 世界よ宇宙よ刮目せよ!! アルティメットRPG宣言!!
Tags:Takai Urara Mizushima Yasutaka Kan Sayuri hyperdimension neptunia choujigen game compile heart idea factory artisan studios opening op theme short version super Yuusha Neptune Seikai yo Uchuu yo Katsumoku Seyo!! Ultimate RPG Sengen!!
BeatmapID:1718165
BeatmapSetID:819177

[Difficulty]
HPDrainRate:3.1
CircleSize:3.6
OverallDifficulty:3.2
ApproachRate:4.4
SliderMultiplier:0.72
SliderTickRate:1

[Events]
//Background and Video events
Video,0,"nepu.mp4"
0,0,"Neptune 2018.jpg",0,0
//Break Periods
//Storyboard Layer 0 (Background)
//Storyboard Layer 1 (Fail)
//Storyboard Layer 2 (Pass)
//Storyboard Layer 3 (Foreground)
//Storyboard Sound Samples

[TimingPoints]
1100,428.571428571429,3,2,1,20,1,0
1528,-100,3,2,1,30,0,0
1957,-100,3,2,1,20,0,0
4100,-100,3,2,1,30,0,0
4528,-100,3,2,1,20,0,0
5814,-100,3,2,1,30,0,0
6242,-100,3,2,1,20,0,0
7528,-100,3,2,1,30,0,0
7957,-100,3,2,1,20,0,0
21671,-95.2380952380952,3,2,1,25,0,0
31957,-93.0232558139535,3,2,1,30,0,0
39671,-90.9090909090909,3,2,1,31,0,0
40528,-90.9090909090909,3,2,1,33,0,0
41385,-90.9090909090909,3,2,1,35,0,0
41814,-90.9090909090909,3,2,1,37,0,0
42242,-88.8888888888889,3,2,1,40,0,1
60242,-100,3,2,1,40,0,1
61528,-100,3,2,1,40,0,0
62171,-100,3,2,1,20,0,0
67957,461.538461538462,4,2,1,20,1,0
68880,480,4,2,1,20,1,0
69360,500,4,2,1,20,1,0
69860,731.707317073171,4,2,1,20,1,0
70591,857.142857142857,4,2,1,20,1,0

[Colours]
Combo1 : 125,255,125
Combo2 : 178,178,178
Combo3 : 243,152,50

[HitObjects]
125,285,1100,5,2,0:0:0:0:
189,238,1528,2,0,P|224:237|260:240,1,72
298,310,2385,1,0,0:0:0:0:
373,332,2814,2,0,P|408:333|444:330,1,72
504,277,3671,5,0,0:0:0:0:
456,213,4100,2,0,P|454:177|457:141,1,72
474,63,4957,2,0,P|452:34|419:15,1,72,2|0,0:0|0:0,0:0:0:0:
342,16,5814,1,0,0:0:0:0:
272,53,6242,6,0,P|256:88|256:120,1,72,2|0,0:0|0:0,0:0:0:0:
282,195,7100,1,0,0:0:0:0:
233,257,7528,1,0,0:0:0:0:
162,220,7957,2,0,P|127:216|92:225,1,72
53,294,8814,5,0,0:0:0:0:
111,347,9242,2,0,P|146:351|181:342,1,72
229,278,10100,1,2,0:0:0:0:
305,299,10528,2,0,P|316:333|315:378,1,72
395,367,11385,6,0,B|420:342|461:341|461:341|501:340|527:305,1,144,2|2,0:0|0:0,0:0:0:0:
481,241,12671,2,0,P|474:206|476:171,1,72,2|0,0:0|0:0,0:0:0:0:
499,95,13528,1,2,0:0:0:0:
454,29,13957,5,2,0:0:0:0:
454,29,14171,2,0,B|418:37|383:30|383:30|339:66|361:136,1,180,2|2,0:0|0:0,0:0:0:0:
420,275,16100,2,0,P|423:305|420:328,1,36,2|0,0:0|0:0,0:0:0:0:
399,342,16528,6,0,B|343:377|258:355|258:355|244:322|257:277,1,216,2|0,0:0|0:0,0:0:0:0:
404,235,18671,1,2,0:0:0:0:
441,305,19100,6,0,P|415:310|390:306,1,36,2|0,0:0|0:0,0:0:0:0:
367,297,19528,2,0,B|342:262|369:201|369:201|388:162|374:105|374:105|331:66|283:87,1,288,2|0,0:0|0:0,0:0:0:0:
235,144,21671,6,0,B|151:181|170:116|84:154,1,151.199995385742,2|2,3:2|0:0,0:0:0:0:
10,178,22957,2,0,B|16:211|42:230|42:230|60:272|38:324,1,151.199995385742,2|2,0:0|0:0,0:0:0:0:
110,362,24242,6,0,B|184:349|201:283|201:283|249:283|283:336,1,226.799993078614,2|0,3:2|0:0,0:0:0:0:
440,380,26385,2,0,P|461:381|483:374,1,37.7999988464356,2|0,0:0|0:0,0:0:0:0:
500,343,26814,5,2,0:0:0:0:
504,260,27242,2,0,P|477:202|372:189,1,151.199995385742,2|0,0:0|0:0,0:0:0:0:
235,142,28957,2,0,P|210:153|184:153,1,37.7999988464356,2|0,0:0|0:0,0:0:0:0:
158,155,29385,6,0,B|182:223|140:259|140:259|101:296|114:369,1,226.799993078614,2|0,3:2|3:0,0:0:0:0:
368,379,31957,6,0,P|360:341|318:285,1,77.4000011810303,2|2,3:2|0:0,0:0:0:0:
320,270,32600,2,0,P|328:232|335:217,2,38.7000005905151,0|2|2,3:2|0:0|0:0,0:0:0:0:
277,270,33242,2,0,P|231:275|187:263,1,77.4000011810303,2|0,3:2|3:0,0:0:0:0:
161,192,34100,2,0,P|196:184|225:185,1,38.7000005905151,0|0,3:0|3:0,0:0:0:0:
241,182,34528,6,0,P|230:134|239:63,1,116.100001771545,2|2,3:2|3:2,0:0:0:0:
237,68,35814,2,0,P|182:70|137:50,2,77.4000011810303,2|0|0,3:2|3:0|3:0,0:0:0:0:
314,102,37100,6,0,P|321:121|315:188,1,77.4000011810303,2|2,3:2|0:0,0:0:0:0:
294,212,37742,2,0,P|291:239|292:266,2,38.7000005905151,0|2|2,3:0|0:0|0:0,0:0:0:0:
251,209,38385,2,0,B|212:185|171:195|171:195|124:232|51:217,1,193.500002952576,2|2,3:2|0:0,0:0:0:0:
34,190,39671,6,0,P|30:151|40:105,2,79.2000024169923,2|0|0,3:2|3:2|3:0,0:0:0:0:
99,247,40957,1,0,3:0:0:0:
185,258,41385,1,0,0:0:0:0:
263,220,41814,2,0,P|264:186|253:152,1,39.6000012084961,2|0,3:2|3:0,0:0:0:0:
257,136,42242,6,0,B|308:149|331:117|331:117|360:82|423:100,1,162.00000617981,2|2,3:2|0:0,0:0:0:0:
442,119,43314,1,2,0:0:0:0:
449,162,43528,2,0,P|436:205|449:290,1,121.500004634857,2|0,0:0|0:0,0:0:0:0:
393,353,44600,1,2,0:0:0:0:
393,353,44814,6,0,P|356:372|310:371,1,81.0000030899049,2|2,3:2|0:0,0:0:0:0:
301,285,45671,2,0,P|270:279|240:281,1,40.5000015449525,2|2,0:0|0:0,0:0:0:0:
223,302,46100,2,0,B|212:257|239:224|239:224|268:186|236:126,1,162.00000617981,2|2,0:0|0:0,0:0:0:0:
176,93,47385,6,0,P|131:94|84:119,2,81.0000030899049,2|2|2,3:2|0:0|3:2,0:0:0:0:
259,62,48671,1,2,3:2:0:0:
343,90,49100,1,2,0:0:0:0:
429,71,49528,2,0,P|438:98|438:132,1,40.5000015449525,2|0,3:2|0:0,0:0:0:0:
414,146,49957,6,0,B|404:187|426:224|426:224|441:261|420:305,1,162.00000617981,2|2,3:2|0:0,0:0:0:0:
386,329,51028,1,2,0:0:0:0:
386,329,51242,1,2,3:2:0:0:
299,306,51671,1,0,3:0:0:0:
230,363,52100,2,0,P|202:366|166:358,1,40.5000015449525,2|0,3:2|0:0,0:0:0:0:
152,341,52528,6,0,B|129:306|147:263|147:263|169:218|140:153,1,162.00000617981,2|2,3:2|0:0,0:0:0:0:
124,148,53600,1,2,0:0:0:0:
89,120,53814,2,0,P|78:76|99:1,1,121.500004634857,2|0,3:2|0:0,0:0:0:0:
177,43,54885,1,2,0:0:0:0:
177,43,55100,6,0,P|222:51|274:35,1,81.0000030899049,2|2,3:2|0:0,0:0:0:0:
247,132,55957,1,2,0:0:0:0:
158,148,56385,2,0,B|139:190|157:227|157:227|176:264|158:328,1,162.00000617981,2|2,3:2|0:0,0:0:0:0:
220,373,57671,6,0,P|259:364|299:363,1,81.0000030899049,2|2,3:2|0:0,0:0:0:0:
387,377,58528,1,2,0:0:0:0:
369,289,58957,2,0,P|408:298|448:299,1,81.0000030899049,2|2,3:2|0:0,0:0:0:0:
510,234,59814,1,2,0:0:0:0:
421,214,60242,6,0,P|411:144|427:74,1,144,2|0,3:2|0:0,0:0:0:0:
341,37,61528,2,0,P|293:41|237:66,2,108,2|0|0,3:2|0:0|0:0,0:0:0:0:
341,37,63457,2,0,B|362:68|349:107|349:107|310:161|329:244|329:244|348:261|359:281,1,252
334,347,65385,6,0,P|288:354|269:349,1,36,2|0,0:0|0:0,0:0:0:0:
260,343,65814,1,2,0:0:0:0:
236,267,66242,1,2,0:0:0:0:
163,235,66671,2,0,P|117:228|98:230,1,36,2|0,0:0|0:0,0:0:0:0:
88,232,67100,1,2,0:0:0:0:
77,310,67528,1,2,0:0:0:0:
8,278,67957,6,0,P|3:239|5:215,2,36,2|0|2,0:0|0:0|0:0,0:0:0:0:
88,232,68880,2,0,P|104:205|109:190,1,36,2|0,0:0|0:0,0:0:0:0:
120,164,69360,1,2,0:0:0:0:
193,134,69860,1,2,0:0:0:0:
214,221,70591,2,0,P|248:224|269:221,1,36
256,64,71876,5,2,0:0:0:0:
