osu file format v14

[General]
AudioFilename: 01 -Opening size-.mp3
AudioLeadIn: 0
PreviewTime: 72966
Countdown: 0
SampleSet: Soft
StackLeniency: 0.5
Mode: 0
LetterboxInBreaks: 0
WidescreenStoryboard: 0

[Editor]
DistanceSpacing: 1.3
BeatDivisor: 4
GridSize: 4
TimelineZoom: 2

[Metadata]
Title:Aoki Negai -Opening size-
TitleUnicode:碧き願い -Opening size-
Artist:Sasaka Megumi
ArtistUnicode:佐坂めぐみ
Creator:jonathanlfj
Version:Nightmare
Source:英雄伝説 碧の軌跡 Evolution
Tags:Falcom Sound Team J.D.K. The Legend of Heroes Ao no Kiseki Trails of Blue Azure rpg game opening project_railgun zj0924
BeatmapID:456268
BeatmapSetID:191717

[Difficulty]
HPDrainRate:7
CircleSize:4
OverallDifficulty:8
ApproachRate:9
SliderMultiplier:1.7
SliderTickRate:1

[Events]
//Background and Video events
0,0,"f.jpg",0,0
Video,0,"ao.avi"
//Break Periods
//Storyboard Layer 0 (Background)
//Storyboard Layer 1 (Fail)
//Storyboard Layer 2 (Pass)
//Storyboard Layer 3 (Foreground)
//Storyboard Sound Samples

[TimingPoints]
520,319.148936170213,4,2,1,50,1,0
520,-142.857142857143,4,2,1,50,0,0
10732,-166.666666666667,4,2,1,40,0,0
11530,-100,4,2,1,60,0,0
11690,-83.3333333333333,4,2,1,60,0,0
12009,-100,4,2,1,70,0,1
12089,-100,4,2,1,70,0,0
32434,-117.647058823529,4,2,1,60,0,0
50307,-100,4,2,1,70,0,0
52860,-142.857142857143,4,2,1,60,0,0
60520,-100,4,2,1,70,0,0
63073,-117.647058823529,4,2,1,60,0,0
71849,-100,4,2,1,50,0,0
73285,-86.9565217391304,4,2,1,80,0,1
93711,-117.647058823529,4,2,1,70,0,1
97541,-117.647058823529,4,2,1,50,0,1
97700,-111.111111111111,4,2,1,55,0,1
97860,-105.263157894737,4,2,1,60,0,1
98020,-100,4,2,1,65,0,1
98179,-95.2380952380952,4,2,1,70,0,1
98339,-90.9090909090909,4,2,1,75,0,1
98498,-86.9565217391304,4,2,1,80,0,1
98658,-83.3333333333333,4,2,1,85,0,1
98817,-100,4,2,1,30,0,0
99775,-100,4,2,1,80,0,0
100094,-100,4,2,1,70,0,1
100174,-100,4,2,1,70,0,0
122275,-100,4,2,1,40,0,0

[Colours]
Combo1 : 255,206,94
Combo2 : 111,242,253
Combo3 : 56,155,254
Combo4 : 231,122,254

[HitObjects]
208,120,520,6,0,P|256:120|288:112,1,59.4999981842042,2|0,0:0|0:0,0:0:0:0:
396,184,839,2,0,P|364:176|328:176,1,59.4999981842042,0|2,0:0|0:0,0:0:0:0:
240,280,1158,2,0,P|320:284|368:252,1,118.999996368408,0|2,0:0|0:0,0:0:0:0:
184,208,1637,1,0,0:0:0:0:
184,208,1716,1,0,0:0:0:0:
184,208,1796,6,0,L|108:216,1,59.4999981842042,0|2,0:0|0:0,0:0:0:0:
268,92,2115,2,0,L|256:176,1,59.4999981842042
240,280,2434,1,2,0:0:0:0:
316,224,2594,1,0,0:0:0:0:
176,188,2754,2,0,L|104:196,1,59.4999981842042,2|0,0:0|0:0,0:0:0:0:
252,80,3073,6,0,P|332:72|380:92,1,118.999996368408,2|0,0:0|0:0,0:0:0:0:
416,180,3551,1,2,0:0:0:0:
316,224,3711,2,0,P|308:200|312:144,1,59.4999981842042
400,280,4030,2,0,P|376:304|344:320,1,59.4999981842042,2|0,0:0|0:0,0:0:0:0:
340,320,4270,1,0,0:0:0:0:
328,320,4349,1,0,0:0:0:0:
204,228,4509,6,0,P|240:212|316:224,1,118.999996368408,2|0,0:0|0:0,0:0:0:0:
148,360,4988,2,0,L|140:296,1,59.4999981842042,2|0,0:0|0:0,0:0:0:0:
80,176,5307,2,0,L|68:248,1,59.4999981842042,2|0,0:0|0:0,0:0:0:0:
168,140,5626,5,2,0:0:0:0:
204,228,5785,1,0,0:0:0:0:
288,176,5945,1,0,0:0:0:0:
352,252,6105,2,0,P|440:252|472:232,1,118.999996368408,2|0,0:0|0:0,0:0:0:0:
420,104,6583,2,0,P|404:132|396:176,1,59.4999981842042,2|0,0:0|0:0,0:0:0:0:
397,158,6823,1,0,0:0:0:0:
397,158,6902,1,0,0:0:0:0:
452,348,7062,6,0,P|476:292|464:236,1,118.999996368408,2|0,0:0|0:0,0:0:0:0:
352,352,7541,2,0,L|280:340,1,59.4999981842042,2|0,0:0|0:0,0:0:0:0:
144,296,7860,2,0,L|220:276,1,59.4999981842042,2|0,0:0|0:0,0:0:0:0:
320,208,8179,5,2,0:0:0:0:
200,156,8339,1,0,0:0:0:0:
216,276,8498,1,2,0:0:0:0:
328,196,8658,2,0,P|332:136|308:68,1,118.999996368408,2|0,0:0|0:0,0:0:0:0:
156,24,9137,2,0,P|148:56|148:104,1,59.4999981842042,0|2,0:0|0:0,0:0:0:0:
200,156,9456,5,2,0:0:0:0:
336,60,9615,1,0,0:0:0:0:
296,144,9775,1,0,0:0:0:0:
240,68,9934,1,2,0:0:0:0:
392,136,10094,5,2,0:0:0:0:
256,232,10254,1,0,0:0:0:0:
352,220,10413,1,0,0:0:0:0:
200,156,10573,1,2,0:0:0:0:
200,156,10652,1,0,0:0:0:0:
200,156,10732,6,0,B|160:188|160:188|136:236|152:292|196:324,1,203.999993774414,2|0,0:0|0:0,0:0:0:0:
372,272,11530,6,0,L|324:256,1,42.5,0|8,1:0|1:2,0:0:0:0:
256,232,11690,2,0,B|220:252|220:252|96:244,1,152.999995330811,10|0,0:0|0:0,0:0:0:0:
200,156,12009,6,0,P|212:116|208:68,1,85,4|0,1:2|0:0,0:0:0:0:
32,188,12328,2,0,P|16:232|20:288,1,85,8|0,0:0|0:0,0:0:0:0:
184,332,12647,1,0,1:0:0:0:
108,244,12807,1,0,1:0:0:0:
280,312,12966,1,8,0:0:0:0:
176,180,13126,6,0,P|176:112|224:24,1,170,0|0,1:0|1:0,0:0:0:0:
276,200,13605,2,0,P|292:156|320:128,1,85,8|0,0:0|0:0,0:0:0:0:
468,124,13924,1,2,1:2:0:0:
372,212,14083,1,0,1:0:0:0:
460,340,14243,2,0,P|464:300|452:252,1,85,8|2,0:0|0:0,0:0:0:0:
280,312,14562,6,0,P|200:316|120:272,2,170,0|8|0,1:0|0:0|1:0,0:0:0:0:
372,212,15360,1,0,1:0:0:0:
264,116,15520,2,0,P|239:151|228:204,1,85,8|0,0:0|1:0,0:0:0:0:
368,108,15839,5,2,1:2:0:0:
204,36,15998,1,0,1:0:0:0:
232,212,16158,1,10,0:0:0:0:
444,156,16317,2,0,B|456:112|456:112|452:68,1,85,2|0,0:0|1:0,0:0:0:0:
348,236,16637,2,0,B|344:280|344:280|360:328,1,85,2|8,1:2|0:0,0:0:0:0:
444,268,16956,1,2,0:0:0:0:
300,156,17115,6,0,B|256:124|256:124|124:136,1,170,0|8,1:0|0:0,0:0:0:0:
124,136,17754,1,0,1:0:0:0:
204,36,17913,1,0,1:0:0:0:
232,212,18073,2,0,P|232:256|216:300,1,85,8|0,0:0|0:0,0:0:0:0:
136,240,18392,5,2,1:2:0:0:
220,124,18551,2,0,L|308:112,1,85,2|8,0:0|0:0,0:0:0:0:
120,228,18871,2,0,P|76:156|84:72,1,170,2|0,0:0|1:0,0:0:0:0:
32,276,19349,2,0,L|12:372,1,85,10|0,0:0|0:0,0:0:0:0:
168,316,19668,6,0,B|236:304|292:344|292:344|328:312,1,170,4|8,1:2|0:0,0:0:0:0:
416,232,20147,2,0,L|432:324,1,85,2|0,0:0|1:0,0:0:0:0:
332,144,20466,2,0,L|312:240,1,85,2|8,1:2|0:0,0:0:0:0:
408,100,20785,6,0,P|367:120|240:96,1,170,4|0,1:2|1:0,0:0:0:0:
64,192,21264,1,8,0:0:0:0:
148,132,21424,2,0,P|156:92|148:40,1,85,2|0,0:0|1:0,0:0:0:0:
56,92,21743,1,2,1:2:0:0:
160,236,21902,2,0,P|196:228|240:192,1,85,8|0,0:0|0:0,0:0:0:0:
280,36,22222,6,0,L|292:124,1,85,4|0,1:2|0:0,0:0:0:0:
352,276,22541,2,0,L|364:184,1,85,8|0,0:0|0:0,0:0:0:0:
380,52,22860,1,0,1:0:0:0:
296,140,23020,1,0,1:0:0:0:
276,20,23179,1,8,0:0:0:0:
380,172,23339,6,0,L|352:348,1,170,0|0,1:0|1:0,0:0:0:0:
480,284,23817,2,0,L|464:192,1,85,8|0,0:0|0:0,0:0:0:0:
296,140,24137,1,2,1:2:0:0:
412,88,24296,1,0,1:0:0:0:
380,172,24456,1,10,0:0:0:0:
328,56,24615,1,2,0:0:0:0:
204,148,24775,6,0,P|196:216|232:316,1,170,0|8,1:0|0:0,0:0:0:0:
244,320,25413,2,0,P|191:302|144:304,1,85,0|0,1:0|1:0,0:0:0:0:
340,280,25732,2,0,P|400:284|436:272,1,85,8|0,0:0|1:0,0:0:0:0:
256,220,26051,5,2,1:2:0:0:
140,312,26211,2,0,P|100:316|52:308,1,85,2|8,1:2|0:0,0:0:0:0:
268,208,26530,2,0,P|320:184|424:224,1,170,2|0,0:0|1:0,0:0:0:0:
160,220,27009,2,0,P|116:220|64:200,1,85,8|2,0:0|0:0,0:0:0:0:
224,76,27328,6,0,B|268:92|268:92|304:76|304:76|352:92|388:68,1,170,4|8,1:2|0:0,0:0:0:0:
136,36,27807,2,0,L|52:60,1,85,2|0,0:0|1:0,0:0:0:0:
232,168,28126,1,0,1:0:0:0:
320,132,28285,2,0,P|332:96|332:44,1,85,8|0,0:0|1:0,0:0:0:0:
148,144,28605,5,0,1:0:0:0:
96,216,28764,1,0,1:0:0:0:
152,284,28924,1,8,0:0:0:0:
232,252,29083,1,0,0:0:0:0:
232,168,29243,2,0,B|232:124|232:124|212:80,1,85,0|0,1:0|1:0,0:0:0:0:
64,296,29562,1,10,0:0:0:0:
64,296,29881,6,0,P|136:272|240:304,1,170,4|8,1:2|0:0,0:0:0:0:
424,280,30360,2,0,P|392:308|344:332,1,85,2|0,0:0|1:0,0:0:0:0:
232,168,30679,2,0,P|280:180|324:216,1,85,2|8,1:2|0:0,0:0:0:0:
112,192,30998,6,0,B|96:164|96:164|100:100,1,85,4|0,1:2|0:0,0:0:0:0:
236,268,31317,2,0,B|240:300|240:300|212:360,1,85,2|8,1:2|0:0,0:0:0:0:
200,144,31637,2,0,B|200:116|200:116|232:64,1,85,4|0,1:2|0:0,0:0:0:0:
324,328,31956,1,10,1:2:0:0:
296,152,32115,1,8,1:2:0:0:
304,144,32434,6,0,L|300:232,1,72.2500013780594,4|0,1:2|0:0,0:0:0:0:
392,96,32754,2,0,L|400:176,1,72.2500013780594,0|0,1:0|0:0,0:0:0:0:
308,48,33073,1,0,1:0:0:0:
304,144,33232,1,0,0:0:0:0:
224,96,33392,2,0,L|132:88,1,72.2500013780594,2|0,1:2|0:0,0:0:0:0:
20,164,33711,6,0,P|56:168|96:160,1,72.2500013780594,0|2,1:0|0:0,0:0:0:0:
112,252,34030,2,0,P|148:236|176:208,1,72.2500013780594
196,56,34349,1,2,1:2:0:0:
232,140,34509,1,0,0:0:0:0:
324,148,34668,2,0,P|360:136|392:108,1,72.2500013780594,0|0,1:0|0:0,0:0:0:0:
392,104,34908,1,0,0:0:0:0:
396,92,34988,6,0,L|476:96,1,72.2500013780594,2|0,1:2|0:0,0:0:0:0:
328,240,35307,2,0,L|240:248,1,72.2500013780594,0|2,1:0|0:0,0:0:0:0:
408,188,35626,2,0,P|420:232|420:276,1,72.2500013780594,0|0,1:0|0:0,0:0:0:0:
324,148,35945,1,0,1:0:0:0:
240,112,36105,6,0,P|228:76|228:28,1,72.2500013780594,0|2,0:0|1:2,0:0:0:0:
200,196,36424,2,0,P|168:204|128:228,1,72.2500013780594,0|0,0:0|1:0,0:0:0:0:
332,132,36743,2,0,P|332:100|316:48,1,72.2500013780594,2|0,0:0|1:0,0:0:0:0:
268,260,37062,2,0,P|244:276|188:292,1,72.2500013780594,0|0,0:0|1:0,0:0:0:0:
364,256,37381,1,0,0:0:0:0:
364,256,37461,1,0,0:0:0:0:
364,256,37541,6,0,P|404:276|428:308,1,72.2500013780594,2|0,1:2|0:0,0:0:0:0:
284,308,37860,2,0,P|256:332|209:348,1,72.2500013780594,0|0,1:0|0:0,0:0:0:0:
130,354,38179,1,0,1:0:0:0:
72,280,38339,1,0,0:0:0:0:
120,200,38498,2,0,P|132:164|128:120,1,72.2500013780594,2|0,1:2|0:0,0:0:0:0:
64,64,38817,5,2,1:2:0:0:
36,152,38977,1,2,0:0:0:0:
156,44,39137,2,0,P|196:36|240:44,1,72.2500013780594,0|0,1:0|0:0,0:0:0:0:
244,184,39456,2,0,P|212:152|196:112,1,72.2500013780594,2|0,1:2|0:0,0:0:0:0:
292,104,39775,1,0,1:0:0:0:
340,184,39934,1,0,0:0:0:0:
292,264,40094,6,0,L|144:280,1,144.500002756119,0|0,1:0|1:0,0:0:0:0:
378,120,40732,1,2,1:2:0:0:
455,120,40892,1,0,0:0:0:0:
340,184,41051,1,0,1:0:0:0:
340,56,41211,1,2,0:0:0:0:
378,120,41371,5,2,1:2:0:0:
421,191,41530,1,0,0:0:0:0:
292,120,41690,1,2,1:2:0:0:
421,48,41849,1,2,0:0:0:0:
330,200,42009,5,0,1:0:0:0:
474,120,42168,1,10,0:0:0:0:
330,40,42328,1,2,1:2:0:0:
426,200,42488,1,8,1:2:0:0:
426,200,42567,1,8,1:2:0:0:
426,200,42647,6,0,L|418:288,1,72.2500013780594,4|0,1:2|0:0,0:0:0:0:
474,120,42966,2,0,L|460:44,1,72.2500013780594,0|0,1:0|0:0,0:0:0:0:
330,200,43285,2,0,L|324:272,1,72.2500013780594,0|0,1:0|0:0,0:0:0:0:
378,120,43605,1,2,1:2:0:0:
330,40,43764,1,0,0:0:0:0:
236,56,43924,6,0,P|200:48|160:24,1,72.2500013780594,0|2,1:0|0:0,0:0:0:0:
240,148,44243,2,0,P|169:157|100:128,1,144.500002756119,0|2,1:0|1:2,0:0:0:0:
72,40,44722,1,0,0:0:0:0:
40,204,44881,2,0,L|24:288,1,72.2500013780594,0|0,1:0|0:0,0:0:0:0:
29,305,45121,1,0,0:0:0:0:
34,334,45200,5,2,1:2:0:0:
148,260,45360,2,0,L|164:336,2,72.2500013780594,2|0|0,0:0|1:0|0:0,0:0:0:0:
212,188,45839,1,0,1:0:0:0:
300,224,45998,1,0,0:0:0:0:
304,316,46158,1,0,1:0:0:0:
212,188,46317,6,0,L|220:104,1,72.2500013780594,0|2,0:0|1:2,0:0:0:0:
304,316,46637,2,0,L|380:308,1,72.2500013780594,0|0,0:0|1:0,0:0:0:0:
148,260,46956,2,0,L|60:268,1,72.2500013780594,2|0,0:0|1:0,0:0:0:0:
300,224,47275,2,0,L|308:148,1,72.2500013780594,2|0,0:0|1:0,0:0:0:0:
384,272,47594,1,0,0:0:0:0:
384,272,47674,1,0,0:0:0:0:
384,272,47754,6,0,L|404:108,1,144.500002756119,2|0,1:2|1:0,0:0:0:0:
336,60,48232,1,0,0:0:0:0:
224,192,48392,2,0,L|228:276,1,72.2500013780594,0|0,1:0|0:0,0:0:0:0:
308,152,48711,1,0,1:0:0:0:
224,96,48871,6,0,P|188:88|140:92,1,72.2500013780594,0|2,0:0|1:2,0:0:0:0:
336,60,49190,2,0,P|374:53|416:60,1,72.2500013780594,0|0,0:0|1:0,0:0:0:0:
316,224,49509,2,0,L|308:152,1,72.2500013780594,0|0,0:0|1:0,0:0:0:0:
404,264,49828,1,8,1:3:0:0:
224,192,49988,2,0,P|216:136|252:76,1,108.375002067089,8|0,1:2|0:0,0:0:0:0:
168,132,50307,6,0,B|128:144|128:144|84:140,1,85,4|0,1:2|0:0,0:0:0:0:
308,152,50626,2,0,B|352:144|352:144|396:152,1,85,8|0,0:0|0:0,0:0:0:0:
284,248,50945,1,0,1:0:0:0:
284,248,51105,1,0,1:0:0:0:
244,100,51264,2,0,L|252:8,1,85,8|0,0:0|0:0,0:0:0:0:
184,212,51583,6,0,B|104:224|104:224|12:208,1,170,4|8,1:2|0:0,0:0:0:0:
244,100,52062,2,0,B|300:92|300:92|356:112|356:112|412:100,1,170,4|8,0:0|1:3,0:0:0:0:
364,20,52541,1,8,1:3:0:0:
292,184,52700,1,8,1:3:0:0:
464,184,52860,6,0,P|504:128|500:56,1,118.999996368408,4|0,1:2|0:0,0:0:0:0:
376,220,53339,1,0,1:0:0:0:
376,220,53498,2,0,P|416:264|480:276,1,118.999996368408,8|0,0:0|0:0,0:0:0:0:
388,128,53977,6,0,L|320:120,1,59.4999981842042,2|0,1:2|0:0,0:0:0:0:
176,48,54296,2,0,L|304:32,1,118.999996368408,8|0,0:0|1:0,0:0:0:0:
84,64,54775,2,0,L|24:56,1,59.4999981842042,8|0,0:0|0:0,0:0:0:0:
104,156,55094,2,0,L|44:204,1,59.4999981842042,0|0,1:0|0:0,0:0:0:0:
48,200,55333,1,0,0:0:0:0:
40,208,55413,6,0,P|28:264|52:328,1,118.999996368408,2|0,1:2|0:0,0:0:0:0:
140,344,55892,1,0,1:0:0:0:
216,292,56051,1,8,0:0:0:0:
208,200,56211,2,0,P|184:180|152:168,1,59.4999981842042
292,240,56530,6,0,P|344:240|416:192,2,118.999996368408,2|8|0,1:2|0:0|1:0,0:0:0:0:
412,120,57328,2,0,P|452:136|472:156,1,59.4999981842042,10|0,0:0|0:0,0:0:0:0:
488,232,57647,1,0,1:0:0:0:
424,296,57807,1,0,0:0:0:0:
328,152,57966,6,0,P|328:84|364:44,1,118.999996368408,4|0,0:0|0:0,0:0:0:0:
232,108,58445,1,0,1:0:0:0:
232,108,58605,2,0,B|148:104|148:104|116:84,1,118.999996368408,8|0,0:0|0:0,0:0:0:0:
412,120,59243,6,0,B|432:144|432:144|448:232,1,118.999996368408,2|0,1:2|0:0,0:0:0:0:
468,320,59722,1,0,1:0:0:0:
352,264,59881,2,0,L|336:188,1,59.4999981842042,12|0,0:0|0:0,0:0:0:0:
296,72,60200,2,0,L|288:144,1,59.4999981842042,0|0,1:0|0:0,0:0:0:0:
192,196,60520,6,0,B|137:142|152:67|152:67|172:92,1,170,4|8,1:2|0:0,0:0:0:0:
291,245,60998,2,0,B|272:319|200:344|200:344|211:314,1,170,4|0,1:2|1:0,0:0:0:0:
284,134,61477,1,8,0:0:0:0:
284,134,61637,2,0,B|357:113|415:164|415:164|384:169,1,170,4|0,1:2|1:0,0:0:0:0:
192,196,62115,5,8,0:0:0:0:
188,88,62275,2,0,L|204:0,1,85,4|0,1:2|0:0,0:0:0:0:
100,152,62594,1,8,1:3:0:0:
284,134,62754,2,0,P|328:130|372:136,1,85,8|0,1:3|0:0,0:0:0:0:
496,216,63073,5,4,1:2:0:0:
472,304,63392,1,0,1:0:0:0:
384,332,63711,1,2,1:2:0:0:
296,296,64030,1,0,1:0:0:0:
296,296,64190,6,0,L|280:220,1,72.2500013780594,2|0,0:0|1:0,0:0:0:0:
407,164,64509,2,0,L|400:236,2,72.2500013780594,0|0|0,0:0|1:0|0:0,0:0:0:0:
340,76,64988,1,0,1:0:0:0:
276,208,65147,1,0,0:0:0:0:
168,104,65307,2,0,P|136:100|80:112,1,72.2500013780594,8|0,0:0|0:0,0:0:0:0:
220,332,65626,6,0,P|268:276|272:192,1,144.500002756119,4|8,1:2|0:0,0:0:0:0:
60,296,66105,2,0,L|148:288,1,72.2500013780594,4|0,1:2|0:0,0:0:0:0:
420,356,66424,2,0,L|348:349,1,72.2500013780594,4|8,1:2|0:0,0:0:0:0:
184,204,66743,6,0,B|220:192|256:204|256:204|292:216|328:204,1,144.500002756119,4|0,1:2|1:0,0:0:0:0:
200,112,67222,2,0,P|180:92|164:32,1,72.2500013780594,8|0,0:0|0:0,0:0:0:0:
292,120,67541,1,2,1:2:0:0:
112,144,67700,1,0,1:0:0:0:
112,144,67780,1,0,1:0:0:0:
112,144,67860,1,8,1:2:0:0:
256,40,68020,2,0,L|308:32,1,36.1250006890297,8|8,0:0|0:0,0:0:0:0:
368,76,68179,6,0,P|372:152|328:200,1,144.500002756119,4|8,1:2|0:0,0:0:0:0:
184,204,68658,1,0,0:0:0:0:
184,204,68817,2,0,L|192:284,1,72.2500013780594,0|0,1:0|1:0,0:0:0:0:
308,160,69137,2,0,L|296:240,1,72.2500013780594,8|0,0:0|0:0,0:0:0:0:
176,108,69456,5,0,1:0:0:0:
176,108,69615,1,0,1:0:0:0:
100,252,69775,2,0,B|100:288|100:288|116:332,1,72.2500013780594,10|0,0:0|0:0,0:0:0:0:
376,224,70094,2,0,B|368:260|368:260|344:296,1,72.2500013780594,2|0,1:2|1:0,0:0:0:0:
88,104,70413,2,0,B|96:140|96:140|120:180,1,72.2500013780594,10|0,0:0|0:0,0:0:0:0:
412,68,70732,6,0,B|376:128|376:128|308:160,1,144.500002756119,4|8,1:2|0:0,0:0:0:0:
292,168,71371,1,8,0:0:0:0:
468,140,71530,1,0,1:0:0:0:
308,52,71690,1,8,0:0:0:0:
376,224,71849,6,0,P|388:196|388:136,1,85,4|0,1:2|0:0,0:0:0:0:
324,64,72168,1,8,1:3:0:0:
436,304,72328,1,8,1:3:0:0:
440,324,72966,2,0,P|400:340|348:340,1,85,2|0,0:0|0:0,0:0:0:0:
224,240,73285,6,0,P|156:232|68:324,1,195.500003728867,4|8,1:2|0:0,0:0:0:0:
176,336,73764,1,0,0:0:0:0:
332,224,73924,2,0,P|377:214|432:228,1,97.7500018644333,0|0,1:0|1:0,0:0:0:0:
380,320,74243,1,8,0:0:0:0:
216,216,74402,6,0,B|204:170|204:170|232:140|232:140|208:88|236:32,1,195.500003728867,2|0,1:2|1:0,0:0:0:0:
416,52,74881,2,0,P|372:84|320:92,1,97.7500018644333,8|0,0:0|0:0,0:0:0:0:
132,64,75200,1,0,1:0:0:0:
308,92,75360,1,0,1:0:0:0:
72,144,75520,2,0,P|40:100|32:44,1,97.7500018644333,8|0,0:0|0:0,0:0:0:0:
216,120,75839,6,0,P|208:200|128:280,1,195.500003728867,2|8,1:2|0:0,0:0:0:0:
312,188,76317,2,0,P|360:176|424:188,1,97.7500018644333,0|0,0:0|1:0,0:0:0:0:
500,332,76637,1,0,1:0:0:0:
364,272,76796,1,8,0:0:0:0:
224,356,76956,6,0,P|160:324|120:196,1,195.500003728867,2|0,1:2|1:0,0:0:0:0:
328,92,77434,2,0,L|312:192,1,97.7500018644333,8|0,0:0|0:0,0:0:0:0:
480,308,77754,2,0,L|468:204,1,97.7500018644333,0|0,1:0|1:0,0:0:0:0:
208,152,78073,2,0,P|208:216|236:264,1,97.7500018644333,8|0,0:0|0:0,0:0:0:0:
420,68,78392,6,0,P|328:92|236:44,1,195.500003728867,2|8,1:2|0:0,0:0:0:0:
20,164,78871,2,0,B|152:132|152:132|208:152,1,195.500003728867,0|0,0:0|1:0,0:0:0:0:
416,232,79349,1,8,0:0:0:0:
416,232,79509,6,0,B|352:240|352:240|300:276|300:276|232:284,1,195.500003728867,2|0,1:2|1:0,0:0:0:0:
388,328,79988,2,0,L|492:340,1,97.7500018644333,8|0,0:0|0:0,0:0:0:0:
264,192,80307,2,0,L|152:204,1,97.7500018644333,0|0,1:0|1:0,0:0:0:0:
348,72,80626,2,0,B|376:80|376:80|408:72|408:72|440:84|469:68|469:68|480:88,1,146.62500279665,10|0,0:0|0:0,0:0:0:0:
500,160,80945,5,4,1:2:0:0:
296,188,81105,1,0,0:0:0:0:
448,316,81264,1,8,0:0:0:0:
408,128,81424,2,0,L|420:16,1,97.7500018644333,2|0,0:0|1:0,0:0:0:0:
356,272,81743,2,0,L|252:284,1,97.7500018644333,2|8,1:2|0:0,0:0:0:0:
104,84,82062,6,0,P|172:48|280:100,1,195.500003728867,4|0,1:2|1:0,0:0:0:0:
296,188,82541,1,8,0:0:0:0:
108,300,82700,2,0,P|104:220|208:144,1,195.500003728867,4|0,0:0|1:0,0:0:0:0:
212,152,83099,1,0,1:0:0:0:
236,164,83179,2,0,P|289:163|336:144,1,97.7500018644333,12|0,1:2|0:0,0:0:0:0:
424,32,83498,6,0,B|448:172|448:172|500:208,1,195.500003728867,4|8,1:2|0:0,0:0:0:0:
408,276,83977,1,0,0:0:0:0:
352,116,84137,2,0,L|336:20,1,97.7500018644333,0|0,1:0|1:0,0:0:0:0:
328,212,84456,1,8,0:0:0:0:
236,164,84615,6,0,B|188:144|140:164|140:164|92:184|44:164,1,195.500003728867,2|0,1:2|1:0,0:0:0:0:
188,252,85094,2,0,P|204:312|192:360,1,97.7500018644333,8|0,0:0|0:0,0:0:0:0:
96,312,85413,1,0,1:0:0:0:
260,176,85573,1,0,1:0:0:0:
92,80,85732,2,0,P|72:152|80:196,1,97.7500018644333,8|0,0:0|0:0,0:0:0:0:
288,280,86051,6,0,P|344:240|348:112,1,195.500003728867,2|8,1:2|0:0,0:0:0:0:
184,120,86530,2,0,P|216:156|260:176,1,97.7500018644333,0|0,0:0|1:0,0:0:0:0:
420,44,86849,2,0,P|348:20|316:24,1,97.7500018644333,0|8,1:0|0:0,0:0:0:0:
444,248,87168,6,0,P|476:172|432:48,1,195.500003728867,2|0,1:2|1:0,0:0:0:0:
340,256,87647,2,0,P|355:298|400:344,1,97.7500018644333,8|0,0:0|0:0,0:0:0:0:
356,156,87966,2,0,B|328:152|328:152|260:168,1,97.7500018644333,0|0,1:0|1:0,0:0:0:0:
92,292,88285,1,8,0:0:0:0:
92,292,88605,6,0,P|96:192|44:108,1,195.500003728867,4|8,1:2|0:0,0:0:0:0:
176,340,89083,2,0,P|228:344|280:324,1,97.7500018644333,0|0,0:0|1:0,0:0:0:0:
344,168,89402,1,0,1:0:0:0:
216,248,89562,1,8,0:0:0:0:
428,224,89722,6,0,P|440:136|360:68,1,195.500003728867,2|0,1:2|0:0,0:0:0:0:
336,264,90200,2,0,L|344:368,1,97.7500018644333,8|0,0:0|0:0,0:0:0:0:
156,212,90520,2,0,L|144:312,1,97.7500018644333,0|0,1:0|1:0,0:0:0:0:
256,200,90839,2,0,B|276:176|276:176|259:152|259:152|280:112|264:68,1,146.62500279665,10|0,0:0|0:0,0:0:0:0:
208,12,91158,5,4,1:2:0:0:
360,144,91317,1,0,0:0:0:0:
168,108,91477,1,8,0:0:0:0:
352,32,91637,2,0,B|404:40|404:40|448:72,1,97.7500018644333,2|0,0:0|1:0,0:0:0:0:
156,212,91956,2,0,B|109:196|109:196|72:160,1,97.7500018644333,2|8,1:2|0:0,0:0:0:0:
360,144,92275,6,0,P|376:240|328:336,1,195.500003728867,4|0,1:2|1:0,0:0:0:0:
308,340,92674,1,0,1:0:0:0:
276,344,92754,2,0,L|168:336,1,97.7500018644333,8|0,0:0|0:0,0:0:0:0:
72,200,93073,2,0,L|0:208,2,65.1666679096222,8|0|0,1:3|1:0|1:0,0:0:0:0:
136,124,93392,2,0,L|204:136,2,65.1666679096222,8|0|8,1:3|1:0|1:3,0:0:0:0:
40,108,93711,6,0,P|72:48|168:32,1,144.500002756119,4|0,1:2|0:0,0:0:0:0:
236,52,94190,1,0,1:0:0:0:
236,52,94349,2,0,B|308:68|308:68|384:48,1,144.500002756119,4|0,1:2|0:0,0:0:0:0:
364,148,94828,1,0,1:0:0:0:
364,148,94908,1,0,1:0:0:0:
364,148,94988,6,0,L|372:220,1,72.2500013780594,2|8,1:2|0:0,0:0:0:0:
448,108,95307,2,0,L|460:32,1,72.2500013780594,0|0,0:0|1:0,0:0:0:0:
472,196,95626,2,0,L|480:280,1,72.2500013780594,10|0,0:0|0:0,0:0:0:0:
364,328,95945,2,0,L|376:240,1,72.2500013780594,2|0,1:2|0:0,0:0:0:0:
268,140,96264,6,0,B|252:180|252:180|268:292,1,144.500002756119,4|0,1:2|0:0,0:0:0:0:
164,244,96743,1,0,1:0:0:0:
184,128,96902,2,0,L|196:40,1,72.2500013780594,10|0,0:0|1:0,0:0:0:0:
80,172,97222,2,0,L|20:120,1,72.2500013780594,10|0,0:0|0:0,0:0:0:0:
164,244,97541,5,8,1:3:0:0:
268,140,97700,1,0,1:0:0:0:
344,264,97860,1,8,1:3:0:0:
176,288,98020,1,0,1:0:0:0:
244,108,98179,1,8,1:2:0:0:
380,260,98339,1,8,1:2:0:0:
188,332,98498,1,8,1:2:0:0:
220,80,98658,2,0,L|224:44,2,33.9999989624024,8|2|0,1:2|0:0|0:0,0:0:0:0:
256,192,98817,12,10,99775,0:0:0:0:
100,248,100094,6,0,B|128:216|128:216|172:200,1,85,4|0,1:2|0:0,0:0:0:0:
344,280,100413,2,0,B|304:292|304:292|260:288,1,85,8|0,0:0|0:0,0:0:0:0:
296,192,100732,1,0,1:0:0:0:
416,208,100892,1,0,1:0:0:0:
428,328,101051,1,8,0:0:0:0:
412,188,101211,6,0,B|408:148|408:148|472:120|488:52,1,170,0|0,1:0|1:0,0:0:0:0:
296,192,101690,2,0,L|284:280,1,85,8|0,0:0|0:0,0:0:0:0:
312,96,102009,1,2,1:2:0:0:
220,128,102168,1,0,1:0:0:0:
388,156,102328,2,0,P|404:116|404:72,1,85,8|2,0:0|0:0,0:0:0:0:
236,32,102647,6,0,P|160:48|48:16,1,170,0|8,1:0|0:0,0:0:0:0:
296,192,103285,2,0,P|309:231|308:292,1,85,0|0,1:0|1:0,0:0:0:0:
148,304,103605,2,0,P|184:264|228:248,1,85,8|0,0:0|1:0,0:0:0:0:
380,348,103924,5,2,1:2:0:0:
388,156,104083,1,0,1:0:0:0:
296,300,104243,1,10,0:0:0:0:
468,208,104402,2,0,P|480:172|476:120,1,85,2|0,0:0|1:0,0:0:0:0:
296,120,104722,2,0,P|292:164|308:212,1,85,2|8,1:2|0:0,0:0:0:0:
388,156,105041,1,2,0:0:0:0:
204,84,105200,6,0,P|196:172|220:260,2,170,0|8|0,1:0|0:0|1:0,0:0:0:0:
280,24,105998,1,0,1:0:0:0:
104,76,106158,2,0,L|12:68,1,85,8|0,0:0|1:0,0:0:0:0:
124,176,106477,5,2,1:2:0:0:
32,220,106636,2,0,L|24:320,1,85,2|8,0:0|0:0,0:0:0:0:
204,236,106956,2,0,P|220:156|172:88,1,170,2|0,0:0|1:0,0:0:0:0:
116,276,107434,2,0,L|108:368,1,85,10|0,0:0|0:0,0:0:0:0:
272,304,107754,6,0,B|324:292|324:292|444:332,1,170,4|8,1:2|0:0,0:0:0:0:
300,204,108232,2,0,P|296:160|308:116,1,85,2|0,0:0|1:0,0:0:0:0:
456,96,108551,2,0,P|460:144|444:192,1,85,2|8,1:2|0:0,0:0:0:0:
216,96,108871,6,0,P|236:60|292:28,1,85,4|0,1:2|0:0,0:0:0:0:
208,188,109190,1,0,1:0:0:0:
208,188,109349,1,8,0:0:0:0:
124,136,109509,2,0,L|28:128,1,85,2|0,0:0|1:0,0:0:0:0:
308,128,109828,2,0,L|324:40,1,85,2|8,1:2|0:0,0:0:0:0:
352,24,110307,6,0,L|320:196,1,170,4|8,1:2|0:0,0:0:0:0:
368,272,110785,1,0,0:0:0:0:
500,172,110945,2,0,L|492:72,1,85,0|0,1:0|1:0,0:0:0:0:
464,260,111264,1,8,0:0:0:0:
404,184,111424,6,0,B|364:168|324:184|324:184|280:200|236:184,1,170,0|0,1:0|1:0,0:0:0:0:
196,96,111902,2,0,P|248:88|292:100,1,85,8|0,0:0|0:0,0:0:0:0:
192,268,112222,2,0,P|150:276|108:269,1,85,2|0,1:2|1:0,0:0:0:0:
237,184,112541,1,10,0:0:0:0:
368,272,112700,1,2,0:0:0:0:
232,356,112860,6,0,P|152:372|60:352,1,170,0|8,1:0|0:0,0:0:0:0:
48,348,113498,1,0,1:0:0:0:
112,272,113658,1,0,1:0:0:0:
40,204,113817,2,0,P|36:152|44:120,1,85,8|0,0:0|1:0,0:0:0:0:
248,60,114136,5,2,1:2:0:0:
212,148,114296,2,0,P|180:164|124:168,1,85,2|8,1:2|0:0,0:0:0:0:
296,200,114615,2,0,P|348:176|452:216,1,170,2|0,0:0|1:0,0:0:0:0:
324,296,115094,2,0,P|280:296|228:276,1,85,8|2,0:0|0:0,0:0:0:0:
124,140,115413,6,0,B|176:120|176:120|232:128|232:128|288:104,1,170,4|8,1:2|0:0,0:0:0:0:
456,180,115892,2,0,B|400:212|400:212|296:200,1,170,2|0,0:0|1:0,0:0:0:0:
380,116,116371,1,8,0:0:0:0:
380,116,116530,1,0,1:0:0:0:
460,276,116690,6,0,L|480:368,2,85,2|0|8,1:2|1:0|0:0,0:0:0:0:
296,200,117168,1,0,0:0:0:0:
236,280,117328,2,0,L|224:372,1,85,0|0,1:0|1:0,0:0:0:0:
396,200,117647,1,10,0:0:0:0:
396,200,117966,6,0,B|328:216|271:167|271:167|232:180,1,170,4|8,1:2|0:0,0:0:0:0:
88,232,118445,2,0,L|68:324,1,85,2|0,0:0|1:0,0:0:0:0:
144,148,118764,2,0,L|128:64,1,85,2|8,1:2|0:0,0:0:0:0:
192,236,119083,6,0,B|224:248|224:248|288:244,1,85,4|0,1:2|0:0,0:0:0:0:
440,160,119402,1,2,1:2:0:0:
348,320,119562,1,8,0:0:0:0:
496,304,119722,2,0,B|480:280|480:280|412:244,1,85,4|0,1:2|0:0,0:0:0:0:
240,152,120041,1,8,1:2:0:0:
140,316,120200,1,8,1:2:0:0:
152,312,120520,5,12,1:2:0:0:
320,264,120679,1,0,1:0:0:0:
160,160,120839,1,2,1:2:0:0:
336,48,120998,2,0,P|380:100|364:198,1,170,10|0,0:0|1:0,0:0:0:0:
256,316,121477,5,10,0:0:0:0:
256,316,121637,2,0,B|220:264|220:264|261:218|261:218|214:224|184:186|183:144|212:105|263:100|296:138,1,340,12|0,0:0|0:0,0:0:0:0:
