osu file format v14

[General]
AudioFilename: 01 -Opening size-.mp3
AudioLeadIn: 0
PreviewTime: 72966
Countdown: 0
SampleSet: Soft
StackLeniency: 0.5
Mode: 0
LetterboxInBreaks: 0
WidescreenStoryboard: 0

[Editor]
DistanceSpacing: 1.2
BeatDivisor: 4
GridSize: 4
TimelineZoom: 1

[Metadata]
Title:Aoki Negai -Opening size-
TitleUnicode:碧き願い -Opening size-
Artist:Sasaka Megumi
ArtistUnicode:佐坂めぐみ
Creator:jonathanlfj
Version:Hard
Source:英雄伝説 碧の軌跡 Evolution
Tags:Falcom Sound Team J.D.K. The Legend of Heroes Ao no Kiseki Trails of Blue Azure rpg game opening project_railgun zj0924
BeatmapID:456267
BeatmapSetID:191717

[Difficulty]
HPDrainRate:5.5
CircleSize:4
OverallDifficulty:6.5
ApproachRate:7.8
SliderMultiplier:1.4
SliderTickRate:1

[Events]
//Background and Video events
Video,0,"ao.avi"
0,0,"d.jpg",0,0
//Break Periods
//Storyboard Layer 0 (Background)
//Storyboard Layer 1 (Fail)
//Storyboard Layer 2 (Pass)
//Storyboard Layer 3 (Foreground)
//Storyboard Sound Samples

[TimingPoints]
520,319.148936170213,4,2,1,50,1,0
520,-125,4,2,1,50,0,0
10732,-166.666666666667,4,2,1,40,0,0
11530,-100,4,2,1,60,0,0
11690,-83.3333333333333,4,2,1,60,0,0
12009,-100,4,2,1,70,0,1
12089,-100,4,2,1,70,0,0
32434,-111.111111111111,4,2,1,60,0,0
50307,-100,4,2,1,70,0,0
52860,-125,4,2,1,60,0,0
60520,-100,4,2,1,70,0,0
63073,-111.111111111111,4,2,1,60,0,0
71849,-100,4,2,1,50,0,0
73285,-90.9090909090909,4,2,1,80,0,1
93711,-125,4,2,1,70,0,1
97541,-117.647058823529,4,2,1,50,0,1
97700,-111.111111111111,4,2,1,55,0,1
97860,-105.263157894737,4,2,1,60,0,1
98020,-100,4,2,1,65,0,1
98179,-95.2380952380952,4,2,1,70,0,1
98339,-90.9090909090909,4,2,1,75,0,1
98498,-86.9565217391304,4,2,1,80,0,1
98658,-83.3333333333333,4,2,1,85,0,1
98817,-100,4,2,1,30,0,0
99775,-100,4,2,1,80,0,0
100094,-100,4,2,1,70,0,1
100174,-100,4,2,1,70,0,0
122275,-100,4,2,1,40,0,0

[Colours]
Combo1 : 255,206,94
Combo2 : 111,242,253
Combo3 : 56,155,254
Combo4 : 231,122,254

[HitObjects]
44,244,520,6,0,P|92:244|152:216,1,112,2|0,0:0|0:0,0:0:0:0:
204,152,998,2,0,P|252:148|320:172,1,112,2|0,0:0|0:0,0:0:0:0:
348,244,1477,2,0,B|328:196|328:196|340:132|404:116,1,168,2|2,0:0|0:0,0:0:0:0:
376,324,2434,2,0,P|348:328|316:324,1,56,2|0,0:0|0:0,0:0:0:0:
208,272,2754,2,0,P|244:268|272:256,1,56,2|0,0:0|0:0,0:0:0:0:
292,184,3073,6,0,L|300:60,1,112,2|0,0:0|0:0,0:0:0:0:
192,20,3551,1,2,0:0:0:0:
192,20,3711,2,0,L|184:131,2,112,0|2|0,0:0|0:0|0:0,0:0:0:0:
304,76,4509,2,0,L|296:187,1,112,2|0,0:0|0:0,0:0:0:0:
364,235,4988,2,0,L|420:271,1,56,2|0,0:0|0:0,0:0:0:0:
292,271,5307,2,0,L|288:331,1,56,2|0,0:0|0:0,0:0:0:0:
224,228,5626,5,2,0:0:0:0:
68,340,5945,2,0,L|4:332,1,56,0|2,0:0|0:0,0:0:0:0:
136,292,6264,2,0,P|144:240|128:184,1,112,0|2,0:0|0:0,0:0:0:0:
48,152,6743,2,0,B|32:112|32:112|36:80|72:60,1,112,0|2,0:0|0:0,0:0:0:0:
292,272,7541,2,0,P|293:299|284:340,1,56,2|0,0:0|0:0,0:0:0:0:
212,292,7860,2,0,P|210:264|215:236,1,56,2|0,0:0|0:0,0:0:0:0:
348,208,8179,6,0,P|364:232|376:272,2,56,2|0|2,0:0|0:0|0:0,0:0:0:0:
292,272,8658,2,0,P|320:320|392:340,1,112,2|0,0:0|0:0,0:0:0:0:
444,304,9137,1,0,0:0:0:0:
444,304,9296,1,2,0:0:0:0:
452,220,9456,2,0,L|456:156,1,56,2|0,0:0|0:0,0:0:0:0:
404,36,9775,2,0,L|412:100,1,56,0|2,0:0|0:0,0:0:0:0:
348,208,10094,2,0,L|352:148,1,56,2|0,0:0|0:0,0:0:0:0:
312,76,10413,1,0,0:0:0:0:
264,148,10573,5,2,0:0:0:0:
264,148,10652,1,0,0:0:0:0:
264,148,10732,2,0,P|209:136|232:48,1,167.999994873047,2|0,0:0|0:0,0:0:0:0:
312,76,11530,5,0,1:0:0:0:
324,68,11610,1,8,1:2:0:0:
336,60,11690,2,0,L|352:152,1,83.9999974365235,10|0,0:0|0:0,0:0:0:0:
432,268,12009,6,0,P|376:232|296:244,1,140,4|8,1:2|0:0,0:0:0:0:
128,344,12647,2,0,P|156:356|204:356,2,70,0|0|8,1:0|1:0|0:0,0:0:0:0:
176,276,13126,2,0,P|176:212|136:148,1,140,0|0,1:0|1:0,0:0:0:0:
188,80,13605,2,0,P|220:88|260:88,1,70,8|0,0:0|0:0,0:0:0:0:
340,108,13924,2,0,P|345:77|360:40,1,70,2|0,1:2|1:0,0:0:0:0:
360,192,14243,1,8,0:0:0:0:
280,168,14402,1,2,0:0:0:0:
300,248,14562,6,0,P|360:276|428:236,2,140,0|8|0,1:0|0:0|1:0,0:0:0:0:
280,168,15360,1,0,1:0:0:0:
340,108,15520,2,0,P|376:108|412:124,1,70,8|0,0:0|1:0,0:0:0:0:
260,88,15839,2,0,P|244:72|224:28,2,70,2|0|10,1:2|1:0|0:0,0:0:0:0:
280,168,16317,2,0,P|278:202|260:240,1,70,2|0,0:0|1:0,0:0:0:0:
124,280,16637,2,0,P|124:236|208:184,1,140,2|2,1:2|0:0,0:0:0:0:
272,316,17115,6,0,B|316:328|316:328|404:292,1,140,0|8,1:0|0:0,0:0:0:0:
420,88,17754,1,0,1:0:0:0:
360,148,17913,1,0,1:0:0:0:
441,169,18073,2,0,P|479:146|499:118,1,70,8|0,0:0|0:0,0:0:0:0:
360,148,18392,1,2,1:2:0:0:
276,172,18551,2,0,P|208:156|175:98,2,140,2|2|0,0:0|0:0|1:0,0:0:0:0:
260,88,19349,2,0,P|266:57|300:12,1,70,10|0,0:0|0:0,0:0:0:0:
360,148,19668,6,0,L|332:296,1,140,4|8,1:2|0:0,0:0:0:0:
260,328,20147,1,2,0:0:0:0:
440,172,20466,2,0,P|440:124|432:100,1,70,2|8,1:2|0:0,0:0:0:0:
284,104,20785,2,0,B|248:128|248:128|204:96|152:120,1,140,4|0,1:2|1:0,0:0:0:0:
196,192,21264,1,8,0:0:0:0:
116,224,21424,2,0,P|144:260|240:268,1,140,2|2,0:0|1:2,0:0:0:0:
280,204,21902,2,0,L|360:208,1,70,8|0,0:0|0:0,0:0:0:0:
460,276,22222,6,0,B|476:248|476:248|484:120,2,140,4|8|0,1:2|0:0|1:0,0:0:0:0:
412,344,23020,1,0,1:0:0:0:
336,308,23179,1,8,0:0:0:0:
264,352,23339,2,0,P|196:352|144:292,1,140,0|0,1:0|1:0,0:0:0:0:
228,276,23817,2,0,P|240:252|244:196,1,70,8|0,0:0|0:0,0:0:0:0:
192,144,24137,1,2,1:2:0:0:
164,224,24296,1,0,1:0:0:0:
276,132,24456,2,0,P|320:128|360:132,1,70,10|0,0:0|0:0,0:0:0:0:
224,64,24775,6,0,P|152:64|84:24,1,140,0|8,1:0|0:0,0:0:0:0:
16,252,25413,2,0,P|72:236|100:240,1,70,0|0,1:0|1:0,0:0:0:0:
136,304,25732,2,0,P|80:320|52:316,1,70,8|0,0:0|1:0,0:0:0:0:
164,224,26051,1,2,1:2:0:0:
220,288,26211,2,0,B|268:292|268:292|308:272|308:272|356:276,2,140,2|2|0,1:2|0:0|1:0,0:0:0:0:
248,208,27009,2,0,L|240:128,1,70,8|2,0:0|0:0,0:0:0:0:
148,60,27328,6,0,L|164:208,1,140,4|8,1:2|0:0,0:0:0:0:
248,208,27807,2,0,P|312:188|388:212,1,140,2|0,0:0|1:0,0:0:0:0:
424,280,28285,1,8,0:0:0:0:
424,280,28445,1,0,1:0:0:0:
356,328,28605,2,0,P|318:333|272:328,2,70,0|0|8,1:0|1:0|0:0,0:0:0:0:
424,280,29083,2,0,P|408:220|416:136,1,140,0|0,0:0|1:0,0:0:0:0:
468,80,29562,1,10,0:0:0:0:
292,248,29881,6,0,L|136:260,1,140,4|8,1:2|0:0,0:0:0:0:
76,220,30360,2,0,L|64:144,1,70,2|0,0:0|1:0,0:0:0:0:
152,258,30679,2,0,L|140:340,1,70,2|8,1:2|0:0,0:0:0:0:
152,176,30998,2,0,B|132:64|132:64|156:80,1,140,4|2,1:2|1:2,0:0:0:0:
224,124,31477,1,8,0:0:0:0:
296,168,31637,1,4,1:2:0:0:
152,258,31956,1,10,1:2:0:0:
152,258,32115,1,8,1:2:0:0:
296,168,32434,6,0,P|356:156|416:180,1,125.999996154785,4|0,1:2|1:0,0:0:0:0:
252,240,33073,2,0,L|176:244,1,62.9999980773926,0|0,1:0|0:0,0:0:0:0:
120,200,33392,1,2,1:2:0:0:
120,200,33551,2,0,P|108:260|148:312,1,125.999996154785,0|2,0:0|0:0,0:0:0:0:
224,316,34030,2,0,L|288:312,1,62.9999980773926,0|0,0:0|0:0,0:0:0:0:
360,352,34349,2,0,L|428:348,2,62.9999980773926,2|0|0,1:2|0:0|1:0,0:0:0:0:
360,268,34828,1,0,0:0:0:0:
360,268,34908,1,0,0:0:0:0:
360,268,34988,6,0,B|424:264|424:264|484:216,1,125.999996154785,2|0,1:2|1:0,0:0:0:0:
488,144,35466,1,2,0:0:0:0:
420,96,35626,2,0,P|388:88|336:92,1,62.9999980773926,0|0,1:0|0:0,0:0:0:0:
260,164,35945,1,0,1:0:0:0:
260,164,36105,2,0,P|320:184|388:164,1,125.999996154785,0|0,0:0|0:0,0:0:0:0:
152,80,36743,2,0,P|128:128|140:220,1,125.999996154785,2|0,0:0|0:0,0:0:0:0:
192,252,37222,2,0,L|184:320,1,62.9999980773926,0|0,1:0|0:0,0:0:0:0:
176,324,37461,1,0,0:0:0:0:
168,332,37541,6,0,P|108:316|28:332,1,125.999996154785,2|0,1:2|1:0,0:0:0:0:
192,252,38179,2,0,P|204:216|208:184,1,62.9999980773926,0|0,1:0|0:0,0:0:0:0:
176,116,38498,1,2,1:2:0:0:
100,152,38658,2,0,P|96:96|152:36,1,125.999996154785,0|2,0:0|0:0,0:0:0:0:
220,44,39137,2,0,P|260:48|296:44,1,62.9999980773926,0|0,1:0|0:0,0:0:0:0:
344,100,39456,2,0,P|392:96|424:100,2,62.9999980773926,2|0|0,1:2|0:0|1:0,0:0:0:0:
276,144,39934,1,0,0:0:0:0:
304,220,40094,6,0,B|308:250|296:280|296:280|284:309|287:343,1,125.999996154785,0|0,1:0|1:0,0:0:0:0:
436,180,40732,2,0,L|372:176,1,62.9999980773926,2|0,1:2|0:0,0:0:0:0:
304,220,41051,2,0,L|240:224,1,62.9999980773926,0|2,1:0|0:0,0:0:0:0:
172,176,41371,5,0,1:2:0:0:
180,96,41530,1,0,0:0:0:0:
248,144,41690,1,2,1:2:0:0:
172,176,41849,1,2,0:0:0:0:
104,132,42009,2,0,P|100:64|104:52,1,62.9999980773926,0|10,1:0|0:0,0:0:0:0:
260,72,42328,2,0,P|261:103|254:133,1,62.9999980773926,2|8,1:2|1:2,0:0:0:0:
248,144,42567,1,8,1:2:0:0:
240,156,42647,6,0,B|252:244|252:244|272:284,1,125.999996154785,4|0,1:2|1:0,0:0:0:0:
96,352,43285,2,0,L|56:288,1,62.9999980773926,0|0,1:0|0:0,0:0:0:0:
176,332,43605,1,2,1:2:0:0:
176,332,43764,2,0,L|152:188,1,125.999996154785,0|2,0:0|0:0,0:0:0:0:
84,164,44243,2,0,L|72:92,1,62.9999980773926,0|0,1:0|0:0,0:0:0:0:
224,160,44562,2,0,L|236:232,2,62.9999980773926,2|0|0,1:2|0:0|1:0,0:0:0:0:
208,80,45041,2,0,L|200:28,2,31.4999990386963,0|0|2,0:0|0:0|1:2,0:0:0:0:
288,104,45360,6,0,B|340:104|377:68|377:68|392:104,1,125.999996154785,2|0,0:0|0:0,0:0:0:0:
408,172,45839,1,0,1:0:0:0:
488,192,45998,1,0,0:0:0:0:
468,112,46158,1,0,1:0:0:0:
408,172,46317,2,0,P|392:232|392:308,1,125.999996154785,0|0,0:0|0:0,0:0:0:0:
220,200,46956,2,0,P|236:140|236:64,1,125.999996154785,2|2,0:0|0:0,0:0:0:0:
184,16,47434,1,0,1:0:0:0:
116,60,47594,1,0,0:0:0:0:
116,60,47674,1,0,0:0:0:0:
116,60,47754,6,0,P|100:120|100:196,1,125.999996154785,2|0,1:2|1:0,0:0:0:0:
240,336,48392,2,0,P|248:292|248:268,2,62.9999980773926,0|0|0,1:0|0:0|1:0,0:0:0:0:
168,296,48871,2,0,L|128:300,2,31.4999990386963,0|0|2,0:0|0:0|1:2,0:0:0:0:
192,216,49190,2,0,L|184:148,1,62.9999980773926,0|0,0:0|1:0,0:0:0:0:
256,72,49509,2,0,L|272:216,1,125.999996154785,0|8,0:0|1:3,0:0:0:0:
240,336,49988,1,8,1:2:0:0:
240,336,50307,6,0,B|292:308|346:318|346:318|376:348,1,140,4|8,1:2|0:0,0:0:0:0:
420,276,50785,1,0,0:0:0:0:
348,236,50945,2,0,P|336:176|336:152,1,70,0|0,1:0|1:0,0:0:0:0:
416,28,51264,2,0,P|408:84|400:116,1,70,8|0,0:0|0:0,0:0:0:0:
340,152,51583,6,0,B|300:144|300:144|188:160,1,140,4|8,1:2|0:0,0:0:0:0:
348,236,52062,2,0,P|408:200|424:136,1,140,4|8,0:0|1:3,0:0:0:0:
368,72,52541,1,8,1:3:0:0:
368,72,52700,1,8,1:3:0:0:
284,88,52860,6,0,L|156:80,1,112,4|0,1:2|0:0,0:0:0:0:
76,176,53339,1,0,1:0:0:0:
76,176,53498,2,0,L|192:164,1,112,8|0,0:0|0:0,0:0:0:0:
260,208,53977,2,0,P|264:264|248:328,2,112,2|8|0,1:2|0:0|1:0,0:0:0:0:
187,164,54775,2,0,P|180:136|184:92,1,56,8|0,0:0|0:0,0:0:0:0:
264,124,55094,2,0,P|268:88|276:60,1,56,0|0,1:0|0:0,0:0:0:0:
280,60,55333,1,0,0:0:0:0:
288,52,55413,6,0,B|320:60|320:60|412:48,1,112,2|0,1:2|0:0,0:0:0:0:
440,124,55892,2,0,L|428:184,1,56,0|8,1:0|0:0,0:0:0:0:
472,252,56211,2,0,L|480:320,1,56,0|0,0:0|0:0,0:0:0:0:
412,360,56530,2,0,P|348:344|292:352,2,112,2|8|0,1:2|0:0|1:0,0:0:0:0:
478,307,57328,2,0,L|472:252,1,56,10|0,0:0|0:0,0:0:0:0:
408,196,57647,1,0,1:0:0:0:
344,248,57807,1,0,0:0:0:0:
284,188,57966,6,0,P|232:176|168:188,1,112,4|0,0:0|0:0,0:0:0:0:
123,281,58445,1,0,1:0:0:0:
123,281,58605,2,0,P|155:245|175:177,1,112,8|0,0:0|0:0,0:0:0:0:
28,56,59243,2,0,L|36:168,1,112,2|0,1:2|0:0,0:0:0:0:
44,252,59722,1,0,1:0:0:0:
123,281,59881,2,0,P|171:273|191:273,1,56,12|0,0:0|0:0,0:0:0:0:
304,228,60200,2,0,P|280:228|236:220,1,56,0|0,1:0|0:0,0:0:0:0:
157,146,60520,6,0,P|219:120|282:145,1,140,4|8,1:2|0:0,0:0:0:0:
232,340,60998,2,0,B|236:292|236:292|216:252|216:252|220:204,1,140,4|0,1:2|1:0,0:0:0:0:
304,228,61477,1,8,0:0:0:0:
304,228,61637,2,0,B|352:224|352:224|400:240|400:240|444:236,1,140,4|0,1:2|1:0,0:0:0:0:
340,304,62115,1,8,0:0:0:0:
219,205,62275,2,0,P|200:132|236:76,1,140,4|8,1:2|1:3,0:0:0:0:
316,68,62754,2,0,L|396:76,1,70,8|0,1:3|0:0,0:0:0:0:
283,146,63073,5,4,1:2:0:0:
148,80,63392,1,0,1:0:0:0:
158,231,63711,1,2,1:2:0:0:
283,146,64030,1,0,1:0:0:0:
283,146,64190,6,0,P|340:132|420:164,1,125.999996154785,2|0,0:0|0:0,0:0:0:0:
448,220,64668,2,0,L|440:300,1,62.9999980773926,0|0,1:0|0:0,0:0:0:0:
364,356,64988,2,0,L|356:280,1,62.9999980773926,0|0,1:0|0:0,0:0:0:0:
403,150,65307,1,8,0:0:0:0:
403,150,65626,6,0,P|352:164|280:144,1,125.999996154785,4|8,1:2|0:0,0:0:0:0:
240,8,66105,2,0,L|244:76,1,62.9999980773926,4|0,1:2|0:0,0:0:0:0:
188,204,66424,2,0,L|200:136,1,62.9999980773926,4|8,1:2|0:0,0:0:0:0:
104,32,66743,2,0,L|116:168,1,125.999996154785,4|0,1:2|1:0,0:0:0:0:
32,256,67222,2,0,P|32:224|44:192,1,62.9999980773926,8|0,0:0|0:0,0:0:0:0:
112,240,67541,1,2,1:2:0:0:
88,316,67700,2,0,L|76:356,2,31.4999990386963,0|0|8,1:0|1:0|1:2,0:0:0:0:
168,300,68020,1,8,0:0:0:0:
168,300,68099,1,8,0:0:0:0:
168,300,68179,6,0,B|204:304|204:304|244:284|292:300,1,125.999996154785,4|8,1:2|0:0,0:0:0:0:
344,236,68658,2,0,P|408:260|472:244,1,125.999996154785,0|0,0:0|1:0,0:0:0:0:
492,172,69137,2,0,P|476:136|468:100,1,62.9999980773926,8|0,0:0|0:0,0:0:0:0:
408,180,69456,2,0,P|424:248|392:308,1,125.999996154785,0|10,1:0|0:0,0:0:0:0:
324,316,69934,1,0,0:0:0:0:
264,260,70094,2,0,P|264:216|272:192,1,62.9999980773926,2|0,1:2|1:0,0:0:0:0:
340,81,70413,2,0,P|340:112|332:144,1,62.9999980773926,10|0,0:0|0:0,0:0:0:0:
180,268,70732,6,0,P|180:212|204:132,1,125.999996154785,4|8,1:2|0:0,0:0:0:0:
256,84,71211,1,0,0:0:0:0:
340,81,71371,2,0,L|408:93,2,62.9999980773926,8|0|8,0:0|1:0|0:0,0:0:0:0:
232,80,71849,2,0,B|120:56|120:56|144:72,1,140,4|8,1:2|1:3,0:0:0:0:
300,156,72328,1,8,1:3:0:0:
300,156,72966,2,0,P|308:196|304:232,1,70,2|0,0:0|0:0,0:0:0:0:
240,288,73285,6,0,P|172:280|76:312,1,154.000004699707,4|8,1:2|0:0,0:0:0:0:
316,340,73924,2,0,L|392:336,1,77.0000023498536,0|0,1:0|1:0,0:0:0:0:
456,268,74243,1,8,0:0:0:0:
388,204,74402,2,0,P|376:152|372:48,1,154.000004699707,2|0,1:2|1:0,0:0:0:0:
284,20,74881,2,0,P|276:80|260:112,1,77.0000023498536,8|0,0:0|0:0,0:0:0:0:
188,184,75200,2,0,P|168:120|196:40,1,154.000004699707,0|8,1:0|0:0,0:0:0:0:
269,94,75679,1,0,0:0:0:0:
280,184,75839,6,0,P|188:184|132:212,1,154.000004699707,2|8,1:2|0:0,0:0:0:0:
100,296,76317,2,0,P|140:298|180:292,1,77.0000023498536,0|0,0:0|1:0,0:0:0:0:
256,344,76637,1,0,1:0:0:0:
328,288,76796,1,8,0:0:0:0:
400,344,76956,2,0,P|416:304|364:204,1,154.000004699707,2|0,1:2|1:0,0:0:0:0:
280,212,77434,2,0,P|232:220|192:220,1,77.0000023498536,8|0,0:0|0:0,0:0:0:0:
324,128,77754,2,0,P|320:88|324:48,2,77.0000023498536,0|0|8,1:0|1:0|0:0,0:0:0:0:
372,208,78232,1,0,0:0:0:0:
455,165,78392,6,0,P|471:57|451:1,1,154.000004699707,2|8,1:2|0:0,0:0:0:0:
376,56,78871,2,0,B|336:76|336:76|216:68,1,154.000004699707,0|0,0:0|1:0,0:0:0:0:
136,152,79349,1,8,0:0:0:0:
136,152,79509,2,0,L|296:160,1,154.000004699707,2|0,1:2|1:0,0:0:0:0:
352,228,79988,2,0,P|356:268|352:312,1,77.0000023498536,8|0,0:0|0:0,0:0:0:0:
216,344,80307,2,0,P|184:288|216:196,1,154.000004699707,0|10,1:0|0:0,0:0:0:0:
352,228,80945,5,4,1:2:0:0:
224,192,81105,1,0,0:0:0:0:
308,148,81264,1,8,0:0:0:0:
268,272,81424,2,0,P|201:278|132:216,1,154.000004699707,2|2,0:0|1:2,0:0:0:0:
116,136,81902,1,8,0:0:0:0:
184,72,82062,2,0,B|216:48|216:48|276:36|328:64,1,154.000004699707,4|0,1:2|1:0,0:0:0:0:
400,152,82541,1,8,0:0:0:0:
400,152,82700,2,0,P|388:208|412:304,1,154.000004699707,4|0,0:0|1:0,0:0:0:0:
420,308,83099,1,0,1:0:0:0:
432,312,83179,2,0,L|509:315,1,77.0000023498536,12|0,1:2|0:0,0:0:0:0:
348,360,83498,6,0,P|296:328|184:344,1,154.000004699707,4|8,1:2|0:0,0:0:0:0:
136,272,83977,1,0,0:0:0:0:
196,204,84137,2,0,P|204:168|204:120,2,77.0000023498536,0|0|8,1:0|1:0|0:0,0:0:0:0:
72,208,84615,2,0,B|40:148|56:88|56:88|84:64,1,154.000004699707,2|0,1:2|1:0,0:0:0:0:
164,104,85094,2,0,P|232:108|324:88,1,154.000004699707,8|0,0:0|1:0,0:0:0:0:
388,36,85573,1,0,1:0:0:0:
388,36,85732,1,8,0:0:0:0:
248,196,86051,6,0,P|244:276|304:332,1,154.000004699707,2|8,1:2|0:0,0:0:0:0:
328,240,86530,2,0,P|364:228|416:224,1,77.0000023498536,0|0,0:0|1:0,0:0:0:0:
484,268,86849,1,0,1:0:0:0:
464,360,87009,1,8,0:0:0:0:
384,316,87168,2,0,B|360:300|360:300|364:168,1,154.000004699707,2|0,1:2|1:0,0:0:0:0:
452,56,87647,2,0,L|448:140,1,77.0000023498536,8|0,0:0|0:0,0:0:0:0:
488,216,87966,2,0,L|484:300,2,77.0000023498536,0|0|8,1:0|1:0|0:0,0:0:0:0:
448,132,88445,1,0,0:0:0:0:
363,174,88605,6,0,B|304:196|236:184|236:184|264:168,1,154.000004699707,4|8,1:2|0:0,0:0:0:0:
363,174,89083,2,0,P|376:240|352:332,1,154.000004699707,0|0,0:0|1:0,0:0:0:0:
272,360,89562,1,8,0:0:0:0:
200,304,89722,2,0,P|100:292|44:312,1,154.000004699707,2|0,1:2|0:0,0:0:0:0:
60,216,90200,2,0,P|73:177|80:140,1,77.0000023498536,8|0,0:0|0:0,0:0:0:0:
188,212,90520,2,0,P|288:224|344:204,1,154.000004699707,0|10,1:0|0:0,0:0:0:0:
420,64,91158,5,4,1:2:0:0:
352,192,91317,1,0,0:0:0:0:
436,156,91477,1,8,0:0:0:0:
288,124,91637,2,0,L|128:120,1,154.000004699707,2|2,0:0|1:2,0:0:0:0:
64,180,92115,1,8,0:0:0:0:
128,248,92275,2,0,L|281:251,1,154.000004699707,4|0,1:2|1:0,0:0:0:0:
292,260,92674,1,0,1:0:0:0:
300,268,92754,2,0,P|308:303|310:348,1,77.0000023498536,8|0,0:0|0:0,0:0:0:0:
384,240,93073,6,0,L|436:248,2,51.3333348999024,8|0|0,1:3|1:0|1:0,0:0:0:0:
380,188,93392,2,0,L|436:168,2,51.3333348999024,8|0|8,1:3|1:0|1:3,0:0:0:0:
356,148,93711,6,0,B|416:136|440:80|440:80|416:60|376:60,1,168,4|0,1:2|1:0,0:0:0:0:
304,80,94349,2,0,P|240:84|184:76,1,112,4|0,1:2|0:0,0:0:0:0:
112,52,94828,1,0,1:0:0:0:
112,52,94908,1,0,1:0:0:0:
112,52,94988,2,0,L|116:120,1,56,2|8,1:2|0:0,0:0:0:0:
68,176,95307,2,0,L|64:240,1,56,0|0,0:0|1:0,0:0:0:0:
152,320,95626,2,0,L|144:200,1,112,10|2,0:0|1:2,0:0:0:0:
196,140,96105,1,0,0:0:0:0:
248,204,96264,6,0,P|304:164|256:88,1,168,4|0,1:2|1:0,0:0:0:0:
196,140,96902,2,0,L|180:84,1,56,10|0,0:0|1:0,0:0:0:0:
248,204,97222,2,0,L|208:256,1,56,10|0,0:0|0:0,0:0:0:0:
332,196,97541,5,8,1:3:0:0:
280,128,97700,1,0,1:0:0:0:
296,272,97860,2,0,L|304:344,1,66.4999982242585,8|0,1:3|1:0,0:0:0:0:
332,196,98179,5,8,1:2:0:0:
380,264,98339,1,8,1:2:0:0:
248,204,98498,2,0,L|172:168,1,80.5000015354157,8|8,1:2|1:2,0:0:0:0:
256,192,98817,12,10,99775,0:0:0:0:
124,256,100094,6,0,P|96:200|96:120,1,140,4|8,1:2|0:0,0:0:0:0:
196,300,100732,2,0,P|160:332|140:340,2,70,0|0|8,1:0|1:0|0:0,0:0:0:0:
236,228,101211,2,0,P|280:212|380:244,1,140,0|0,1:0|1:0,0:0:0:0:
444,328,101690,2,0,P|444:284|452:248,1,70,8|0,0:0|0:0,0:0:0:0:
416,108,102009,2,0,P|428:148|428:188,1,70,2|0,1:2|1:0,0:0:0:0:
367,233,102328,1,8,0:0:0:0:
304,180,102488,1,2,0:0:0:0:
332,100,102647,6,0,P|408:92|480:56,1,140,0|8,1:0|0:0,0:0:0:0:
304,180,103285,2,0,P|272:160|248:124,1,70,0|0,1:0|1:0,0:0:0:0:
172,112,103605,1,8,0:0:0:0:
105,163,103764,1,0,1:0:0:0:
104,248,103924,2,0,L|180:276,2,70,2|0|10,1:2|1:0|0:0,0:0:0:0:
60,320,104402,2,0,B|162:355|162:355|201:350,2,140,2|2|2,0:0|1:2|0:0,0:0:0:0:
20,244,105200,6,0,P|48:184|116:168,1,140,0|8,1:0|0:0,0:0:0:0:
352,232,105839,2,0,P|308:244|272:244,1,70,0|0,1:0|1:0,0:0:0:0:
388,156,106158,2,0,P|432:160|460:168,1,70,8|0,0:0|1:0,0:0:0:0:
304,164,106477,1,2,1:2:0:0:
304,164,106637,2,0,L|296:20,1,140,2|2,0:0|0:0,0:0:0:0:
236,216,107275,2,0,L|232:296,2,70,0|10|0,1:0|0:0|0:0,0:0:0:0:
180,152,107754,6,0,P|116:148|60:200,1,140,4|8,1:2|0:0,0:0:0:0:
140,224,108232,2,0,P|159:290|125:349,1,140,2|2,0:0|1:2,0:0:0:0:
40,356,108711,1,8,0:0:0:0:
80,280,108871,2,0,B|128:284|128:284|168:304|168:304|216:308,1,140,4|0,1:2|1:0,0:0:0:0:
336,232,109349,1,8,0:0:0:0:
336,232,109509,2,0,L|188:224,1,140,2|2,0:0|1:2,0:0:0:0:
140,164,109988,2,0,P|132:132|132:80,1,70,8|0,0:0|0:0,0:0:0:0:
268,40,110307,6,0,P|280:104|264:184,1,140,4|8,1:2|0:0,0:0:0:0:
112,344,110945,2,0,P|156:324|188:320,1,70,0|0,1:0|1:0,0:0:0:0:
256,352,111264,1,8,0:0:0:0:
336,324,111424,2,0,P|356:268|348:188,1,140,0|0,1:0|1:0,0:0:0:0:
276,148,111902,2,0,L|280:72,1,70,8|0,0:0|0:0,0:0:0:0:
204,192,112222,1,2,1:2:0:0:
276,232,112381,1,0,1:0:0:0:
348,189,112541,2,0,P|380:184|436:188,1,70,10|2,0:0|0:0,0:0:0:0:
336,292,112860,6,0,P|272:316|204:280,2,140,0|8|0,1:0|0:0|1:0,0:0:0:0:
276,232,113658,1,0,1:0:0:0:
196,204,113817,2,0,P|161:219|132:252,1,70,8|0,0:0|1:0,0:0:0:0:
276,232,114137,1,2,1:2:0:0:
260,148,114296,2,0,B|272:32|272:32|288:68,1,140,2|2,1:2|0:0,0:0:0:0:
352,272,114934,2,0,P|408:280|432:280,1,70,0|8,1:0|0:0,0:0:0:0:
488,228,115254,1,2,0:0:0:0:
452,152,115413,6,0,P|392:132|304:148,1,140,4|8,1:2|0:0,0:0:0:0:
256,200,115892,2,0,P|168:188|104:204,1,140,2|0,0:0|1:0,0:0:0:0:
60,260,116371,1,8,0:0:0:0:
60,260,116530,1,0,1:0:0:0:
36,180,116690,2,0,P|36:136|48:96,1,70,2|0,1:2|1:0,0:0:0:0:
118,198,117009,2,0,P|136:232|144:272,1,70,8|0,0:0|0:0,0:0:0:0:
180,140,117328,2,0,P|188:104|204:76,1,70,0|0,1:0|1:0,0:0:0:0:
236,204,117647,1,10,0:0:0:0:
236,204,117966,6,0,P|176:176|100:180,1,140,4|8,1:2|0:0,0:0:0:0:
208,284,118445,2,0,P|268:280|320:216,1,140,2|2,0:0|1:2,0:0:0:0:
292,144,118924,1,8,0:0:0:0:
292,144,119083,2,0,L|432:152,1,140,4|2,1:2|1:2,0:0:0:0:
484,272,119562,1,8,0:0:0:0:
484,272,119722,2,0,L|344:264,1,140,4|8,1:2|1:2,0:0:0:0:
212,340,120200,1,8,1:2:0:0:
212,340,120520,5,12,1:2:0:0:
280,292,120679,1,0,1:0:0:0:
232,220,120839,1,2,1:2:0:0:
284,152,120998,2,0,B|292:96|272:40|272:40|256:60,1,140,10|0,0:0|1:0,0:0:0:0:
184,152,121477,5,10,0:0:0:0:
184,152,121637,2,0,B|168:192|168:192|192:220|192:220|180:256|180:256|224:300|292:284|316:232,1,280,12|0,0:0|0:0,0:0:0:0:
