osu file format v14

[General]
AudioFilename: 01 -Opening size-.mp3
AudioLeadIn: 0
PreviewTime: 72966
Countdown: 0
SampleSet: Soft
StackLeniency: 0.5
Mode: 0
LetterboxInBreaks: 0
WidescreenStoryboard: 0

[Editor]
DistanceSpacing: 1
BeatDivisor: 2
GridSize: 4
TimelineZoom: 1

[Metadata]
Title:Aoki Negai -Opening size-
TitleUnicode:碧き願い -Opening size-
Artist:Sasaka Megumi
ArtistUnicode:佐坂めぐみ
Creator:jonathanlfj
Version:Easy
Source:英雄伝説 碧の軌跡 Evolution
Tags:Falcom Sound Team J.D.K. The Legend of Heroes Ao no Kiseki Trails of Blue Azure rpg game opening project_railgun zj0924
BeatmapID:456266
BeatmapSetID:191717

[Difficulty]
HPDrainRate:2
CircleSize:3
OverallDifficulty:2
ApproachRate:3
SliderMultiplier:0.8
SliderTickRate:1

[Events]
//Background and Video events
Video,0,"ao.avi"
0,0,"s.jpg",0,0
//Break Periods
//Storyboard Layer 0 (Background)
//Storyboard Layer 1 (Fail)
//Storyboard Layer 2 (Pass)
//Storyboard Layer 3 (Foreground)
//Storyboard Sound Samples

[TimingPoints]
520,319.148936170213,4,2,1,50,1,0
520,-111.111111111111,4,2,1,50,0,0
10732,-111.111111111111,4,2,1,40,0,0
11530,-111.111111111111,4,2,1,60,0,0
12009,-100,4,2,1,70,0,1
12089,-100,4,2,1,70,0,0
32434,-100,4,2,1,60,0,0
50307,-100,4,2,1,70,0,0
52860,-100,4,2,1,60,0,0
60520,-100,4,2,1,70,0,0
63073,-100,4,2,1,60,0,0
71849,-100,4,2,1,50,0,0
73285,-100,4,2,1,80,0,1
93711,-100,4,2,1,70,0,1
97541,-100,4,2,1,50,0,1
97700,-100,4,2,1,55,0,1
97860,-100,4,2,1,60,0,1
98020,-100,4,2,1,65,0,1
98179,-100,4,2,1,70,0,1
98339,-100,4,2,1,75,0,1
98498,-100,4,2,1,80,0,1
98658,-100,4,2,1,85,0,1
98817,-100,4,2,1,30,0,0
99775,-100,4,2,1,80,0,0
100094,-100,4,2,1,70,0,1
100174,-100,4,2,1,70,0,0
122275,-100,4,2,1,40,0,0

[Colours]
Combo1 : 255,206,94
Combo2 : 111,242,253
Combo3 : 56,155,254
Combo4 : 231,122,254

[HitObjects]
96,272,520,6,0,P|144:272|212:244,1,107.999996704102,2|0,0:0|0:0,0:0:0:0:
268,156,1477,2,0,L|408:168,1,107.999996704102,2|0,0:0|0:0,0:0:0:0:
428,272,2434,2,0,L|344:264,1,71.9999978027344,2|2,0:0|0:0,0:0:0:0:
304,324,3073,6,0,P|240:344|172:340,1,107.999996704102,2|0,0:0|0:0,0:0:0:0:
92,296,4030,2,0,P|112:240|108:164,1,107.999996704102,2|0,0:0|0:0,0:0:0:0:
56,88,4988,2,0,P|96:76|140:76,1,71.9999978027344,2|2,0:0|0:0,0:0:0:0:
198,107,5626,6,0,P|258:107|322:87,2,107.999996704102,2|2|0,0:0|0:0|0:0,0:0:0:0:
113,191,7062,2,0,P|112:248|128:300,1,107.999996704102,2|2,0:0|0:0,0:0:0:0:
182,354,7860,1,2,0:0:0:0:
248,312,8179,6,0,B|312:304|360:336|360:336|392:296,1,143.999995605469,2|0,0:0|0:0,0:0:0:0:
460,180,9456,2,0,B|396:188|348:156|348:156|316:196,1,143.999995605469,2|2,0:0|0:0,0:0:0:0:
288,244,10413,1,0,0:0:0:0:
248,312,10732,5,2,0:0:0:0:
264,76,11690,1,10,0:0:0:0:
208,132,12009,6,0,L|104:128,1,80,4|8,1:2|0:0,0:0:0:0:
64,80,12647,2,0,P|52:156|88:200,2,120,0|0|8,1:0|1:0|0:0,0:0:0:0:
136,48,13924,1,2,1:2:0:0:
212,188,14562,6,0,P|308:204|396:176,1,160,0|0,1:0|1:0,0:0:0:0:
424,132,15520,1,8,0:0:0:0:
476,192,15839,2,0,P|492:260|472:352,1,160,2|0,1:2|1:0,0:0:0:0:
316,328,17115,6,0,P|260:320|224:324,1,80,0|8,1:0|0:0,0:0:0:0:
164,352,17754,1,0,1:0:0:0:
173,195,18392,2,0,L|148:116,2,80,0|8|0,0:0|0:0|0:0,0:0:0:0:
250,217,19349,1,10,0:0:0:0:
320,180,19668,6,0,B|356:144|352:68|352:68|320:41|264:32,1,200,4|2,1:2|1:2,0:0:0:0:
224,92,20785,2,0,P|148:113|60:96,1,160,4|2,1:2|0:0,0:0:0:0:
32,172,21743,2,0,L|52:304,1,120,2|4,1:2|1:2,0:0:0:0:
205,326,22860,6,0,L|188:208,2,120,0|0|8,1:0|1:0|0:0,0:0:0:0:
280,356,24137,2,0,P|324:352|368:336,1,80,2|10,1:2|0:0,0:0:0:0:
400,272,24775,5,0,1:0:0:0:
284,164,25413,1,0,1:0:0:0:
396,52,26051,2,0,P|432:116|432:216,1,160,2|0,1:2|0:0,0:0:0:0:
400,272,27009,1,8,0:0:0:0:
324,300,27328,6,0,B|288:312|288:312|196:292,2,120,4|2|8,1:2|0:0|0:0,0:0:0:0:
284,228,28605,1,0,1:0:0:0:
132,276,29243,2,0,L|32:252,1,80,0|10,1:0|0:0,0:0:0:0:
40,180,29881,6,0,B|96:144|112:76|112:76|184:92,1,200,4|2,1:2|1:2,0:0:0:0:
260,104,30998,2,0,P|312:104|352:80,2,80,4|2|4,1:2|1:2|1:2,0:0:0:0:
288,28,31956,1,10,1:2:0:0:
404,48,32434,6,0,L|400:216,1,160,4|0,1:2|1:0,0:0:0:0:
256,280,33711,1,0,1:0:0:0:
112,207,34349,1,2,1:2:0:0:
256,136,34988,6,0,P|328:128|420:168,1,160,2|0,1:2|1:0,0:0:0:0:
314,288,36264,2,0,P|258:300|194:288,2,120,2|2|0,1:2|0:0|1:0,0:0:0:0:
372,232,37541,5,2,1:2:0:0:
256,120,38179,1,0,1:0:0:0:
140,232,38817,1,2,1:2:0:0:
256,344,39456,1,2,1:2:0:0:
372,232,40094,6,0,P|384:168|356:72,1,160,2|2,1:2|1:2,0:0:0:0:
288,40,41051,1,0,1:0:0:0:
228,96,41371,2,0,P|182:107|68:84,1,160,2|0,1:2|1:0,0:0:0:0:
20,148,42328,1,2,1:2:0:0:
72,208,42647,6,0,P|144:224|256:208,1,160,4|0,1:2|1:0,0:0:0:0:
348,108,43924,2,0,L|372:272,1,160,0|2,1:0|1:2,0:0:0:0:
232,344,45200,5,2,1:2:0:0:
108,240,45839,1,0,1:0:0:0:
212,120,46477,2,0,P|284:108|328:144,2,120,2|2|0,1:2|0:0|1:0,0:0:0:0:
260,184,47754,6,0,B|264:240|264:240|288:284|288:284|292:340,1,160,2|0,1:2|1:0,0:0:0:0:
384,208,49030,2,0,B|380:152|380:152|356:108|356:108|352:52,1,160,2|0,1:2|1:0,0:0:0:0:
420,8,49988,1,8,1:2:0:0:
488,52,50307,6,0,P|504:128|480:220,1,160,4|0,1:2|1:0,0:0:0:0:
356,300,51583,2,0,B|276:304|276:304|236:280,2,120,4|4|8,1:2|0:0|1:3,0:0:0:0:
424,256,52860,5,4,1:2:0:0:
288,172,53498,2,0,L|164:180,1,120,8|2,0:0|1:2,0:0:0:0:
40,332,54775,2,0,P|52:276|52:248,1,80,8|0,0:0|1:0,0:0:0:0:
16,180,55413,6,0,B|8:120|40:72|40:72|88:64,1,160,2|8,1:2|0:0,0:0:0:0:
160,156,56530,2,0,P|204:156|244:140,1,80,2|8,1:2|0:0,0:0:0:0:
348,96,57328,2,0,P|388:100|424:128,1,80,10|0,0:0|1:0,0:0:0:0:
360,176,57966,6,0,P|388:264|444:320,1,160,4|8,0:0|0:0,0:0:0:0:
272,300,59243,2,0,P|212:304|120:344,1,160,2|12,1:2|0:0,0:0:0:0:
52,304,60200,1,0,1:0:0:0:
88,232,60520,6,0,B|108:176|108:176|104:112,1,120,4|4,1:2|1:2,0:0:0:0:
96,36,61317,1,0,1:0:0:0:
172,68,61637,2,0,P|212:72|264:68,1,80,4|0,1:2|1:0,0:0:0:0:
320,112,62275,2,0,B|360:96|408:100|408:100|432:120,1,120,4|8,1:2|1:3,0:0:0:0:
492,172,63073,5,4,1:2:0:0:
396,300,63711,2,0,P|348:308|284:256,2,120,2|2|0,1:2|0:0|1:0,0:0:0:0:
360,228,64988,1,0,1:0:0:0:
212,172,65626,6,0,P|148:161|79:172,1,120,4|4,1:2|1:2,0:0:0:0:
36,224,66424,1,4,1:2:0:0:
88,284,66743,2,0,P|152:295|220:283,1,120,4|8,1:2|0:0,0:0:0:0:
264,232,67541,2,0,P|280:260|284:312,1,80,2|8,1:2|1:2,0:0:0:0:
228,364,68179,5,4,1:2:0:0:
188,208,68817,1,0,1:0:0:0:
268,68,69456,1,0,1:0:0:0:
332,116,69775,2,0,L|432:120,2,80,10|2|10,0:0|1:2|0:0,0:0:0:0:
260,148,70732,6,0,P|236:224|260:316,1,160,4|8,1:2|0:0,0:0:0:0:
360,352,71849,2,0,B|380:320|380:320|364:292|360:240,1,120,4|8,1:2|1:3,0:0:0:0:
456,20,73285,6,0,P|400:56|296:60,1,160,4|0,1:2|1:0,0:0:0:0:
192,28,74402,2,0,L|180:156,1,120,2|8,1:2|0:0,0:0:0:0:
228,212,75200,1,0,1:0:0:0:
104,316,75839,6,0,P|72:256|80:148,1,160,2|0,1:2|1:0,0:0:0:0:
148,72,76956,2,0,P|216:52|284:64,1,120,2|8,1:2|0:0,0:0:0:0:
336,96,77754,1,0,1:0:0:0:
228,212,78392,6,0,B|216:280|247:329|247:329|296:344,1,160,2|0,1:2|0:0,0:0:0:0:
404,328,79509,2,0,P|428:276|432:208,1,120,2|8,1:2|0:0,0:0:0:0:
404,140,80307,1,0,1:0:0:0:
276,236,80945,6,0,P|204:252|140:248,1,120,4|2,1:2|0:0,0:0:0:0:
84,216,81743,1,2,1:2:0:0:
116,144,82062,2,0,B|128:88|112:32|112:32|172:20,1,160,4|4,1:2|0:0,0:0:0:0:
272,60,83179,1,12,1:2:0:0:
348,32,83498,6,0,P|416:48|468:124,1,160,4|0,1:2|1:0,0:0:0:0:
412,224,84615,2,0,P|400:288|428:336,1,120,2|8,1:2|0:0,0:0:0:0:
480,272,85413,1,0,1:0:0:0:
380,148,86051,6,0,B|360:124|360:124|292:108|240:160,1,160,2|0,1:2|1:0,0:0:0:0:
200,272,87168,2,0,P|153:283|72:280,1,120,2|8,1:2|0:0,0:0:0:0:
20,232,87966,1,0,1:0:0:0:
88,88,88605,6,0,P|156:64|252:84,1,160,4|0,1:2|1:0,0:0:0:0:
340,148,89722,2,0,L|328:280,1,120,2|8,1:2|0:0,0:0:0:0:
320,348,90520,1,0,1:0:0:0:
448,252,91158,6,0,L|458:132,1,120,4|2,1:2|0:0,0:0:0:0:
408,72,91956,1,2,1:2:0:0:
344,120,92275,2,0,P|286:129|212:120,1,120,4|8,1:2|0:0,0:0:0:0:
168,68,93073,2,0,B|188:104|188:104|196:232,1,160,8|4,1:3|1:2,0:0:0:0:
120,364,94349,5,4,1:2:0:0:
256,280,94988,1,2,1:2:0:0:
392,364,95626,1,10,0:0:0:0:
256,280,96264,2,0,B|256:248|248:216|248:216|264:188|264:188|256:156|256:124,1,160,4|10,1:2|0:0,0:0:0:0:
256,44,97222,1,10,0:0:0:0:
256,192,97541,12,2,98817,0:0:0:0:
412,252,99775,5,10,0:0:0:0:
344,292,100094,6,0,L|252:288,1,80,4|8,1:2|0:0,0:0:0:0:
200,240,100732,2,0,P|136:236|86:293,2,120,0|0|8,1:0|1:0|0:0,0:0:0:0:
164,312,102009,1,2,1:2:0:0:
39,211,102647,6,0,P|95:167|195:155,1,160,0|0,1:0|1:0,0:0:0:0:
256,180,103605,1,8,0:0:0:0:
336,168,103924,2,0,P|372:112|376:4,1,160,2|0,1:2|1:0,0:0:0:0:
476,148,105200,6,0,L|488:236,1,80,0|8,1:0|0:0,0:0:0:0:
444,296,105839,1,0,1:0:0:0:
292,244,106477,2,0,B|256:232|256:232|164:248,2,120,2|2|10,1:2|0:0|0:0,0:0:0:0:
252,316,107754,6,0,L|124:336,1,120,4|2,1:2|0:0,0:0:0:0:
64,292,108551,1,2,1:2:0:0:
100,220,108871,2,0,B|180:208|180:208|200:172|236:152,1,160,4|2,1:2|0:0,0:0:0:0:
316,156,109828,2,0,P|376:172|452:160,1,120,2|4,1:2|1:2,0:0:0:0:
340,36,110945,6,0,P|280:20|204:32,2,120,0|0|8,1:0|1:0|0:0,0:0:0:0:
396,96,112222,2,0,L|384:184,1,80,2|10,1:2|0:0,0:0:0:0:
312,212,112860,5,0,1:0:0:0:
188,112,113498,1,0,1:0:0:0:
68,220,114137,2,0,L|72:344,2,120,2|2|8,1:2|0:0|0:0,0:0:0:0:
116,156,115413,6,0,P|192:128|284:140,1,160,4|0,1:2|0:0,0:0:0:0:
332,184,116371,1,8,0:0:0:0:
408,156,116690,2,0,P|424:96|364:24,1,160,2|0,1:2|1:0,0:0:0:0:
344,104,117647,1,10,0:0:0:0:
332,184,117966,6,0,B|332:248|368:296|368:296|336:324|292:324,1,200,4|2,1:2|1:2,0:0:0:0:
216,300,119083,2,0,L|204:216,1,80,4|2,1:2|1:2,0:0:0:0:
256,160,119722,2,0,L|264:64,1,80,4|8,1:2|1:2,0:0:0:0:
372,128,120520,6,0,P|368:192|340:248,1,120,12|10,1:2|0:0,0:0:0:0:
228,276,121477,2,0,B|204:260|204:260|204:232|204:232|180:212|180:212|177:169|217:144|256:160,1,200,10|0,0:0|0:0,0:0:0:0:
