osu file format v14

[General]
AudioFilename: audio.mp3
AudioLeadIn: 0
PreviewTime: 46727
Countdown: 0
SampleSet: Soft
StackLeniency: 0.7
Mode: 0
LetterboxInBreaks: 0
WidescreenStoryboard: 1

[Editor]
Bookmarks: 13977,21726
DistanceSpacing: 1.8
BeatDivisor: 4
GridSize: 4
TimelineZoom: 2.2

[Metadata]
Title:Souzetsu Gekkou
TitleUnicode:Souzetsu Gekkou
Artist:Saratoga(CV: Sumire Uesaka)
ArtistUnicode:Saratoga(CV: Sumire Uesaka)
Creator:Feruver
Version:Insane
Source:Azur Lane
Tags:
BeatmapID:1876557
BeatmapSetID:884467

[Difficulty]
HPDrainRate:5
CircleSize:3.7
OverallDifficulty:8
ApproachRate:8.7
SliderMultiplier:1.8
SliderTickRate:1

[Events]
//Background and Video events
0,0,"967310.jpg",0,0
//Break Periods
2,10093,12081
2,151592,160081
//Storyboard Layer 0 (Background)
//Storyboard Layer 1 (Fail)
//Storyboard Layer 2 (Pass)
//Storyboard Layer 3 (Foreground)
//Storyboard Sound Samples

[TimingPoints]
1394,333.333333333333,4,2,1,100,1,0
1727,-250,4,2,1,100,0,0
1977,-142.857142857143,4,2,1,5,0,0
2060,333.333333333333,4,2,1,65,1,0
2060,-142.857142857143,4,2,1,65,0,0
7393,-100,4,2,1,65,0,0
7643,-100,4,2,1,5,0,0
7726,-100,4,2,1,40,0,0
8059,-100,4,2,1,50,0,0
8392,-100,4,2,1,65,0,0
15059,-66.6666666666667,4,2,1,65,0,0
15310,-66.6666666666667,4,2,1,5,0,0
15393,333.333333333333,4,2,1,65,1,0
15393,-100,4,2,1,65,0,0
18309,-100,4,2,1,5,0,0
18392,-100,4,2,1,65,0,0
18976,-100,4,2,1,5,0,0
19059,-100,4,2,1,65,0,0
20309,-100,4,2,1,5,0,0
20392,-100,4,2,1,65,0,0
20476,-100,4,2,1,5,0,0
20559,-100,4,2,1,65,0,0
26059,-111.111111111111,4,2,1,65,0,0
31642,-111.111111111111,4,2,1,5,0,0
31726,-111.111111111111,4,2,1,65,0,0
32892,-111.111111111111,4,2,1,5,0,0
32976,-111.111111111111,4,2,1,65,0,0
33142,-111.111111111111,4,2,1,5,0,0
33226,-100,4,2,1,65,0,0
33476,-111.111111111111,4,2,1,5,0,0
33559,-111.111111111111,4,2,1,65,0,0
34559,-66.6666666666667,4,2,1,65,0,0
35392,-76.9230769230769,4,2,1,65,0,0
35642,-76.9230769230769,4,2,1,5,0,0
35726,-71.4285714285714,4,2,1,65,0,0
35976,-76.9230769230769,4,2,1,5,0,0
36059,-66.6666666666667,4,2,1,65,0,0
36309,-66.6666666666667,4,2,1,5,0,0
36392,-57.1428571428571,4,2,1,65,0,0
36642,-57.1428571428571,4,2,1,5,0,0
36726,-133.333333333333,4,2,1,65,0,0
39142,-133.333333333333,4,2,1,5,0,0
39226,-133.333333333333,4,2,1,65,0,0
41226,-100,4,2,1,65,0,0
41392,-133.333333333333,4,2,1,65,0,0
41892,-100,4,2,1,65,0,0
46726,-333.333333333333,4,2,1,65,0,0
46976,-333.333333333333,4,2,1,5,0,0
47059,-66.6666666666667,4,2,1,65,0,0
47309,-66.6666666666667,4,2,1,5,0,0
47392,-71.4285714285714,4,2,1,65,0,1
47642,-71.4285714285714,4,2,1,5,0,1
47726,-71.4285714285714,4,2,1,65,0,1
47976,-71.4285714285714,4,2,1,5,0,1
48059,-71.4285714285714,4,2,1,65,0,1
48309,-71.4285714285714,4,2,1,5,0,1
48392,-71.4285714285714,4,2,1,65,0,1
49142,-71.4285714285714,4,2,1,5,0,1
49226,-71.4285714285714,4,2,1,65,0,1
49642,-71.4285714285714,4,2,1,5,0,1
49726,-71.4285714285714,4,2,1,65,0,1
50976,-71.4285714285714,4,2,1,5,0,1
51059,-71.4285714285714,4,2,1,65,0,1
51809,-71.4285714285714,4,2,1,5,0,1
51892,-71.4285714285714,4,2,1,65,0,1
56809,-71.4285714285714,4,2,1,5,0,1
56892,-71.4285714285714,4,2,1,65,0,1
57142,-71.4285714285714,4,2,1,5,0,1
57226,-71.4285714285714,4,2,1,65,0,1
57476,-71.4285714285714,4,2,1,5,0,1
57559,-71.4285714285714,4,2,1,65,0,1
57642,-71.4285714285714,4,2,1,5,0,1
57726,-50,4,2,1,65,0,1
57809,-71.4285714285714,4,2,1,5,0,1
57892,-38.4615384615385,4,2,1,65,0,1
57976,-71.4285714285714,4,2,1,5,0,1
58059,-71.4285714285714,4,2,1,65,0,1
58309,-71.4285714285714,4,2,1,5,0,1
58392,-71.4285714285714,4,2,1,65,0,1
58642,-71.4285714285714,4,2,1,5,0,1
58726,-55.5555555555556,4,2,1,65,0,1
58976,-71.4285714285714,4,2,1,5,0,1
59059,-71.4285714285714,4,2,1,65,0,1
68059,-71.4285714285714,4,2,1,40,0,1
68226,-71.4285714285714,4,2,1,30,0,1
68392,-71.4285714285714,4,2,1,65,0,1
68642,-71.4285714285714,4,2,1,5,0,1
68726,-100,4,2,1,65,0,0
71309,-100,4,2,1,5,0,0
71392,-100,4,2,1,65,0,0
71726,-100,4,2,1,35,0,0
72059,-100,4,2,1,45,0,0
72392,-100,4,2,1,55,0,0
72726,-100,4,2,1,65,0,0
73726,-66.6666666666667,4,2,1,65,0,0
73976,-100,4,2,1,5,0,0
74059,-71.4285714285714,4,2,1,65,0,0
75642,-71.4285714285714,4,2,1,5,0,0
75726,-71.4285714285714,4,2,1,65,0,0
78976,-71.4285714285714,4,2,1,5,0,0
79059,-71.4285714285714,4,2,1,65,0,0
79142,-71.4285714285714,4,2,1,5,0,0
79226,-71.4285714285714,4,2,1,65,0,0
79392,-62.5,4,2,1,65,0,0
79892,-71.4285714285714,4,2,1,65,0,0
83476,-71.4285714285714,4,2,1,5,0,0
83559,-71.4285714285714,4,2,1,65,0,0
84226,-71.4285714285714,4,2,1,65,0,0
84309,-71.4285714285714,4,2,1,5,0,0
84392,-133.333333333333,4,2,1,65,0,0
84559,-100,4,2,1,65,0,0
84642,-100,4,2,1,5,0,0
84726,-100,4,2,1,65,0,0
86226,-100,4,2,1,5,0,0
86309,-100,4,2,1,65,0,0
86476,-100,4,2,1,5,0,0
86559,-100,4,2,1,65,0,0
89059,-100,4,2,1,40,0,0
89392,-100,4,2,1,57,0,0
89726,-100,4,2,1,65,0,0
89976,-100,4,2,1,5,0,0
90059,-100,4,2,1,65,0,0
90309,-100,4,2,1,5,0,0
90392,-100,4,2,1,65,0,0
92642,-100,4,2,1,5,0,0
92726,-100,4,2,1,65,0,0
93809,-100,4,2,1,5,0,0
93892,-100,4,2,1,65,0,0
94226,-100,4,2,1,55,0,0
94559,-100,4,2,1,45,0,0
94892,-100,4,2,1,35,0,0
95226,-100,4,2,1,25,0,0
95392,-100,4,2,1,65,0,0
105392,-100,4,2,1,50,0,0
105726,-58.8235294117647,4,2,1,65,0,0
105976,-58.8235294117647,4,2,1,5,0,0
106059,-71.4285714285714,4,2,1,65,0,1
106309,-71.4285714285714,4,2,1,5,0,1
106392,-71.4285714285714,4,2,1,65,0,1
106642,-71.4285714285714,4,2,1,5,0,1
106726,-71.4285714285714,4,2,1,65,0,1
106976,-71.4285714285714,4,2,1,5,0,1
107059,-71.4285714285714,4,2,1,65,0,1
115142,-71.4285714285714,4,2,1,5,0,1
115226,-71.4285714285714,4,2,1,65,0,1
115476,-71.4285714285714,4,2,1,5,0,1
115559,-71.4285714285714,4,2,1,65,0,1
115809,-71.4285714285714,4,2,1,5,0,1
115892,-71.4285714285714,4,2,1,65,0,1
116142,-71.4285714285714,4,2,1,5,0,1
116226,-71.4285714285714,4,2,1,65,0,1
116309,-71.4285714285714,4,2,1,5,0,1
116392,-50,4,2,1,65,0,1
116476,-71.4285714285714,4,2,1,5,0,1
116559,-38.4615384615385,4,2,1,65,0,1
116642,-71.4285714285714,4,2,1,5,0,1
116726,-71.4285714285714,4,2,1,65,0,1
116976,-71.4285714285714,4,2,1,5,0,1
117059,-71.4285714285714,4,2,1,65,0,1
117309,-71.4285714285714,4,2,1,5,0,1
117392,-71.4285714285714,4,2,1,65,0,1
117642,-71.4285714285714,4,2,1,5,0,1
117726,-71.4285714285714,4,2,1,65,0,1
118642,-71.4285714285714,4,2,1,5,0,1
118726,-71.4285714285714,4,2,1,65,0,1
121976,-71.4285714285714,4,2,1,5,0,1
122059,-71.4285714285714,4,2,1,65,0,1
126309,-71.4285714285714,4,2,1,5,0,1
126392,-45.4545454545455,4,2,1,65,0,1
126476,-71.4285714285714,4,2,1,5,0,1
126559,-66.6666666666667,4,2,1,65,0,1
126809,-71.4285714285714,4,2,1,5,0,1
126892,-66.6666666666667,4,2,1,65,0,1
127392,-100,4,2,1,65,0,0
127642,-100,4,2,1,5,0,0
127726,-100,4,2,1,65,0,0
130309,-100,4,2,1,5,0,0
130392,-100,4,2,1,65,0,0
135309,-100,4,2,1,5,0,0
135392,-100,4,2,1,65,0,0
137976,-100,4,2,1,5,0,0
138059,-100,4,2,1,65,0,0
138159,-100,4,2,1,5,0,0
138392,-100,4,2,1,65,0,0
147476,-100,4,2,1,5,0,0
147559,-100,4,2,1,65,0,0
148726,-263.157894736842,4,2,1,65,0,0
151392,-270.27027027027,4,2,1,65,0,0
160726,-100,4,2,1,65,0,0
162059,-133.333333333333,4,2,1,65,0,0
163976,-133.333333333333,4,2,1,5,0,0
164059,-133.333333333333,4,2,1,65,0,0
171559,-100,4,2,1,65,0,0
173559,-100,4,2,1,30,0,0
173726,-100,4,2,1,65,0,0
174059,-100,4,2,1,30,0,0
174226,-100,4,2,1,65,0,0
174392,-100,4,2,1,30,0,0
174559,-100,4,2,1,65,0,0
177892,-66.6666666666667,4,2,1,65,0,0
182059,-80,4,2,1,65,0,0
182309,-66.6666666666667,4,2,1,45,0,0
182392,-66.6666666666667,4,2,1,65,0,0
182642,-66.6666666666667,4,2,1,45,0,0
182726,-66.6666666666667,4,2,1,65,0,0
184726,-66.6666666666667,4,2,1,65,0,0
185726,-133.333333333333,4,2,1,65,0,0
185976,-133.333333333333,4,2,1,5,0,0
186059,-100,4,2,1,65,0,0
188309,-100,4,2,1,5,0,0
188392,-100,4,2,1,65,0,0
188559,-100,4,2,1,5,0,0
188726,-100,4,2,1,65,0,0
192559,-83.3333333333333,4,2,1,65,0,0
192809,-71.4285714285714,4,2,1,5,0,0
192892,-71.4285714285714,4,2,1,65,0,0
193142,-71.4285714285714,4,2,1,5,0,0
193226,-71.4285714285714,4,2,1,65,0,0
193476,-71.4285714285714,4,2,1,5,0,0
193559,-71.4285714285714,4,2,1,65,0,0
193642,-71.4285714285714,4,2,1,5,0,0
193726,-50,4,2,1,65,0,0
193809,-71.4285714285714,4,2,1,5,0,0
193892,-38.4615384615385,4,2,1,65,0,0
193976,-45.4545454545455,4,2,1,5,0,0
194059,-250,4,2,1,65,0,0
194309,-500,4,2,1,5,0,0
194392,-71.4285714285714,4,2,1,65,0,1
194642,-71.4285714285714,4,2,1,5,0,1
194726,-71.4285714285714,4,2,1,65,0,1
204642,-71.4285714285714,4,2,1,5,0,1
204726,-71.4285714285714,4,2,1,65,0,1
207142,-71.4285714285714,4,2,1,5,0,1
207226,-71.4285714285714,4,2,1,65,0,1
212976,-71.4285714285714,4,2,1,5,0,1
213059,-71.4285714285714,4,2,1,65,0,1
214059,-71.4285714285714,4,2,1,50,0,1
214726,-71.4285714285714,4,2,1,65,0,1
214976,-71.4285714285714,4,2,1,5,0,1
215059,-40,4,2,1,65,0,0
215142,-25,4,2,1,5,0,0
215726,-200,4,2,1,65,0,0
215976,-400,4,2,1,5,0,0
216059,-71.4285714285714,4,2,1,65,0,0
218976,-71.4285714285714,4,2,1,5,0,0
219059,-71.4285714285714,4,2,1,65,0,0
220976,-71.4285714285714,4,2,1,5,0,0
221059,-71.4285714285714,4,2,1,65,0,0
221142,-100,4,2,1,5,0,0
221226,-100,4,2,1,65,0,0
225392,-76.9230769230769,4,2,1,65,0,0
225642,-76.9230769230769,4,2,1,5,0,0
225726,-62.5,4,2,1,65,0,0
225976,-62.5,4,2,1,5,0,0
226059,-52.6315789473684,4,2,1,65,0,0
226309,-52.6315789473684,4,2,1,5,0,0
226392,-45.4545454545455,4,2,1,65,0,0
226642,-45.4545454545455,4,2,1,5,0,0
226726,-500,4,2,1,65,0,0

[HitObjects]
456,163,1727,6,0,L|448:226,1,54,0|0,0:0|0:0,0:0:0:0:
406,311,2060,2,0,B|242:329|326:245|139:268,1,251.999992309571,4|0,0:0|0:0,0:0:0:0:
119,24,3059,5,8,0:0:0:0:
119,24,3226,2,0,B|101:188|185:104|162:291,1,251.999992309571,4|0,0:0|0:0,0:0:0:0:
285,154,4059,5,8,0:0:0:0:
416,208,4226,2,0,L|472:213,2,31.4999990386963,2|2|2,0:0|0:0|0:0,0:0:0:0:
285,262,4560,1,0,0:0:0:0:
204,151,4726,6,0,P|213:114|347:99,1,188.999994232178,4|0,0:0|0:0,0:0:0:0:
415,357,5559,2,0,L|415:291,1,62.9999980773926,0|0,0:0|0:0,0:0:0:0:
400,44,5893,6,0,P|420:82|384:165,1,125.999996154785,4|0,0:0|0:0,0:0:0:0:
334,227,6393,2,0,P|316:264|330:303,1,62.9999980773926,8|0,0:0|0:0,0:0:0:0:
208,350,6726,6,0,L|264:366,2,41.9999987182618,8|8|8,3:0|3:0|3:0,0:0:0:0:
87,276,7059,2,0,L|31:292,2,41.9999987182618,8|8|8,3:0|3:0|3:0,0:0:0:0:
225,202,7393,2,0,P|263:159|204:80,1,135,8|0,0:0|0:0,0:0:0:0:
214,72,7726,5,8,0:0:0:0:
38,43,7893,1,8,0:0:0:0:
134,184,8059,5,8,0:0:0:0:
120,2,8226,1,8,0:0:0:0:
9,176,8393,5,8,0:0:0:0:
139,88,8559,1,8,0:0:0:0:
121,284,8726,6,0,L|113:328,3,45,8|8|8|8,0:0|0:0|0:0|0:0,0:0:0:0:
228,290,9059,2,0,L|235:245,1,45,8|8,0:0|0:0,0:0:0:0:
337,309,9226,2,0,L|329:353,3,45,8|8|8|0,0:0|0:0|0:0|0:0,0:0:0:0:
345,227,9559,2,0,L|337:182,1,45,8|8,0:0|0:0,0:0:0:0:
309,10,9726,5,12,0:0:0:0:
146,143,9893,1,12,0:0:0:0:
404,188,12726,5,0,0:0:0:0:
268,92,12893,1,0,0:0:0:0:
258,85,13059,1,0,0:0:0:0:
210,266,13226,5,0,0:0:0:0:
181,101,13393,1,0,0:0:0:0:
179,89,13559,1,0,0:0:0:0:
67,202,13726,5,0,0:0:0:0:
210,266,13893,1,0,0:0:0:0:
80,341,14059,2,0,L|24:358,3,45,4|0|0|0,0:0|0:0|0:0|0:0,0:0:0:0:
173,344,14393,2,0,L|229:361,3,45,4|0|0|0,0:0|0:0|0:0|0:0,0:0:0:0:
320,310,14726,6,0,L|378:293,1,45,4|0,0:0|0:0,0:0:0:0:
512,248,14893,2,0,L|454:231,1,45,8|0,0:0|0:0,0:0:0:0:
295,159,15059,2,0,P|244:105|350:85,1,202.500007724762,12|0,0:0|0:0,0:0:0:0:
371,76,15393,6,0,P|380:128|375:176,1,90,4|0,0:0|0:0,0:0:0:0:
171,229,15726,1,8,0:0:0:0:
315,292,15893,2,0,P|299:342|273:382,1,90,0|0,0:0|0:0,0:0:0:0:
124,308,16226,1,0,0:0:0:0:
270,198,16393,6,0,P|291:139|280:44,1,135,8|0,0:0|0:0,0:0:0:0:
276,37,16726,2,0,B|203:30|203:30|168:56|168:56|105:45,2,180,0|8|0,0:0|0:0|0:0,0:0:0:0:
435,189,17726,5,8,0:0:0:0:
442,221,17809,1,0,0:0:0:0:
435,254,17892,1,0,0:0:0:0:
414,280,17975,1,0,0:0:0:0:
383,294,18059,2,0,B|311:303|329:267|220:267,1,135,0|0,0:0|0:0,0:0:0:0:
205,272,18392,5,8,0:0:0:0:
349,212,18559,1,0,0:0:0:0:
224,362,18726,2,0,L|66:367,1,135,0|0,0:0|0:0,0:0:0:0:
46,366,19059,6,0,P|39:301|54:251,1,90,8|0,0:0|0:0,0:0:0:0:
114,20,19392,2,0,P|149:92|75:164,1,180,0|8,0:0|0:0,0:0:0:0:
197,233,19892,2,0,P|257:243|302:215,1,90,0|0,0:0|0:0,0:0:0:0:
70,86,20226,2,0,L|6:86,1,45,4|0,0:0|0:0,0:0:0:0:
237,166,20392,2,0,L|237:102,1,45,12|0,0:0|0:0,0:0:0:0:
322,5,20559,5,2,0:0:0:0:
359,28,20642,1,2,0:0:0:0:
379,68,20726,2,0,P|395:141|365:266,1,180,2|8,0:0|0:0,0:0:0:0:
121,285,21226,2,0,P|184:313|316:293,1,180,0|0,0:0|0:0,0:0:0:0:
175,223,21726,2,0,P|112:195|-20:215,1,180,8|0,0:0|0:0,0:0:0:0:
81,352,22226,5,0,0:0:0:0:
254,231,22392,1,8,0:0:0:0:
91,112,22559,1,0,0:0:0:0:
140,222,22726,5,0,0:0:0:0:
191,59,22892,1,8,0:0:0:0:
208,147,23059,1,8,0:0:0:0:
295,83,23226,1,0,0:0:0:0:
336,237,23392,5,12,0:0:0:0:
377,69,23559,1,0,0:0:0:0:
377,69,23726,1,0,0:0:0:0:
428,334,23892,5,12,0:0:0:0:
383,168,24059,1,0,0:0:0:0:
383,168,24226,1,0,0:0:0:0:
251,156,24392,6,0,L|202:145,2,45,12|0|0,0:0|0:0|0:0,0:0:0:0:
383,265,24726,5,0,0:0:0:0:
154,209,24892,1,12,0:0:0:0:
300,378,25059,1,0,0:0:0:0:
383,168,25226,2,0,P|372:113|343:61,1,90,8|0,0:0|0:0,0:0:0:0:
159,15,25559,6,0,L|163:80,1,45,8|8,0:0|0:0,0:0:0:0:
154,209,25726,2,0,L|164:143,3,45,8|8|8|8,0:0|0:0|0:0|0:0,0:0:0:0:
260,78,26059,6,0,P|301:35|357:33,1,80.9999975280763,2|0,0:0|0:0,0:0:0:0:
453,93,26392,2,0,B|488:169|429:187|466:272,1,161.999995056153,2|2,0:0|0:0,0:0:0:0:
253,359,27059,5,2,0:0:0:0:
137,265,27226,1,0,0:0:0:0:
259,273,27392,2,0,P|323:271|389:230,2,121.499996292114,2|0|0,0:0|0:0|0:0,0:0:0:0:
166,151,28059,6,0,L|157:65,1,80.9999975280763,2|0,0:0|0:0,0:0:0:0:
26,51,28392,1,2,0:0:0:0:
252,62,28559,1,8,0:0:0:0:
292,64,28642,1,8,0:0:0:0:
332,66,28726,2,0,L|439:72,2,80.9999975280763,10|0|2,0:0|0:0|0:0,0:0:0:0:
356,295,29226,5,0,0:0:0:0:
317,148,29392,1,2,0:0:0:0:
199,244,29559,1,0,0:0:0:0:
399,201,29726,5,2,0:0:0:0:
254,324,29892,1,4,0:0:0:0:
218,149,30059,2,0,P|239:86|280:66,1,80.9999975280763,8|0,0:0|0:0,0:0:0:0:
118,184,30392,2,0,P|112:223|87:254,1,80.9999975280763,10|0,0:0|0:0,0:0:0:0:
128,361,30726,6,0,L|189:347,1,40.4999987640381,8|8,0:0|0:0,0:0:0:0:
299,326,30892,1,8,0:0:0:0:
337,313,30975,1,8,0:0:0:0:
377,313,31058,1,8,0:0:0:0:
415,326,31141,1,8,0:0:0:0:
455,346,31226,2,0,L|498:371,1,40.4999987640381,8|8,0:0|0:0,0:0:0:0:
460,245,31392,6,0,P|448:193|451:87,1,121.499996292114,12|0,0:0|0:0,0:0:0:0:
463,92,31726,1,10,0:0:0:0:
349,164,31892,2,0,P|283:182|195:112,1,161.999995056153,4|0,0:0|0:0,0:0:0:0:
289,95,32392,5,0,0:0:0:0:
256,259,32559,1,0,0:0:0:0:
119,143,32726,6,0,P|124:90|143:50,1,80.9999975280763,14|0,0:0|0:0,0:0:0:0:
169,40,32976,2,0,L|226:37,2,40.4999987640381,2|0|0,0:0|0:0|0:0,0:0:0:0:
57,58,33226,6,0,P|33:117|22:216,1,135,12|0,0:0|0:0,0:0:0:0:
47,221,33559,1,2,0:0:0:0:
186,187,33726,2,0,P|238:172|292:184,1,80.9999975280763,10|0,0:0|0:0,0:0:0:0:
411,295,34059,6,0,L|396:178,1,80.9999975280763,10|0,0:0|0:0,0:0:0:0:
502,225,34392,2,0,L|513:109,1,80.9999975280763,10|8,0:0|0:0,0:0:0:0:
511,131,34642,1,8,0:0:0:0:
512,119,34726,1,8,0:0:0:0:
445,21,34892,5,8,0:0:0:0:
342,112,35059,1,8,0:0:0:0:
250,9,35226,1,8,0:0:0:0:
131,112,35392,6,0,P|96:189|199:241,1,175.499991966248,10|0,0:0|0:0,0:0:0:0:
175,175,35726,2,0,P|242:158|345:244,1,188.999994232178,10|0,0:0|0:0,0:0:0:0:
246,247,36059,2,0,P|205:318|79:297,1,202.500007724762,10|0,0:0|0:0,0:0:0:0:
59,302,36392,6,0,L|86:54,1,236.250002253056,10|0,0:0|0:0,0:0:0:0:
87,35,36726,6,0,P|152:30|217:57,1,135.000005149842,6|0,0:0|0:0,0:0:0:0:
299,170,37226,1,2,0:0:0:0:
299,170,37392,2,0,L|280:317,1,135.000005149842,10|2,0:0|0:0,0:0:0:0:
191,383,37892,6,0,P|181:326|188:293,1,67.5000025749208,2|0,0:0|0:0,0:0:0:0:
214,225,38226,1,8,0:0:0:0:
403,202,38559,5,2,0:0:0:0:
475,275,38726,1,8,0:0:0:0:
506,171,38892,2,0,P|487:119|446:78,1,101.250003862381,2|0,0:0|0:0,0:0:0:0:
422,79,39226,6,0,P|340:94|283:73,1,135.000005149842,6|2,0:0|0:0,0:0:0:0:
359,15,39892,5,2,0:0:0:0:
362,158,40059,2,0,P|363:220|341:295,1,135.000005149842,10|2,0:0|0:0,0:0:0:0:
257,358,40559,2,0,P|195:359|120:337,1,135.000005149842,2|8,0:0|0:0,0:0:0:0:
68,158,41226,6,0,L|58:102,2,45,8|8|10,0:0|0:0|0:0,0:0:0:0:
159,248,41559,1,10,0:0:0:0:
206,92,41726,1,10,0:0:0:0:
284,202,41892,2,0,P|334:229|429:144,1,180,6|0,0:0|0:0,0:0:0:0:
443,33,42392,5,10,0:0:0:0:
344,141,42559,1,0,0:0:0:0:
470,258,42726,1,10,0:0:0:0:
470,258,43059,5,10,0:0:0:0:
254,295,43226,1,0,0:0:0:0:
344,141,43392,5,10,0:0:0:0:
183,62,43559,1,0,0:0:0:0:
157,243,43726,1,10,0:0:0:0:
157,243,44059,6,0,L|142:129,1,90,10|0,0:0|0:0,0:0:0:0:
258,8,44392,2,0,L|269:97,1,90,10|0,0:0|0:0,0:0:0:0:
328,287,44726,6,0,P|300:233|292:184,2,90,10|2|2,0:0|0:0|0:0,0:0:0:0:
381,380,45226,2,0,P|409:326|417:277,2,90,10|2|2,0:0|0:0|0:0,0:0:0:0:
209,354,45726,5,10,0:0:0:0:
390,205,45892,1,10,0:0:0:0:
60,140,46726,6,0,P|93:130|106:130,1,40.4999987640381,0|0,0:0|0:0,0:0:0:0:
134,146,47059,6,0,P|234:169|351:121,1,202.500007724762,0|0,0:0|0:0,0:0:0:0:
375,125,47392,6,0,P|396:199|366:325,1,188.999994232178,12|0,0:0|0:0,0:0:0:0:
349,340,47726,2,0,P|275:319|149:349,1,188.999994232178,8|0,0:0|0:0,0:0:0:0:
133,328,48059,2,0,P|154:254|124:128,1,188.999994232178,0|0,0:0|0:0,0:0:0:0:
114,119,48392,5,8,0:0:0:0:
249,175,48559,1,0,0:0:0:0:
368,115,48726,2,0,P|433:98|503:107,1,125.999996154785,0|0,0:0|0:0,0:0:0:0:
499,128,48976,1,0,0:0:0:0:
504,166,49059,2,0,P|496:239|485:277,1,62.9999980773926,8|0,0:0|0:0,0:0:0:0:
408,331,49226,5,0,0:0:0:0:
374,223,49392,2,0,P|311:181|252:172,2,125.999996154785,0|4|12,0:0|0:0|0:0,0:0:0:0:
36,294,50059,6,0,P|104:312|180:307,1,125.999996154785,0|0,0:0|0:0,0:0:0:0:
222,189,50392,1,8,0:0:0:0:
159,310,50559,1,0,0:0:0:0:
319,366,50726,2,0,P|386:346|448:234,1,188.999994232178,0|0,0:0|0:0,0:0:0:0:
476,222,51059,6,0,P|464:158|459:85,1,125.999996154785,8|0,0:0|0:0,0:0:0:0:
345,11,51392,1,0,0:0:0:0:
368,166,51559,2,0,P|369:243|322:287,1,125.999996154785,0|8,0:0|0:0,0:0:0:0:
127,250,51892,5,0,0:0:0:0:
127,250,51976,1,0,0:0:0:0:
127,250,52059,2,0,P|196:231|260:245,1,125.999996154785,0|0,0:0|0:0,0:0:0:0:
121,329,52392,2,0,P|61:347|0:338,1,125.999996154785,12|0,0:0|0:0,0:0:0:0:
48,85,52726,6,0,P|103:38|191:163,1,251.999992309571,0|8,0:0|0:0,0:0:0:0:
56,189,53226,1,0,0:0:0:0:
247,223,53392,6,0,P|294:278|169:366,1,251.999992309571,0|8,0:0|0:0,0:0:0:0:
143,231,53892,1,0,0:0:0:0:
347,93,54059,6,0,P|292:46|204:171,1,251.999992309571,0|8,0:0|0:0,0:0:0:0:
339,197,54559,1,0,0:0:0:0:
261,333,54726,6,0,P|316:380|404:255,1,251.999992309571,0|8,0:0|0:0,0:0:0:0:
269,229,55226,1,0,0:0:0:0:
369,83,55392,6,0,P|429:47|499:26,1,125.999996154785,8|0,0:0|0:0,0:0:0:0:
154,118,55726,2,0,P|222:131|295:127,1,125.999996154785,8|0,0:0|0:0,0:0:0:0:
56,25,56059,2,0,P|54:94|71:166,1,125.999996154785,8|8,0:0|0:0,0:0:0:0:
82,177,56309,1,8,0:0:0:0:
97,199,56392,1,8,0:0:0:0:
190,320,56559,6,0,P|251:294|272:121,2,251.999992309571,12|12|12,0:0|0:0|0:0,0:0:0:0:
391,293,57559,5,8,0:0:0:0:
199,212,57726,1,8,0:0:0:0:
359,82,57892,1,8,0:0:0:0:
160,20,58059,2,0,P|96:24|34:135,1,188.999994232178,8|0,0:0|0:0,0:0:0:0:
62,152,58392,2,0,B|67:237|67:237|43:351,1,188.999994232178,12|0,0:0|0:0,0:0:0:0:
72,364,58726,2,0,P|162:382|312:348,1,242.999992584229,0|0,0:0|0:0,0:0:0:0:
327,321,59059,5,8,0:0:0:0:
247,168,59226,1,0,0:0:0:0:
315,89,59392,2,0,P|337:174|274:263,2,188.999994232178,12|12|12,0:0|0:0|0:0,0:0:0:0:
170,54,60059,6,0,P|100:79|47:135,1,125.999996154785,12|8,0:0|0:0,0:0:0:0:
42,151,60309,1,8,0:0:0:0:
39,190,60392,1,8,0:0:0:0:
116,346,60559,5,8,0:0:0:0:
157,332,60642,1,8,0:0:0:0:
183,294,60726,2,0,P|188:231|217:176,1,125.999996154785,12|0,0:0|0:0,0:0:0:0:
289,334,61059,5,8,0:0:0:0:
379,232,61226,1,0,0:0:0:0:
322,121,61392,2,0,P|261:73|138:79,1,188.999994232178,0|0,0:0|0:0,0:0:0:0:
133,94,61726,2,0,L|117:240,1,125.999996154785,8|0,0:0|0:0,0:0:0:0:
65,359,62059,6,0,L|214:338,1,125.999996154785,0|0,0:0|0:0,0:0:0:0:
429,290,62392,2,0,L|280:269,1,125.999996154785,8|0,0:0|0:0,0:0:0:0:
0,204,62726,6,0,L|185:178,1,125.999996154785,4|0,0:0|0:0,0:0:0:0:
452,118,63059,2,0,L|267:92,1,125.999996154785,8|8,0:0|0:0,0:0:0:0:
288,94,63309,1,8,0:0:0:0:
288,94,63392,2,0,P|247:160|308:317,1,251.999992309571,12|0,0:0|0:0,0:0:0:0:
373,264,63892,6,0,P|377:340|211:328,1,251.999992309571,12|0,0:0|0:0,0:0:0:0:
150,178,64392,2,0,P|156:269|148:317,1,125.999996154785,8|0,0:0|0:0,0:0:0:0:
64,158,64726,2,0,P|102:103|238:184,1,251.999992309571,12|0,0:0|0:0,0:0:0:0:
278,300,65226,2,0,P|359:382|452:313,1,251.999992309571,12|0,0:0|0:0,0:0:0:0:
500,153,65726,5,8,0:0:0:0:
319,50,65892,1,0,0:0:0:0:
144,241,66059,6,0,P|242:229|326:235,1,125.999996154785,8|0,0:0|0:0,0:0:0:0:
483,278,66392,2,0,P|385:290|301:284,1,125.999996154785,8|0,0:0|0:0,0:0:0:0:
18,349,66726,2,0,P|116:361|200:355,1,125.999996154785,8|8,0:0|0:0,0:0:0:0:
171,366,66976,2,0,L|236:355,1,62.9999980773926,8|8,0:0|0:0,0:0:0:0:
483,278,67226,6,0,P|486:164|407:42,1,251.999992309571,4|8,0:0|0:0,0:0:0:0:
382,32,67642,1,8,0:0:0:0:
352,23,67726,1,8,0:0:0:0:
292,184,67892,5,8,0:0:0:0:
268,18,68059,1,8,0:0:0:0:
106,102,68226,1,8,0:0:0:0:
224,238,68392,2,0,P|201:169|297:100,1,188.999994232178,4|0,0:0|0:0,0:0:0:0:
325,100,68726,5,8,0:0:0:0:
424,203,68892,2,0,P|432:246|434:279,2,45,8|8|8,0:0|0:0|0:0,0:0:0:0:
310,310,69226,1,8,0:0:0:0:
313,199,69392,5,8,0:0:0:0:
179,228,69559,2,0,L|136:212,2,45,8|8|8,0:0|0:0|0:0,0:0:0:0:
310,310,69892,1,8,0:0:0:0:
450,250,70059,6,0,L|464:197,3,45,8|8|8|8,3:0|3:0|3:0|3:0,0:0:0:0:
377,140,70392,2,0,L|363:87,3,45,8|8|8|8,3:0|3:0|3:0|3:0,0:0:0:0:
489,79,70726,2,0,L|503:26,3,45,8|8|8|8,3:0|3:0|3:0|3:0,0:0:0:0:
468,9,71059,2,0,P|387:12|311:15,1,135,4|0,0:0|0:0,0:0:0:0:
290,21,71392,1,8,0:0:0:0:
317,177,71726,5,8,0:0:0:0:
290,21,71892,1,8,0:0:0:0:
214,184,72059,5,8,0:0:0:0:
187,28,72225,1,8,0:0:0:0:
111,193,72392,5,8,0:0:0:0:
84,37,72558,1,8,0:0:0:0:
22,174,72726,5,8,0:0:0:0:
27,218,72809,1,8,0:0:0:0:
52,254,72892,1,8,0:0:0:0:
92,275,72975,1,8,0:0:0:0:
136,274,73059,2,0,P|167:265|195:248,3,45,8|8|8|8,0:0|0:0|0:0|0:0,0:0:0:0:
218,243,73392,5,8,0:0:0:0:
445,351,73726,2,0,P|459:250|417:141,1,202.500007724762,8|0,0:0|0:0,0:0:0:0:
400,129,74059,6,0,P|320:107|273:106,2,125.999996154785,4|0|8,0:0|0:0|0:0,0:0:0:0:
153,158,74559,6,0,P|233:180|280:181,2,125.999996154785,0|0|0,0:0|0:0|0:0,0:0:0:0:
251,380,75059,6,0,P|273:300|274:253,2,125.999996154785,8|0|0,0:0|0:0|0:0,0:0:0:0:
59,348,75559,6,0,L|131:340,1,62.9999980773926,0|0,0:0|0:0,0:0:0:0:
375,328,75726,1,8,0:0:0:0:
275,181,75892,1,0,0:0:0:0:
373,62,76059,6,0,P|430:32|509:27,2,125.999996154785,0|0|8,0:0|0:0|0:0,0:0:0:0:
275,181,76559,1,0,0:0:0:0:
116,123,76726,6,0,P|131:75|182:8,2,125.999996154785,0|0|8,0:0|0:0|0:0,0:0:0:0:
180,232,77226,6,0,P|165:280|114:347,2,125.999996154785,0|0|0,0:0|0:0|0:0,0:0:0:0:
332,152,77726,6,0,P|347:104|398:37,2,125.999996154785,8|0|0,0:0|0:0|0:0,0:0:0:0:
242,322,78226,2,0,P|143:344|101:335,1,125.999996154785,0|8,0:0|0:0,0:0:0:0:
324,251,78559,2,0,P|423:229|465:238,1,125.999996154785,0|0,0:0|0:0,0:0:0:0:
391,43,78892,6,0,L|364:108,1,62.9999980773926,8|0,0:0|0:0,0:0:0:0:
250,147,79059,2,0,L|247:209,1,62.9999980773926,4|0,0:0|0:0,0:0:0:0:
224,357,79226,5,8,0:0:0:0:
201,335,79309,1,8,0:0:0:0:
183,309,79392,2,0,P|148:248|216:45,1,288,12|8,0:0|0:0,0:0:0:0:
357,167,79892,6,0,B|388:195|427:203|427:203|458:176|477:138|474:87|453:40|434:15,1,251.999992309571,0|0,0:0|0:0,0:0:0:0:
306,89,80392,6,0,P|266:149|383:258,1,251.999992309571,8|0,0:0|0:0,0:0:0:0:
386,92,80892,5,0,0:0:0:0:
172,148,81059,1,8,0:0:0:0:
357,167,81226,1,0,0:0:0:0:
219,18,81392,5,0,0:0:0:0:
205,268,81559,1,0,0:0:0:0:
279,112,81726,1,8,0:0:0:0:
64,102,81892,1,0,0:0:0:0:
205,268,82059,6,0,P|275:261|253:100,1,251.999992309571,4|8,0:0|0:0,0:0:0:0:
95,257,82559,2,0,P|90:325|108:383,1,125.999996154785,8|0,0:0|0:0,0:0:0:0:
231,187,82892,2,0,P|166:164|105:166,1,125.999996154785,8|0,0:0|0:0,0:0:0:0:
317,322,83226,6,0,P|383:335|397:213,1,188.999994232178,4|0,0:0|0:0,0:0:0:0:
410,207,83559,1,8,0:0:0:0:
293,83,83726,1,8,0:0:0:0:
205,268,83892,1,8,0:0:0:0:
381,40,84226,6,0,L|375:114,1,62.9999980773926,2|0,0:0|0:0,0:0:0:0:
350,321,84392,2,0,P|328:281|321:209,1,101.250003862381,2|0,0:0|0:0,0:0:0:0:
328,184,84726,6,0,P|264:156|213:163,1,90,4|0,0:0|0:0,0:0:0:0:
133,361,85059,2,0,P|158:298|143:175,1,180,8|0,0:0|0:0,0:0:0:0:
58,25,85726,5,8,0:0:0:0:
37,182,85892,1,0,0:0:0:0:
143,96,86059,2,0,P|193:81|305:104,2,135,8|0|8,0:0|0:0|0:0,0:0:0:0:
306,324,86892,5,0,0:0:0:0:
306,324,87059,2,0,P|283:273|236:240,1,90,8|0,0:0|0:0,0:0:0:0:
84,334,87392,2,0,P|135:311|168:264,1,90,0|0,0:0|0:0,0:0:0:0:
306,130,87726,5,12,0:0:0:0:
306,130,87892,2,0,P|329:185|330:228,1,90,0|8,0:0|0:0,0:0:0:0:
225,347,88226,1,0,0:0:0:0:
372,299,88392,1,8,0:0:0:0:
405,293,88475,1,8,0:0:0:0:
438,297,88558,1,8,0:0:0:0:
469,311,88641,1,8,0:0:0:0:
495,332,88725,1,8,0:0:0:0:
495,332,89059,5,8,0:0:0:0:
473,215,89226,1,8,0:0:0:0:
389,370,89392,1,8,0:0:0:0:
341,166,89559,1,8,0:0:0:0:
235,380,89726,2,0,P|178:379|165:285,1,135,4|0,0:0|0:0,0:0:0:0:
161,284,90059,2,0,P|149:234|91:153,1,135,0|0,0:0|0:0,0:0:0:0:
74,145,90392,6,0,P|118:93|230:100,1,180,0|0,0:0|0:0,0:0:0:0:
229,212,90892,1,0,0:0:0:0:
273,309,91059,2,0,P|315:344|365:346,1,90,0|0,0:0|0:0,0:0:0:0:
478,351,91392,5,8,0:0:0:0:
477,317,91475,1,8,0:0:0:0:
473,283,91558,1,8,0:0:0:0:
466,250,91641,1,8,0:0:0:0:
454,219,91726,6,0,L|430:161,3,45,8|8|8|8,3:0|3:0|3:0|3:0,0:0:0:0:
353,142,92059,2,0,L|377:83,3,45,8|8|8|0,3:0|3:0|3:0|3:0,0:0:0:0:
443,71,92392,6,0,P|393:28|307:56,1,135,0|0,0:0|0:0,0:0:0:0:
285,73,92726,6,0,L|226:60,5,45,12|8|8|8|8|8,3:0|3:0|3:0|3:0|3:0|3:0,0:0:0:0:
166,124,93226,2,0,L|122:133,5,45,12|8|8|8|8|8,3:0|3:0|3:0|3:0|3:0|3:0,0:0:0:0:
18,80,93726,6,0,L|61:93,1,45,12|8,3:0|3:0,0:0:0:0:
262,142,93892,1,8,3:0:0:0:
147,263,94059,5,8,0:0:0:0:
288,233,94226,1,8,0:0:0:0:
239,327,94392,1,8,0:0:0:0:
192,191,94559,1,8,0:0:0:0:
123,369,94726,5,8,0:0:0:0:
149,259,94892,1,0,0:0:0:0:
0,289,95059,1,8,0:0:0:0:
78,298,95226,1,0,0:0:0:0:
59,223,95392,2,0,P|45:167|146:98,1,180,4|8,0:0|0:0,0:0:0:0:
413,112,96059,5,0,0:0:0:0:
321,129,96226,1,0,0:0:0:0:
280,207,96392,2,0,P|289:264|324:302,1,90,8|0,0:0|0:0,0:0:0:0:
483,299,96726,2,0,P|421:284|390:289,1,90,0|0,0:0|0:0,0:0:0:0:
227,348,97059,5,8,0:0:0:0:
227,348,97226,2,0,P|167:295|146:266,1,90,4|0,0:0|0:0,0:0:0:0:
89,103,97559,5,0,0:0:0:0:
44,257,97726,1,8,0:0:0:0:
169,170,97892,2,0,P|228:145|350:205,1,180,4|0,0:0|0:0,0:0:0:0:
361,257,98392,2,0,P|410:210|371:109,1,180,8|0,0:0|0:0,0:0:0:0:
308,32,98892,1,0,0:0:0:0:
205,42,99059,2,0,P|151:57|22:50,1,180,8|0,0:0|0:0,0:0:0:0:
3,254,99559,5,0,0:0:0:0:
108,172,99726,1,8,0:0:0:0:
191,267,99892,2,0,P|241:294|295:300,1,90,0|0,0:0|0:0,0:0:0:0:
420,263,100226,2,0,P|447:213|453:159,1,90,0|8,0:0|0:0,0:0:0:0:
370,8,100559,6,0,P|321:61|348:179,1,180,4|0,0:0|0:0,0:0:0:0:
394,96,101059,2,0,P|323:82|236:166,1,180,12|0,0:0|0:0,0:0:0:0:
274,278,101559,5,0,0:0:0:0:
170,237,101726,1,8,0:0:0:0:
145,139,101892,2,0,P|160:62|174:20,1,90,4|0,0:0|0:0,0:0:0:0:
55,305,102226,5,0,0:0:0:0:
145,139,102392,2,0,P|130:62|116:20,1,90,12|0,0:0|0:0,0:0:0:0:
43,179,102726,5,0,0:0:0:0:
126,48,102892,1,0,0:0:0:0:
242,166,103059,1,8,0:0:0:0:
358,48,103226,1,0,0:0:0:0:
404,237,103392,6,0,L|422:314,2,45,8|8|8,3:0|3:0|3:0,0:0:0:0:
242,166,103726,1,8,3:0:0:0:
80,237,103892,2,0,L|62:314,2,45,8|8|8,3:0|3:0|3:0,0:0:0:0:
242,84,104226,1,8,3:0:0:0:
310,277,104392,5,12,0:3:0:0:
101,107,104559,1,4,0:0:0:0:
275,8,104726,5,0,0:0:0:0:
313,30,104809,1,0,0:0:0:0:
334,69,104892,1,0,0:0:0:0:
331,113,104975,1,0,0:0:0:0:
305,149,105059,2,0,P|285:169|256:185,3,45,0|0|0|0,0:0|0:0|0:0|0:0,0:0:0:0:
235,188,105392,6,0,L|213:186,6,22.5,0|0|0|0|0|0|0,0:0|0:0|0:0|0:0|0:0|0:0|0:0,0:0:0:0:
272,227,105726,6,0,P|264:312|124:280,1,229.500004377365,4|0,0:0|0:0,0:0:0:0:
123,293,106059,6,0,P|136:231|108:83,1,188.999994232178,12|0,0:0|0:0,0:0:0:0:
137,75,106392,6,0,P|199:62|347:90,1,188.999994232178,8|0,0:0|0:0,0:0:0:0:
362,94,106726,6,0,P|348:187|367:280,1,188.999994232178,0|0,0:0|0:0,0:0:0:0:
385,319,107059,5,8,0:0:0:0:
442,187,107226,1,0,0:0:0:0:
249,202,107392,2,0,P|169:207|109:199,1,125.999996154785,0|0,0:0|0:0,0:0:0:0:
82,197,107642,1,0,0:0:0:0:
53,190,107726,1,8,0:0:0:0:
180,72,107892,5,0,0:0:0:0:
167,279,108059,2,0,P|147:341|105:385,1,125.999996154785,0|4,0:0|0:0,0:0:0:0:
285,259,108392,2,0,P|356:245|355:89,1,251.999992309571,12|0,0:0|0:0,0:0:0:0:
122,15,108892,6,0,P|98:73|124:130,1,125.999996154785,0|8,0:0|0:0,0:0:0:0:
310,167,109226,1,0,0:0:0:0:
164,208,109392,1,0,0:0:0:0:
216,105,109559,1,0,0:0:0:0:
288,312,109726,1,8,0:0:0:0:
444,208,109892,1,0,0:0:0:0:
378,16,110059,6,0,P|347:80|344:159,1,125.999996154785,0|0,0:0|0:0,0:0:0:0:
353,166,110309,1,8,0:0:0:0:
367,188,110392,1,8,0:0:0:0:
265,57,110559,5,8,0:0:0:0:
230,42,110642,1,8,0:0:0:0:
190,36,110726,2,0,P|120:32|51:50,1,125.999996154785,12|0,0:0|0:0,0:0:0:0:
190,241,111059,2,0,P|194:171|176:102,1,125.999996154785,12|0,0:0|0:0,0:0:0:0:
97,249,111392,6,0,P|139:314|280:218,1,251.999992309571,0|8,0:0|0:0,0:0:0:0:
181,116,111892,1,0,0:0:0:0:
284,168,112059,6,0,P|349:210|253:351,1,251.999992309571,0|8,0:0|0:0,0:0:0:0:
190,241,112559,1,0,0:0:0:0:
370,253,112726,6,0,P|328:188|187:284,1,251.999992309571,0|8,0:0|0:0,0:0:0:0:
297,347,113226,1,0,0:0:0:0:
428,190,113392,6,0,P|507:275|440:371,1,251.999992309571,0|8,0:0|0:0,0:0:0:0:
281,259,113892,1,0,0:0:0:0:
154,365,114059,5,8,0:0:0:0:
211,173,114226,1,0,0:0:0:0:
0,289,114392,5,8,0:0:0:0:
187,271,114559,1,0,0:0:0:0:
80,94,114726,5,8,0:0:0:0:
97,282,114892,1,0,0:0:0:0:
236,115,115059,6,0,L|206:186,1,62.9999980773926,8|8,0:0|0:0,0:0:0:0:
119,360,115226,2,0,P|180:276|73:205,2,251.999992309571,8|8|8,0:0|0:0|0:0,0:0:0:0:
267,111,116226,5,8,0:0:0:0:
403,244,116392,1,8,0:0:0:0:
244,308,116559,1,8,0:0:0:0:
361,95,116726,6,0,P|318:192|214:205,1,188.999994232178,8|0,0:0|0:0,0:0:0:0:
236,182,117059,2,0,P|170:168|51:242,1,188.999994232178,12|0,0:0|0:0,0:0:0:0:
161,258,117392,6,0,P|152:186|95:79,1,188.999994232178,0|0,0:0|0:0,0:0:0:0:
77,52,117726,5,8,0:0:0:0:
65,220,117892,1,0,0:0:0:0:
215,338,118059,2,0,P|291:314|374:221,2,188.999994232178,8|12|12,0:0|0:0|0:0,0:0:0:0:
135,249,118726,6,0,L|156:177,1,62.9999980773926,12|0,0:0|0:0,0:0:0:0:
256,16,118892,1,8,3:0:0:0:
241,55,118975,1,8,3:0:0:0:
236,96,119058,1,8,3:0:0:0:
239,138,119141,1,8,3:0:0:0:
241,180,119225,1,8,3:0:0:0:
233,221,119308,1,8,3:0:0:0:
214,259,119391,5,8,0:0:0:0:
70,139,119559,1,0,0:0:0:0:
122,332,119726,5,8,0:0:0:0:
153,155,119892,1,0,0:0:0:0:
306,276,120059,6,0,P|388:287|467:271,1,125.999996154785,8|0,0:0|0:0,0:0:0:0:
133,238,120392,2,0,P|51:227|-28:243,1,125.999996154785,8|0,0:0|0:0,0:0:0:0:
161,40,120726,5,8,0:0:0:0:
9,154,120893,1,0,0:0:0:0:
217,174,121059,5,8,0:0:0:0:
68,53,121226,1,0,0:0:0:0:
127,203,121392,5,8,3:0:0:0:
156,239,121475,1,8,3:0:0:0:
199,258,121558,1,8,3:0:0:0:
245,254,121641,1,8,3:0:0:0:
285,229,121726,2,0,P|313:171|238:86,1,188.999994232178,8|0,0:0|0:0,0:0:0:0:
211,75,122059,6,0,P|133:78|80:62,1,125.999996154785,12|0,0:0|0:0,0:0:0:0:
54,239,122392,1,0,0:0:0:0:
211,75,122559,2,0,P|280:44|405:164,1,251.999992309571,12|0,0:0|0:0,0:0:0:0:
481,193,123059,2,0,P|402:230|348:204,1,125.999996154785,0|0,0:0|0:0,0:0:0:0:
178,175,123392,5,12,0:0:0:0:
276,260,123559,2,0,P|263:332|231:383,1,125.999996154785,0|0,0:0|0:0,0:0:0:0:
257,146,123892,2,0,P|270:74|405:131,1,251.999992309571,12|0,0:0|0:0,0:0:0:0:
471,363,124392,6,0,P|472:281|426:230,1,125.999996154785,8|0,0:0|0:0,0:0:0:0:
325,216,124726,1,8,0:0:0:0:
278,225,124809,1,8,0:0:0:0:
239,250,124892,1,8,0:0:0:0:
196,267,124975,1,8,0:0:0:0:
149,267,125059,6,0,L|80:247,3,62.9999980773926,8|8|8|8,0:0|0:0|0:0|0:0,0:0:0:0:
156,170,125392,2,0,L|225:149,3,62.9999980773926,8|8|8|8,0:0|0:0|0:0|0:0,0:0:0:0:
134,74,125726,2,0,L|64:53,3,62.9999980773926,8|8|8|8,0:0|0:0|0:0|0:0,0:0:0:0:
3,131,126059,6,0,P|2:207|49:337,1,188.999994232178,8|0,0:0|0:0,0:0:0:0:
61,337,126392,6,0,L|206:327,1,99.0000030212403,8|0,0:0|0:0,0:0:0:0:
425,284,126559,6,0,P|338:271|245:341,1,202.500007724762,8|0,0:0|0:0,0:0:0:0:
264,372,126892,1,8,0:0:0:0:
282,212,127059,2,0,P|286:136|260:52,1,135.000005149842,4|0,0:0|0:0,0:0:0:0:
134,7,127392,6,0,P|85:74|93:133,1,135,12|0,0:0|0:0,0:0:0:0:
107,161,127726,2,0,P|126:226|65:321,1,180,8|0,0:0|0:0,0:0:0:0:
37,226,128226,1,0,0:0:0:0:
199,285,128392,1,8,0:0:0:0:
349,251,128559,2,0,P|380:204|322:85,1,180,4|0,0:0|0:0,0:0:0:0:
204,23,129059,1,8,0:0:0:0:
302,175,129226,2,0,L|106:186,1,180,4|0,0:0|0:0,0:0:0:0:
29,118,129726,6,0,P|98:87|172:97,1,135,8|0,0:0|0:0,0:0:0:0:
195,101,130059,2,0,L|352:94,1,135,8|0,0:0|0:0,0:0:0:0:
372,94,130392,6,0,P|415:136|386:261,1,180,12|0,0:0|0:0,0:0:0:0:
297,243,130892,1,0,0:0:0:0:
351,311,131059,1,8,0:0:0:0:
296,381,131226,2,0,L|177:371,2,90,4|0|0,0:0|0:0|0:0,0:0:0:0:
432,362,131726,5,8,0:0:0:0:
432,362,131892,2,0,P|439:295|421:258,1,90,4|0,0:0|0:0,0:0:0:0:
343,106,132226,1,0,0:0:0:0:
268,266,132392,2,0,P|194:260|158:234,1,90,8|8,0:0|0:0,0:0:0:0:
92,190,132642,5,8,0:0:0:0:
92,190,132726,2,0,P|104:128|138:84,1,90,4|0,0:0|0:0,0:0:0:0:
193,16,133059,1,8,0:0:0:0:
255,114,133226,1,0,0:0:0:0:
358,42,133392,1,0,0:0:0:0:
338,177,133559,1,0,0:0:0:0:
273,29,133726,1,8,0:0:0:0:
171,156,133892,6,0,P|179:221|277:263,1,180,4|0,0:0|0:0,0:0:0:0:
130,309,134392,1,8,0:0:0:0:
254,179,134559,2,0,P|315:140|424:197,1,180,4|0,0:0|0:0,0:0:0:0:
414,358,135059,6,0,B|338:332|374:309|294:278,1,135,8|0,0:0|0:0,0:0:0:0:
272,268,135392,6,0,P|205:253|164:261,1,90,4|0,0:0|0:0,0:0:0:0:
93,328,135726,1,8,0:0:0:0:
126,187,135892,2,0,P|131:136|125:87,1,90,0|0,0:0|0:0,0:0:0:0:
47,5,136226,5,0,0:0:0:0:
36,146,136392,1,8,0:0:0:0:
210,75,136559,2,0,P|264:74|308:99,1,90,4|0,0:0|0:0,0:0:0:0:
446,204,136892,5,0,0:0:0:0:
323,207,137059,1,12,0:0:0:0:
382,103,137226,1,0,0:0:0:0:
387,292,137392,5,0,0:0:0:0:
360,312,137475,1,8,3:0:0:0:
328,321,137558,1,8,3:0:0:0:
295,317,137642,1,8,3:0:0:0:
266,299,137726,2,0,P|226:276|131:274,1,135,4|0,0:0|0:0,0:0:0:0:
117,301,138059,6,0,B|104:312|86:314|86:314|65:294|53:262|57:192,1,135,8|0,0:0|0:0,0:0:0:0:
92,186,138392,2,0,P|117:139|45:45,1,180,8|8,0:0|0:0,0:0:0:0:
25,135,138892,5,8,0:0:0:0:
25,135,138976,1,8,0:0:0:0:
25,135,139059,1,8,0:0:0:0:
203,180,139226,6,0,P|266:186|325:174,1,90,4|0,0:0|0:0,0:0:0:0:
446,152,139559,1,0,0:0:0:0:
324,92,139726,1,8,0:0:0:0:
331,264,139892,2,0,P|335:314|327:364,1,90,4|0,0:0|0:0,0:0:0:0:
207,312,140226,5,0,0:0:0:0:
91,320,140392,2,0,P|23:331|-6:357,1,90,8|0,0:0|0:0,0:0:0:0:
84,207,140726,6,0,P|92:130|92:96,1,90,8|0,0:0|0:0,0:0:0:0:
194,207,141059,2,0,P|202:130|202:96,1,90,8|0,0:0|0:0,0:0:0:0:
262,27,141392,5,0,0:0:0:0:
342,140,141559,1,0,0:0:0:0:
306,267,141726,1,0,0:0:0:0:
188,336,141892,2,0,P|137:307|110:258,1,90,4|0,0:0|0:0,0:0:0:0:
57,50,142226,5,8,0:0:0:0:
167,126,142392,1,8,0:0:0:0:
88,191,142559,2,8,L|48:172,2,45,0|0|0,0:0|0:0|0:0,0:0:0:0:
240,228,142948,6,0,L|343:235,3,60,0|0|0|0,0:0|0:0|0:0|0:0,0:0:0:0:
148,126,143392,6,0,P|183:49|215:28,1,90,0|0,0:0|0:0,0:0:0:0:
321,85,143726,1,8,0:0:0:0:
373,182,143892,1,0,0:0:0:0:
430,80,144059,1,8,0:0:0:0:
252,135,144226,1,0,0:0:0:0:
439,253,144392,1,8,0:0:0:0:
321,85,144559,2,0,P|251:51|165:126,1,180,4|0,0:0|0:0,0:0:0:0:
201,266,145059,5,8,0:0:0:0:
91,137,145226,1,0,0:0:0:0:
66,300,145392,1,8,0:0:0:0:
120,220,145559,1,0,0:0:0:0:
5,155,145726,1,8,0:0:0:0:
203,129,145892,1,0,0:0:0:0:
138,333,146059,2,0,P|97:366|50:379,1,90,12|0,0:0|0:0,0:0:0:0:
265,260,146392,5,8,0:0:0:0:
380,334,146559,2,0,P|435:341|475:331,1,90,8|0,0:0|0:0,0:0:0:0:
380,219,146892,2,0,P|438:224|475:216,1,90,8|0,0:0|0:0,0:0:0:0:
329,37,147226,6,0,P|301:89|283:184,1,135,12|0,0:0|0:0,0:0:0:0:
292,206,147559,5,8,0:0:0:0:
181,119,147726,1,8,0:0:0:0:
152,271,147892,5,8,0:0:0:0:
208,197,148059,1,8,0:0:0:0:
78,131,148226,5,8,0:0:0:0:
68,332,148392,1,8,0:0:0:0:
172,98,148559,5,8,0:0:0:0:
372,76,148726,2,0,B|324:40|224:56|188:144|233:254|300:236|354:249|392:224|402:168|408:164|408:164|452:192|460:228|444:288,1,547.199993320313,4|0,0:0|0:0,0:0:0:0:
356,151,160726,6,0,L|441:119,2,60,8|8|8,3:0|3:0|3:0,0:0:0:0:
277,217,161059,2,0,L|192:185,2,60,8|8|8,3:0|3:0|3:0,0:0:0:0:
359,259,161392,6,0,L|361:336,2,60,8|8|8,3:0|3:0|3:0,0:0:0:0:
272,129,161726,2,0,L|270:52,2,60,8|8|8,3:0|3:0|3:0,0:0:0:0:
228,308,162059,6,0,P|148:312|124:260,1,135.000005149842,12|0,0:3|0:0,0:0:0:0:
156,16,162726,2,0,P|160:84|136:156,1,135.000005149842,8|0,0:0|0:0,0:0:0:0:
36,224,163226,1,0,0:0:0:0:
296,112,163559,5,8,0:0:0:0:
296,112,163726,2,0,P|352:108|392:148,1,101.250003862381,0|0,0:0|0:0,0:0:0:0:
404,168,164059,2,0,B|440:216|392:252|440:304,1,135.000005149842,8|0,0:0|0:0,0:0:0:0:
304,352,164726,5,0,0:0:0:0:
292,336,165059,1,0,0:0:0:0:
280,320,165392,2,0,P|248:280|144:272,1,135.000005149842,8|0,0:0|0:0,0:0:0:0:
76,248,165892,2,0,P|56:212|128:160,1,135.000005149842,0|8,0:0|0:0,0:0:0:0:
228,160,166392,5,0,0:0:0:0:
144,76,166559,1,0,0:0:0:0:
240,20,166726,2,0,P|284:24|324:48,1,67.5000025749208,8|0,0:0|0:0,0:0:0:0:
390,97,167059,5,0,0:0:0:0:
456,16,167226,2,0,P|412:20|392:100,1,135.000005149842,8|8,0:0|0:0,0:0:0:0:
300,312,168059,6,0,P|228:268|244:204,1,135.000005149842,8|8,0:0|0:0,0:0:0:0:
300,132,168559,1,8,0:0:0:0:
128,64,168892,5,8,0:0:0:0:
128,64,169058,1,8,0:0:0:0:
104,256,169392,5,8,0:0:0:0:
104,256,169559,2,0,P|144:208|216:236,1,135.000005149842,0|0,0:0|0:0,0:0:0:0:
216,300,170059,2,0,P|264:280|232:152,1,202.500007724762,8|8,0:0|0:0,0:0:0:0:
176,120,170726,6,0,P|224:84|304:116,1,135.000005149842,8|8,0:0|0:0,0:0:0:0:
360,172,171226,2,0,P|392:184|480:144,1,135.000005149842,8|8,0:0|0:0,0:0:0:0:
456,8,171726,5,0,0:0:0:0:
412,100,171892,1,8,0:0:0:0:
324,40,172059,2,0,P|276:28|236:28,1,90,8|0,0:0|0:0,0:0:0:0:
336,112,172392,5,8,0:0:0:0:
316,236,172559,2,0,P|312:288|324:332,1,90,4|0,0:0|0:0,0:0:0:0:
408,264,172892,5,0,0:0:0:0:
232,292,173059,2,0,L|108:304,1,90,8|0,0:0|0:0,0:0:0:0:
92,204,173392,2,0,L|-16:192,1,90,8|0,0:0|0:0,0:0:0:0:
144,28,173726,5,8,0:0:0:0:
208,128,173892,2,0,P|208:188|184:236,1,90,8|0,0:0|0:0,0:0:0:0:
304,88,174226,2,0,P|304:28|328:-20,1,90,8|0,0:0|0:0,0:0:0:0:
468,144,174559,5,8,0:0:0:0:
392,60,174726,1,0,0:0:0:0:
352,152,174892,1,0,0:0:0:0:
432,224,175059,2,0,P|376:248|336:252,1,90,8|0,0:0|0:0,0:0:0:0:
164,160,175392,6,0,P|148:116|144:52,2,90,8|0|0,0:0|0:0|0:0,0:0:0:0:
224,304,175892,2,0,P|240:260|244:196,2,90,8|0|0,0:0|0:0|0:0,0:0:0:0:
336,84,176392,6,0,P|291:89|249:105,2,90,8|0|0,0:0|0:0|0:0,0:0:0:0:
424,200,176892,2,0,P|466:215|510:221,2,90,8|0|0,0:0|0:0|0:0,0:0:0:0:
296,328,177392,6,0,P|288:268|308:216,1,90,8|0,0:0|0:0,0:0:0:0:
336,84,177726,1,0,0:0:0:0:
200,164,177892,2,0,P|128:172|48:148,1,135.000005149842,12|0,0:0|0:0,0:0:0:0:
52,300,178226,5,8,0:0:0:0:
99,317,178309,1,8,0:0:0:0:
149,327,178392,1,0,0:0:0:0:
199,331,178476,1,0,0:0:0:0:
250,328,178559,2,0,P|316:312|384:264,1,135.000005149842,12|0,0:0|0:0,0:0:0:0:
488,128,178892,5,0,0:0:0:0:
316,116,179059,2,0,P|212:72|174:32,1,135.000005149842,12|0,0:0|0:0,0:0:0:0:
99,317,179392,5,0,0:0:0:0:
184,192,179559,2,0,P|196:112|196:52,1,135.000005149842,12|0,0:0|0:0,0:0:0:0:
32,176,179892,5,0,0:0:0:0:
364,16,180059,2,0,P|364:96|340:168,1,135.000005149842,12|0,0:0|0:0,0:0:0:0:
240,376,180392,2,0,P|240:296|264:224,1,135.000005149842,12|0,0:0|0:0,0:0:0:0:
284,72,180726,1,12,0:0:0:0:
440,128,181059,5,12,0:0:0:0:
488,244,181226,1,8,0:0:0:0:
368,180,181392,5,8,0:0:0:0:
362,305,181559,1,8,0:0:0:0:
272,208,181726,5,12,0:0:0:0:
213,318,181893,1,8,0:0:0:0:
184,224,182059,6,0,L|128:268,3,56.25,12|8|8|8,0:0|0:0|0:0|0:0,0:0:0:0:
68,208,182392,2,0,L|-4:224,3,67.5000025749208,12|8|8|8,0:0|0:0|0:0|0:0,0:0:0:0:
128,68,182726,6,0,L|132:148,7,67.5000025749208,12|8|12|8|12|8|12|8,0:0|0:0|0:0|0:0|0:0|0:0|0:0|0:0,0:0:0:0:
168,160,183392,5,12,0:0:0:0:
292,48,184726,6,0,P|316:132|284:256,2,202.500007724762,12|4|8,0:0|0:0|0:0,0:0:0:0:
232,152,185392,2,0,P|156:152|84:232,1,135.000005149842,12|0,0:0|0:0,0:0:0:0:
180,328,185726,6,0,P|192:276|184:208,1,101.250003862381,2|0,0:0|0:0,0:0:0:0:
176,196,186059,2,0,P|164:144|172:88,1,90,8|0,0:0|0:0,0:0:0:0:
292,96,186392,5,8,0:0:0:0:
212,24,186559,1,8,0:0:0:0:
100,36,186726,1,8,0:0:0:0:
44,128,186892,1,8,0:0:0:0:
96,228,187059,1,8,0:0:0:0:
168,132,187226,6,0,P|224:128|284:164,1,90,8|8,0:0|0:0,0:0:0:0:
360,192,187559,1,8,0:0:0:0:
384,211,187642,1,8,0:0:0:0:
402,237,187725,1,8,0:0:0:0:
412,267,187809,1,8,0:0:0:0:
412,298,187892,1,8,0:0:0:0:
404,328,187975,1,8,0:0:0:0:
388,355,188059,6,0,P|344:372|264:324,1,135,8|0,0:0|0:0,0:0:0:0:
256,304,188392,2,0,P|200:272|104:272,1,135,0|0,0:0|0:0,0:0:0:0:
88,276,188726,6,0,P|40:236|80:128,1,180,4|8,0:0|0:0,0:0:0:0:
216,64,189226,1,0,0:0:0:0:
120,196,189392,6,0,B|228:192|172:144|300:144,1,180,0|8,0:0|0:0,0:0:0:0:
452,152,189892,1,0,0:0:0:0:
372,304,190059,6,0,B|360:336|328:340|328:340|312:332|288:280|296:228,1,180,0|8,0:0|0:0,0:0:0:0:
288,68,190559,1,0,0:0:0:0:
112,144,190726,6,0,P|92:208|188:260,1,180,0|8,0:0|0:0,0:0:0:0:
356,136,191226,1,0,0:0:0:0:
472,328,191392,5,8,0:0:0:0:
464,128,191559,1,0,0:0:0:0:
336,332,191726,5,8,0:0:0:0:
456,208,191892,2,0,L|388:208,1,45,8|8,0:0|0:0,0:0:0:0:
204,212,192059,5,8,0:0:0:0:
340,208,192226,1,8,0:0:0:0:
296,68,192392,5,8,0:0:0:0:
220,292,192559,2,0,P|160:332|112:224,2,215.999993408203,12|12|12,0:0|0:0|0:0,0:0:0:0:
456,304,193559,5,8,0:0:0:0:
300,176,193726,1,8,0:0:0:0:
460,32,193892,1,8,0:0:0:0:
300,32,194059,2,0,L|236:32,1,54,8|0,0:0|0:0,0:0:0:0:
208,32,194392,6,0,P|128:48|120:184,1,188.999994232178,12|0,0:0|0:0,0:0:0:0:
120,176,194726,6,0,P|128:256|92:292,1,125.999996154785,8|0,0:0|0:0,0:0:0:0:
224,208,195059,2,0,P|296:196|376:236,1,125.999996154785,12|0,0:0|0:0,0:0:0:0:
384,240,195309,1,0,0:0:0:0:
384,240,195392,2,0,P|420:312|324:348,2,188.999994232178,12|12|12,0:0|0:0|0:0,0:0:0:0:
288,164,196059,6,0,P|284:88|340:72,1,125.999996154785,12|8,0:0|0:0,0:0:0:0:
360,64,196309,1,8,0:0:0:0:
391,68,196392,1,8,0:0:0:0:
420,80,196475,1,8,0:0:0:0:
445,99,196559,1,8,0:0:0:0:
465,122,196642,1,8,0:0:0:0:
480,150,196726,2,0,P|487:231|455:295,1,125.999996154785,12|0,0:0|0:0,0:0:0:0:
336,328,197059,5,12,0:0:0:0:
240,176,197226,1,0,0:0:0:0:
136,304,197392,2,0,P|84:344|8:336,1,125.999996154785,0|0,0:0|0:0,0:0:0:0:
28,144,197726,5,8,0:0:0:0:
168,224,197892,2,0,L|240:260,2,62.9999980773926,8|8|8,0:0|0:0|0:0,0:0:0:0:
28,144,198226,1,8,0:0:0:0:
168,64,198392,2,0,L|240:28,2,62.9999980773926,8|8|8,0:0|3:0|3:0,0:0:0:0:
284,148,198726,6,0,L|192:128,3,62.9999980773926,8|8|8|8,3:0|3:0|3:0|3:0,0:0:0:0:
360,244,199059,2,0,L|452:224,3,62.9999980773926,8|8|8|8,3:0|3:0|3:0|3:0,0:0:0:0:
252,248,199392,6,0,P|184:256|280:324,1,251.999992309571,4|0,0:0|0:0,0:0:0:0:
172,172,199892,2,0,P|104:220|108:380,1,251.999992309571,4|0,0:0|0:0,0:0:0:0:
324,308,200392,6,0,P|408:308|472:348,1,125.999996154785,8|0,0:0|0:0,0:0:0:0:
464,120,200726,1,4,0:0:0:0:
328,216,200892,2,0,L|390:222,2,62.9999980773926,8|8|8,0:0|0:0|0:0,0:0:0:0:
208,136,201226,2,0,P|140:124|60:268,1,251.999992309571,4|8,0:0|0:0,0:0:0:0:
136,348,201726,2,0,P|216:336|296:348,1,125.999996154785,8|0,0:0|0:0,0:0:0:0:
456,288,202059,5,8,0:0:0:0:
248,216,202226,1,0,0:0:0:0:
432,112,202392,5,8,0:0:0:0:
344,292,202559,1,0,0:0:0:0:
316,40,202726,5,8,0:0:0:0:
392,216,202892,1,0,0:0:0:0:
496,168,203059,5,8,0:0:0:0:
304,132,203226,2,0,P|216:132|220:280,1,251.999992309571,12|8,0:0|0:0,0:0:0:0:
232,296,203642,1,8,0:0:0:0:
232,296,203726,1,8,0:0:0:0:
72,152,203892,5,8,0:0:0:0:
256,204,204059,1,8,0:0:0:0:
72,256,204226,1,8,0:0:0:0:
144,68,204392,2,0,P|208:36|328:84,1,188.999994232178,12|0,0:0|0:0,0:0:0:0:
344,100,204726,5,0,0:0:0:0:
484,48,204892,1,0,0:0:0:0:
472,176,205059,2,0,P|456:256|464:316,1,125.999996154785,12|0,0:0|0:0,0:0:0:0:
312,172,205392,5,0,0:0:0:0:
172,120,205558,1,0,0:0:0:0:
184,248,205725,2,0,P|200:328|192:388,1,125.999996154785,12|0,0:0|0:0,0:0:0:0:
304,80,206059,5,0,0:0:0:0:
252,220,206225,1,0,0:0:0:0:
380,208,206392,2,0,P|460:192|520:200,1,125.999996154785,12|0,0:0|0:0,0:0:0:0:
252,220,206726,5,0,0:0:0:0:
304,360,206892,1,0,0:0:0:0:
184,332,207059,2,0,L|104:312,1,62.9999980773926,12|0,0:0|0:0,0:0:0:0:
6,246,207226,5,0,0:0:0:0:
126,150,207392,2,0,P|186:130|266:142,2,125.999996154785,8|0|4,0:0|0:0|0:0,0:0:0:0:
0,44,207892,5,0,0:0:0:0:
152,60,208059,2,0,P|208:88|256:153,2,125.999996154785,8|0|4,0:0|0:0|0:0,0:0:0:0:
490,246,208559,5,0,0:0:0:0:
370,150,208725,2,0,P|310:130|248:135,2,125.999996154785,8|0|4,0:0|0:0|0:0,0:0:0:0:
496,44,209225,5,0,0:0:0:0:
344,59,209392,2,0,P|287:86|247:134,2,125.999996154785,8|0|4,0:0|0:0|0:0,0:0:0:0:
248,308,209892,5,0,0:0:0:0:
176,200,210059,2,0,L|104:176,3,62.9999980773926,12|8|8|8,3:0|3:0|3:0|3:0,0:0:0:0:
176,96,210392,2,0,L|104:72,3,62.9999980773926,12|8|8|8,3:0|3:0|3:0|3:0,0:0:0:0:
252,148,210726,2,0,L|311:128,3,62.9999980773926,12|8|8|8,3:0|3:0|3:0|3:0,0:0:0:0:
252,252,211059,2,0,L|311:232,3,62.9999980773926,12|0|0|0,3:0|3:0|3:0|3:0,3:0:0:0:
436,192,211392,2,0,L|376:172,3,62.9999980773926,12|8|8|8,3:0|3:0|3:0|3:0,0:0:0:0:
436,88,211726,2,0,L|376:68,3,62.9999980773926,12|0|0|0,3:0|3:0|3:0|3:0,3:0:0:0:
240,152,212059,2,0,L|299:132,3,62.9999980773926,12|8|8|8,3:0|3:0|3:0|3:0,0:0:0:0:
240,48,212392,2,0,L|299:28,3,62.9999980773926,12|0|0|0,3:0|3:0|3:0|3:0,3:0:0:0:
352,24,212726,6,0,P|428:64|460:200,1,188.999994232178,4|0,0:0|0:0,0:0:0:0:
464,196,213059,5,8,0:0:0:0:
450,256,213142,1,8,0:0:0:0:
405,299,213225,1,8,0:0:0:0:
344,311,213309,1,8,0:0:0:0:
287,287,213392,2,0,L|212:252,3,62.9999980773926,8|8|8|8,0:0|0:0|0:0|0:0,0:0:0:0:
144,196,213726,2,0,L|87:222,3,62.9999980773926,8|8|8|8,3:0|3:0|3:0|3:0,0:0:0:0:
108,316,214059,6,0,L|112:348,14,31.4999990386963,0|0|0|0|0|0|0|0|0|0|0|0|0|0|0,0:0|0:0|0:0|0:0|0:0|0:0|0:0|0:0|0:0|0:0|0:0|0:0|0:0|0:0|0:0,0:0:0:0:
100,280,214726,2,0,P|88:216|128:84,1,188.999994232178,4|0,0:0|0:0,0:0:0:0:
136,80,215059,6,0,L|300:80,1,112.5,12|0,0:0|0:0,0:0:0:0:
488,244,215726,6,0,L|416:244,1,67.5,8|0,0:0|0:0,0:0:0:0:
392,228,216059,5,4,0:0:0:0:
224,200,216226,1,0,0:0:0:0:
272,372,216392,1,8,0:0:0:0:
280,268,216559,5,0,0:0:0:0:
135,162,216725,1,0,0:0:0:0:
105,330,216892,1,0,0:0:0:0:
176,256,217059,5,8,0:0:0:0:
148,78,217225,1,0,0:0:0:0:
8,176,217392,2,0,P|4:252|24:320,1,125.999996154785,0|0,0:0|0:0,0:0:0:0:
112,216,217726,2,0,P|180:180|240:216,1,125.999996154785,8|0,0:0|0:0,0:0:0:0:
316,280,218059,2,0,P|375:294|425:259,1,125.999996154785,0|0,0:0|0:0,0:0:0:0:
376,32,218392,5,8,0:0:0:0:
356,56,218475,1,0,0:0:0:0:
345,85,218558,1,0,0:0:0:0:
344,116,218642,1,0,0:0:0:0:
352,144,218726,2,0,P|392:184|460:104,1,188.999994232178,0|0,0:0|0:0,0:0:0:0:
452,68,219059,5,8,0:0:0:0:
496,220,219226,1,0,0:0:0:0:
400,312,219392,2,0,P|324:340|232:320,1,125.999996154785,0|0,0:0|0:0,0:0:0:0:
24,212,219726,6,0,P|100:184|192:204,1,125.999996154785,8|0,0:0|0:0,0:0:0:0:
272,208,220059,2,0,B|244:224|244:224|216:200|212:164|220:124,1,125.999996154785,0|0,0:0|0:0,0:0:0:0:
272,12,220392,5,8,0:0:0:0:
340,120,220559,2,0,P|364:188|348:260,1,125.999996154785,0|0,0:0|0:0,0:0:0:0:
188,336,220892,6,0,L|180:256,1,62.9999980773926,4|0,0:0|0:0,0:0:0:0:
92,208,221059,2,0,L|120:124,1,62.9999980773926,4|0,0:0|0:0,0:0:0:0:
176,28,221226,1,8,0:0:0:0:
220,24,221309,1,8,0:0:0:0:
264,28,221392,6,0,P|328:44|448:16,1,180,8|8,0:0|0:0,0:0:0:0:
328,128,221892,2,0,P|320:204|368:320,1,180,0|0,0:0|0:0,0:0:0:0:
412,224,222392,2,0,P|304:228|252:276,1,180,8|0,0:0|0:0,0:0:0:0:
172,340,222892,5,0,0:0:0:0:
120,176,223059,1,8,0:0:0:0:
48,296,223226,1,0,0:0:0:0:
240,188,223392,5,0,0:0:0:0:
8,156,223559,1,0,0:0:0:0:
148,72,223726,1,8,0:0:0:0:
168,228,223892,1,0,0:0:0:0:
248,104,224059,5,8,0:0:0:0:
344,224,224226,1,0,0:0:0:0:
424,100,224392,2,0,L|388:-4,1,90,12|0,0:0|0:0,0:0:0:0:
344,224,224726,5,8,0:0:0:0:
248,104,224893,1,0,0:0:0:0:
168,228,225059,2,0,L|204:332,1,90,12|0,0:0|0:0,0:0:0:0:
408,272,225392,6,0,P|416:192|312:152,1,175.499991966248,12|0,0:0|0:0,0:0:0:0:
296,148,225726,6,0,B|200:144|200:68|80:60,1,216,12|0,0:0|0:0,0:0:0:0:
60,76,226059,6,0,P|76:160|16:332,1,256.499993150711,12|0,0:0|0:0,0:0:0:0:
52,356,226392,6,0,P|148:316|376:344,1,297.000009063721,12|0,0:0|0:0,0:0:0:0:
384,344,226726,6,0,P|396:316|396:256,1,90,12|8,0:0|0:0,0:0:0:0:
392,224,227642,1,8,0:0:0:0:
392,224,227726,5,12,0:0:0:0:
224,344,227892,1,12,0:0:0:0:
