osu file format v14

[General]
AudioFilename: audio.mp3
AudioLeadIn: 0
PreviewTime: 46727
Countdown: 0
SampleSet: Soft
StackLeniency: 0.7
Mode: 0
LetterboxInBreaks: 0
WidescreenStoryboard: 1

[Editor]
Bookmarks: 13977
DistanceSpacing: 1.8
BeatDivisor: 4
GridSize: 4
TimelineZoom: 2.2

[Metadata]
Title:Souzetsu Gekkou
TitleUnicode:Souzetsu Gekkou
Artist:Saratoga(CV: Sumire Uesaka)
ArtistUnicode:Saratoga(CV: Sumire Uesaka)
Creator:Feruver
Version:Expert
Source:Azur Lane
Tags:
BeatmapID:1861235
BeatmapSetID:884467

[Difficulty]
HPDrainRate:5
CircleSize:3.8
OverallDifficulty:9
ApproachRate:9.2
SliderMultiplier:1.8
SliderTickRate:1

[Events]
//Background and Video events
0,0,"967310.jpg",0,0
//Break Periods
2,10093,12156
2,151592,160156
//Storyboard Layer 0 (Background)
//Storyboard Layer 1 (Fail)
//Storyboard Layer 2 (Pass)
//Storyboard Layer 3 (Foreground)
//Storyboard Sound Samples

[TimingPoints]
1394,333.333333333333,4,2,1,100,1,0
1727,-250,4,2,1,100,0,0
1977,-142.857142857143,4,2,1,5,0,0
2060,333.333333333333,4,2,1,65,1,0
2060,-142.857142857143,4,2,1,65,0,0
7393,-100,4,2,1,65,0,0
7643,-100,4,2,1,5,0,0
7726,-100,4,2,1,40,0,0
8059,-100,4,2,1,50,0,0
8392,-100,4,2,1,65,0,0
15059,-66.6666666666667,4,2,1,65,0,0
15310,-66.6666666666667,4,2,1,5,0,0
15393,333.333333333333,4,2,1,65,1,0
15393,-100,4,2,1,65,0,0
18309,-100,4,2,1,5,0,0
18392,-100,4,2,1,65,0,0
18976,-100,4,2,1,5,0,0
19059,-100,4,2,1,65,0,0
20309,-100,4,2,1,5,0,0
20392,-100,4,2,1,65,0,0
20476,-100,4,2,1,5,0,0
20559,-100,4,2,1,65,0,0
26059,-111.111111111111,4,2,1,65,0,0
31642,-111.111111111111,4,2,1,5,0,0
31726,-111.111111111111,4,2,1,65,0,0
32892,-111.111111111111,4,2,1,5,0,0
32976,-111.111111111111,4,2,1,65,0,0
33142,-111.111111111111,4,2,1,5,0,0
33226,-100,4,2,1,65,0,0
33476,-111.111111111111,4,2,1,5,0,0
33559,-111.111111111111,4,2,1,65,0,0
34559,-66.6666666666667,4,2,1,65,0,0
35392,-76.9230769230769,4,2,1,65,0,0
35642,-76.9230769230769,4,2,1,5,0,0
35726,-71.4285714285714,4,2,1,65,0,0
35976,-76.9230769230769,4,2,1,5,0,0
36059,-66.6666666666667,4,2,1,65,0,0
36309,-66.6666666666667,4,2,1,5,0,0
36392,-57.1428571428571,4,2,1,65,0,0
36642,-57.1428571428571,4,2,1,5,0,0
36726,-133.333333333333,4,2,1,65,0,0
39142,-133.333333333333,4,2,1,5,0,0
39226,-133.333333333333,4,2,1,65,0,0
41226,-100,4,2,1,65,0,0
41392,-133.333333333333,4,2,1,65,0,0
41892,-100,4,2,1,65,0,0
46726,-333.333333333333,4,2,1,65,0,0
46976,-333.333333333333,4,2,1,5,0,0
47059,-66.6666666666667,4,2,1,65,0,0
47309,-66.6666666666667,4,2,1,5,0,0
47392,-71.4285714285714,4,2,1,65,0,1
47642,-71.4285714285714,4,2,1,5,0,1
47726,-71.4285714285714,4,2,1,65,0,1
47976,-71.4285714285714,4,2,1,5,0,1
48059,-71.4285714285714,4,2,1,65,0,1
48309,-71.4285714285714,4,2,1,5,0,1
48392,-71.4285714285714,4,2,1,65,0,1
49142,-71.4285714285714,4,2,1,5,0,1
49226,-71.4285714285714,4,2,1,65,0,1
49642,-71.4285714285714,4,2,1,5,0,1
49726,-71.4285714285714,4,2,1,65,0,1
50976,-71.4285714285714,4,2,1,5,0,1
51059,-71.4285714285714,4,2,1,65,0,1
51809,-71.4285714285714,4,2,1,5,0,1
51892,-71.4285714285714,4,2,1,65,0,1
56809,-71.4285714285714,4,2,1,5,0,1
56892,-71.4285714285714,4,2,1,65,0,1
57142,-71.4285714285714,4,2,1,5,0,1
57226,-71.4285714285714,4,2,1,65,0,1
57476,-71.4285714285714,4,2,1,5,0,1
57559,-71.4285714285714,4,2,1,65,0,1
57642,-71.4285714285714,4,2,1,5,0,1
57726,-50,4,2,1,65,0,1
57809,-71.4285714285714,4,2,1,5,0,1
57892,-38.4615384615385,4,2,1,65,0,1
57976,-71.4285714285714,4,2,1,5,0,1
58059,-71.4285714285714,4,2,1,65,0,1
58309,-71.4285714285714,4,2,1,5,0,1
58392,-71.4285714285714,4,2,1,65,0,1
58642,-71.4285714285714,4,2,1,5,0,1
58726,-55.5555555555556,4,2,1,65,0,1
58976,-71.4285714285714,4,2,1,5,0,1
59059,-71.4285714285714,4,2,1,65,0,1
68059,-71.4285714285714,4,2,1,40,0,1
68226,-71.4285714285714,4,2,1,30,0,1
68392,-71.4285714285714,4,2,1,65,0,1
68642,-71.4285714285714,4,2,1,5,0,1
68726,-100,4,2,1,65,0,0
71309,-100,4,2,1,5,0,0
71392,-100,4,2,1,65,0,0
71726,-100,4,2,1,35,0,0
72059,-100,4,2,1,45,0,0
72392,-100,4,2,1,55,0,0
72726,-100,4,2,1,65,0,0
73726,-66.6666666666667,4,2,1,65,0,0
73976,-100,4,2,1,5,0,0
74059,-71.4285714285714,4,2,1,65,0,0
75642,-71.4285714285714,4,2,1,5,0,0
75726,-71.4285714285714,4,2,1,65,0,0
78976,-71.4285714285714,4,2,1,5,0,0
79059,-71.4285714285714,4,2,1,65,0,0
79142,-71.4285714285714,4,2,1,5,0,0
79226,-71.4285714285714,4,2,1,65,0,0
83476,-71.4285714285714,4,2,1,5,0,0
83559,-71.4285714285714,4,2,1,65,0,0
84226,-71.4285714285714,4,2,1,65,0,0
84309,-71.4285714285714,4,2,1,5,0,0
84392,-133.333333333333,4,2,1,65,0,0
84559,-100,4,2,1,65,0,0
84642,-100,4,2,1,5,0,0
84726,-100,4,2,1,65,0,0
86226,-100,4,2,1,5,0,0
86309,-100,4,2,1,65,0,0
86476,-100,4,2,1,5,0,0
86559,-100,4,2,1,65,0,0
89059,-100,4,2,1,40,0,0
89392,-100,4,2,1,57,0,0
89726,-100,4,2,1,65,0,0
89976,-100,4,2,1,5,0,0
90059,-100,4,2,1,65,0,0
90309,-100,4,2,1,5,0,0
90392,-100,4,2,1,65,0,0
92642,-100,4,2,1,5,0,0
92726,-100,4,2,1,65,0,0
93809,-100,4,2,1,5,0,0
93892,-100,4,2,1,65,0,0
94226,-100,4,2,1,55,0,0
94559,-100,4,2,1,45,0,0
94892,-100,4,2,1,35,0,0
95226,-100,4,2,1,25,0,0
95392,-100,4,2,1,65,0,0
105392,-100,4,2,1,50,0,0
105726,-58.8235294117647,4,2,1,65,0,0
105976,-58.8235294117647,4,2,1,5,0,0
106059,-71.4285714285714,4,2,1,65,0,1
106309,-71.4285714285714,4,2,1,5,0,1
106392,-71.4285714285714,4,2,1,65,0,1
106642,-71.4285714285714,4,2,1,5,0,1
106726,-71.4285714285714,4,2,1,65,0,1
106976,-71.4285714285714,4,2,1,5,0,1
107059,-71.4285714285714,4,2,1,65,0,1
115142,-71.4285714285714,4,2,1,5,0,1
115226,-71.4285714285714,4,2,1,65,0,1
115476,-71.4285714285714,4,2,1,5,0,1
115559,-71.4285714285714,4,2,1,65,0,1
115809,-71.4285714285714,4,2,1,5,0,1
115892,-71.4285714285714,4,2,1,65,0,1
116142,-71.4285714285714,4,2,1,5,0,1
116226,-71.4285714285714,4,2,1,65,0,1
116309,-71.4285714285714,4,2,1,5,0,1
116392,-50,4,2,1,65,0,1
116476,-71.4285714285714,4,2,1,5,0,1
116559,-38.4615384615385,4,2,1,65,0,1
116642,-71.4285714285714,4,2,1,5,0,1
116726,-71.4285714285714,4,2,1,65,0,1
116976,-71.4285714285714,4,2,1,5,0,1
117059,-71.4285714285714,4,2,1,65,0,1
117309,-71.4285714285714,4,2,1,5,0,1
117392,-71.4285714285714,4,2,1,65,0,1
117642,-71.4285714285714,4,2,1,5,0,1
117726,-71.4285714285714,4,2,1,65,0,1
118642,-71.4285714285714,4,2,1,5,0,1
118726,-71.4285714285714,4,2,1,65,0,1
121976,-71.4285714285714,4,2,1,5,0,1
122059,-71.4285714285714,4,2,1,65,0,1
126309,-71.4285714285714,4,2,1,5,0,1
126392,-45.4545454545455,4,2,1,65,0,1
126476,-71.4285714285714,4,2,1,5,0,1
126559,-66.6666666666667,4,2,1,65,0,1
126809,-71.4285714285714,4,2,1,5,0,1
126892,-66.6666666666667,4,2,1,65,0,1
127392,-100,4,2,1,65,0,0
127642,-100,4,2,1,5,0,0
127726,-100,4,2,1,65,0,0
130309,-100,4,2,1,5,0,0
130392,-100,4,2,1,65,0,0
135309,-100,4,2,1,5,0,0
135392,-100,4,2,1,65,0,0
137976,-100,4,2,1,5,0,0
138059,-100,4,2,1,65,0,0
138159,-100,4,2,1,5,0,0
138392,-100,4,2,1,65,0,0
147476,-100,4,2,1,5,0,0
147559,-100,4,2,1,65,0,0
148726,-263.157894736842,4,2,1,65,0,0
151392,-270.27027027027,4,2,1,65,0,0
160726,-100,4,2,1,65,0,0
162059,-133.333333333333,4,2,1,65,0,0
163976,-133.333333333333,4,2,1,5,0,0
164059,-133.333333333333,4,2,1,65,0,0
171559,-100,4,2,1,65,0,0
173559,-100,4,2,1,30,0,0
173726,-100,4,2,1,65,0,0
174059,-100,4,2,1,30,0,0
174226,-100,4,2,1,65,0,0
174392,-100,4,2,1,30,0,0
174559,-100,4,2,1,65,0,0
177892,-66.6666666666667,4,2,1,65,0,0
182059,-80,4,2,1,65,0,0
182309,-66.6666666666667,4,2,1,45,0,0
182392,-66.6666666666667,4,2,1,65,0,0
182642,-66.6666666666667,4,2,1,45,0,0
182726,-66.6666666666667,4,2,1,65,0,0
184726,-66.6666666666667,4,2,1,65,0,0
185726,-133.333333333333,4,2,1,65,0,0
185976,-133.333333333333,4,2,1,5,0,0
186059,-100,4,2,1,65,0,0
188309,-100,4,2,1,5,0,0
188392,-100,4,2,1,65,0,0
188559,-100,4,2,1,5,0,0
188726,-100,4,2,1,65,0,0
192559,-71.4285714285714,4,2,1,65,0,0
192809,-71.4285714285714,4,2,1,5,0,0
192892,-71.4285714285714,4,2,1,65,0,0
193142,-71.4285714285714,4,2,1,5,0,0
193226,-71.4285714285714,4,2,1,65,0,0
193476,-71.4285714285714,4,2,1,5,0,0
193559,-71.4285714285714,4,2,1,65,0,0
193642,-71.4285714285714,4,2,1,5,0,0
193726,-50,4,2,1,65,0,0
193809,-71.4285714285714,4,2,1,5,0,0
193892,-38.4615384615385,4,2,1,65,0,0
193976,-45.4545454545455,4,2,1,5,0,0
194059,-500,4,2,1,65,0,0
194309,-500,4,2,1,5,0,0
194392,-71.4285714285714,4,2,1,65,0,1
194642,-71.4285714285714,4,2,1,5,0,1
194726,-71.4285714285714,4,2,1,65,0,1
204642,-71.4285714285714,4,2,1,5,0,1
204726,-71.4285714285714,4,2,1,65,0,1
212976,-71.4285714285714,4,2,1,5,0,1
213059,-71.4285714285714,4,2,1,65,0,1
214059,-71.4285714285714,4,2,1,50,0,1
214726,-71.4285714285714,4,2,1,65,0,1
214976,-71.4285714285714,4,2,1,5,0,1
215059,-36.3636363636364,4,2,1,65,0,0
215142,-25,4,2,1,5,0,0
215726,-400,4,2,1,65,0,0
215976,-400,4,2,1,5,0,0
216059,-71.4285714285714,4,2,1,65,0,0
218976,-71.4285714285714,4,2,1,5,0,0
219059,-71.4285714285714,4,2,1,65,0,0
220976,-71.4285714285714,4,2,1,5,0,0
221059,-71.4285714285714,4,2,1,65,0,0
221142,-100,4,2,1,5,0,0
221226,-100,4,2,1,65,0,0
225392,-76.9230769230769,4,2,1,65,0,0
225642,-76.9230769230769,4,2,1,5,0,0
225726,-62.5,4,2,1,65,0,0
225976,-62.5,4,2,1,5,0,0
226059,-52.6315789473684,4,2,1,65,0,0
226309,-52.6315789473684,4,2,1,5,0,0
226392,-45.4545454545455,4,2,1,65,0,0
226642,-45.4545454545455,4,2,1,5,0,0
226726,-500,4,2,1,65,0,0

[HitObjects]
215,209,1727,5,0,0:0:0:0:
217,113,2060,2,0,P|155:132|178:293,1,251.999992309571,4|0,0:0|0:0,0:0:0:0:
372,252,3059,5,8,0:0:0:0:
372,252,3226,2,0,B|400:200|484:180|484:180|432:48,1,251.999992309571,4|0,0:0|0:0,0:0:0:0:
360,132,4059,5,8,0:0:0:0:
280,252,4226,1,2,0:0:0:0:
280,252,4309,1,2,0:0:0:0:
280,252,4393,1,2,0:0:0:0:
188,132,4559,1,0,0:0:0:0:
104,256,4726,2,0,P|116:304|196:320,1,125.999996154785,4|0,0:0|0:0,0:0:0:0:
248,248,5226,2,0,P|307:260|327:317,1,125.999996154785,0|0,0:0|0:0,0:0:0:0:
432,372,5726,1,0,0:0:0:0:
496,268,5893,6,0,P|496:216|416:164,1,125.999996154785,4|0,0:0|0:0,0:0:0:0:
416,248,6393,1,8,0:0:0:0:
240,284,6726,6,0,L|180:268,2,41.9999987182618,8|8|8,3:0|3:0|3:0,0:0:0:0:
320,208,7059,2,0,L|380:192,2,41.9999987182618,8|8|8,3:0|3:0|3:0,0:0:0:0:
192,272,7393,2,0,P|144:220|188:164,1,135,8|0,0:0|0:0,0:0:0:0:
204,152,7726,5,8,0:0:0:0:
312,312,7893,1,8,0:0:0:0:
344,80,8059,5,8,0:0:0:0:
216,256,8226,1,8,0:0:0:0:
412,264,8393,5,8,0:0:0:0:
128,120,8559,1,8,0:0:0:0:
128,324,8726,5,8,0:0:0:0:
162,352,8809,1,8,0:0:0:0:
205,364,8892,1,8,0:0:0:0:
249,358,8976,1,8,0:0:0:0:
287,335,9059,1,8,0:0:0:0:
312,298,9142,1,8,0:0:0:0:
321,254,9226,1,8,0:0:0:0:
310,210,9309,1,8,0:0:0:0:
283,175,9392,1,8,0:0:0:0:
216,256,9559,5,0,0:0:0:0:
384,64,9726,1,12,0:0:0:0:
480,284,9893,1,12,0:0:0:0:
324,192,12726,5,0,0:0:0:0:
152,152,12893,1,0,0:0:0:0:
324,112,13059,1,0,0:0:0:0:
244,256,13226,5,0,0:0:0:0:
204,84,13393,1,0,0:0:0:0:
164,256,13559,1,0,0:0:0:0:
336,216,13726,5,0,0:0:0:0:
164,256,13893,1,0,0:0:0:0:
336,296,14059,2,0,L|388:304,3,45,4|0|0|0,0:0|0:0|0:0|0:0,0:0:0:0:
508,320,14393,2,0,L|508:244,3,45,4|0|0|0,0:0|0:0|0:0|0:0,0:0:0:0:
500,56,14726,6,0,L|480:112,1,45,4|0,0:0|0:0,0:0:0:0:
428,248,14893,2,0,L|412:188,1,45,8|0,0:0|0:0,0:0:0:0:
384,56,15059,2,0,P|304:32|260:136,1,202.500007724762,12|0,0:0|0:0,0:0:0:0:
264,156,15393,6,0,P|268:204|240:268,1,90,4|0,0:0|0:0,0:0:0:0:
156,336,15726,1,8,0:0:0:0:
72,224,15893,2,0,P|68:176|96:112,1,90,0|0,0:0|0:0,0:0:0:0:
200,44,16226,1,0,0:0:0:0:
264,136,16393,2,0,P|328:124|412:76,1,135,8|0,0:0|0:0,0:0:0:0:
436,80,16726,2,0,B|448:156|448:156|432:260,1,180,0|8,0:0|0:0,0:0:0:0:
392,368,17226,5,0,0:0:0:0:
332,244,17392,1,0,0:0:0:0:
424,140,17559,1,0,0:0:0:0:
444,256,17726,1,8,0:0:0:0:
421,294,17809,1,0,0:0:0:0:
381,313,17892,1,0,0:0:0:0:
337,309,17975,1,0,0:0:0:0:
302,282,18059,6,0,P|256:248|156:248,1,135,0|0,0:0|0:0,0:0:0:0:
136,256,18392,1,8,0:0:0:0:
248,356,18559,1,0,0:0:0:0:
248,176,18726,2,0,P|232:124|252:36,1,135,0|0,0:0|0:0,0:0:0:0:
224,32,19059,2,0,L|104:32,1,90,8|0,0:0|0:0,0:0:0:0:
96,220,19392,6,0,P|124:168|112:112,1,90,0|0,0:0|0:0,0:0:0:0:
44,32,19726,1,8,0:0:0:0:
28,152,19892,2,0,L|24:260,1,90,0|0,0:0|0:0,0:0:0:0:
64,352,20226,6,0,L|136:336,1,45,4|0,0:0|0:0,0:0:0:0:
312,304,20392,2,0,L|240:288,1,45,12|0,0:0|0:0,0:0:0:0:
96,256,20559,1,2,0:0:0:0:
139,245,20642,1,2,0:0:0:0:
183,235,20726,6,0,P|236:172|160:128,1,180,2|8,0:0|0:0,0:0:0:0:
65,154,21226,2,0,B|66:76|66:76|97:24|173:32,1,180,0|0,0:0|0:0,0:0:0:0:
243,92,21726,2,0,P|304:110|420:69,1,180,8|0,0:0|0:0,0:0:0:0:
322,24,22226,1,0,0:0:0:0:
322,273,22392,5,8,0:0:0:0:
409,131,22559,1,0,0:0:0:0:
235,131,22726,1,0,0:0:0:0:
426,223,22892,5,8,0:0:0:0:
217,223,23059,1,8,0:0:0:0:
321,52,23226,1,0,0:0:0:0:
356,276,23392,5,12,0:0:0:0:
198,138,23559,1,0,0:0:0:0:
163,349,23726,1,0,0:0:0:0:
282,137,23892,5,12,0:0:0:0:
73,85,24059,1,0,0:0:0:0:
137,284,24226,1,0,0:0:0:0:
202,94,24392,5,12,0:0:0:0:
198,138,24475,1,0,0:0:0:0:
213,180,24558,1,0,0:0:0:0:
244,212,24641,1,0,0:0:0:0:
286,227,24726,5,0,0:0:0:0:
315,12,24892,1,12,0:0:0:0:
409,258,25059,5,0,0:0:0:0:
274,89,25226,1,8,0:0:0:0:
270,328,25392,5,0,0:0:0:0:
351,215,25559,1,8,0:0:0:0:
341,171,25642,1,8,0:0:0:0:
383,155,25726,1,8,0:0:0:0:
392,111,25809,1,8,0:0:0:0:
352,90,25892,1,8,0:0:0:0:
343,46,25975,1,8,0:0:0:0:
377,16,26059,6,0,P|426:6|475:30,1,80.9999975280763,2|0,0:0|0:0,0:0:0:0:
482,114,26392,2,0,B|501:195|443:192|479:305,1,161.999995056153,2|2,0:0|0:0,0:0:0:0:
280,358,27059,6,0,P|214:354|181:326,1,80.9999975280763,2|0,0:0|0:0,0:0:0:0:
77,274,27392,2,0,P|77:217|123:141,2,121.499996292114,2|0|0,0:0|0:0|0:0,0:0:0:0:
202,347,28059,1,2,0:0:0:0:
163,232,28226,1,0,0:0:0:0:
245,133,28392,1,2,0:0:0:0:
126,62,28559,5,8,0:0:0:0:
126,62,28642,1,8,0:0:0:0:
126,62,28726,1,10,0:0:0:0:
238,286,28892,2,0,P|253:235|243:191,1,80.9999975280763,0|2,0:0|0:0,0:0:0:0:
337,102,29226,5,0,0:0:0:0:
170,133,29392,1,2,0:0:0:0:
376,185,29559,5,0,0:0:0:0:
236,89,29725,1,2,0:0:0:0:
346,273,29892,5,4,0:0:0:0:
315,105,30059,2,0,L|302:15,1,80.9999975280763,8|0,0:0|0:0,0:0:0:0:
248,217,30392,1,10,0:0:0:0:
110,106,30559,1,0,0:0:0:0:
110,106,30642,1,0,0:0:0:0:
110,106,30726,1,8,0:0:0:0:
144,252,30892,5,8,0:0:0:0:
167,284,30975,1,8,0:0:0:0:
200,308,31058,1,8,0:0:0:0:
238,319,31141,1,8,0:0:0:0:
279,316,31225,1,8,0:0:0:0:
316,299,31308,1,8,0:0:0:0:
345,272,31392,6,0,P|370:223|352:140,1,121.499996292114,12|0,0:0|0:0,0:0:0:0:
332,129,31726,1,10,0:0:0:0:
484,339,31892,6,0,B|463:263|463:263|482:182,1,161.999995056153,4|0,0:0|0:0,0:0:0:0:
500,59,32392,1,0,0:0:0:0:
369,84,32559,1,0,0:0:0:0:
384,240,32726,6,0,L|384:340,1,80.9999975280763,14|0,0:0|0:0,0:0:0:0:
304,384,32976,2,0,L|304:284,1,80.9999975280763,2|0,0:0|0:0,0:0:0:0:
312,172,33226,2,0,P|280:140|184:156,1,135,12|0,0:0|0:0,0:0:0:0:
192,180,33559,1,2,0:0:0:0:
289,243,33726,2,0,P|314:205|307:161,1,80.9999975280763,10|0,0:0|0:0,0:0:0:0:
108,228,34059,5,10,0:0:0:0:
272,128,34226,1,0,0:0:0:0:
60,72,34392,5,10,0:0:0:0:
224,208,34559,1,8,0:0:0:0:
224,208,34642,1,8,0:0:0:0:
224,208,34726,1,8,0:0:0:0:
180,40,34892,1,8,0:0:0:0:
56,240,35059,1,8,0:0:0:0:
260,132,35226,1,8,0:0:0:0:
136,184,35392,6,0,P|132:252|232:308,1,175.499991966248,10|0,0:0|0:0,0:0:0:0:
292,324,35726,6,0,P|356:308|496:328,1,188.999994232178,10|0,0:0|0:0,0:0:0:0:
496,240,36059,6,0,B|480:140|480:140|488:32,1,202.500007724762,10|0,0:0|0:0,0:0:0:0:
392,48,36392,6,0,P|304:76|160:32,1,236.250002253056,10|0,0:0|0:0,0:0:0:0:
76,12,36726,6,0,P|36:44|72:112,1,135.000005149842,6|0,0:0|0:0,0:0:0:0:
192,148,37226,1,2,0:0:0:0:
168,272,37392,2,0,P|184:320|260:309,1,135.000005149842,10|2,0:0|0:0,0:0:0:0:
304,172,37892,1,2,0:0:0:0:
92,200,38226,5,8,0:0:0:0:
160,8,38559,1,2,0:0:0:0:
208,84,38726,1,8,0:0:0:0:
280,28,38892,1,2,0:0:0:0:
404,160,39226,6,0,P|376:215|307:210,1,135.000005149842,6|2,0:0|0:0,0:0:0:0:
168,112,39892,1,2,0:0:0:0:
84,176,40059,2,0,P|57:212|134:265,1,135.000005149842,10|2,0:0|0:0,0:0:0:0:
256,284,40559,1,2,0:0:0:0:
208,168,40726,2,0,P|212:128|224:80,1,67.5000025749208,0|8,0:0|0:0,0:0:0:0:
304,24,41059,1,0,0:0:0:0:
360,240,41226,5,8,0:0:0:0:
360,240,41309,1,8,0:0:0:0:
360,240,41392,1,10,0:0:0:0:
176,136,41559,1,10,0:0:0:0:
412,48,41726,1,10,0:0:0:0:
232,256,41892,2,0,P|184:292|112:204,1,180,6|0,0:0|0:0,0:0:0:0:
148,64,42392,5,10,0:0:0:0:
332,208,42559,1,0,0:0:0:0:
184,164,42726,1,10,0:0:0:0:
184,164,43059,5,10,0:0:0:0:
168,344,43226,1,0,0:0:0:0:
340,272,43392,5,10,0:0:0:0:
96,240,43559,1,0,0:0:0:0:
246,45,43726,1,10,0:0:0:0:
246,45,44059,5,10,0:0:0:0:
372,148,44226,1,0,0:0:0:0:
416,4,44393,1,10,0:0:0:0:
268,148,44559,1,0,0:0:0:0:
352,212,44726,5,10,0:0:0:0:
184,366,44893,1,2,0:0:0:0:
136,148,45059,1,2,0:0:0:0:
302,278,45226,5,10,0:0:0:0:
76,248,45393,1,2,0:0:0:0:
212,71,45559,1,2,0:0:0:0:
219,283,45726,5,10,0:0:0:0:
97,90,45893,1,10,0:0:0:0:
216,56,46726,6,0,P|200:88|200:100,1,40.4999987640381,0|0,0:0|0:0,0:0:0:0:
216,124,47059,6,0,P|216:192|92:284,1,202.500007724762,0|0,0:0|0:0,0:0:0:0:
72,284,47392,6,0,B|76:240|32:224|32:224|72:192|40:156|76:108,1,188.999994232178,12|0,0:0|0:0,0:0:0:0:
80,48,47726,6,0,B|113:21|149:53|181:13|181:13|197:57|241:53,1,188.999994232178,8|0,0:0|0:0,0:0:0:0:
336,124,48059,6,0,B|302:150|266:118|234:158|234:158|218:114|174:118,1,188.999994232178,0|0,0:0|0:0,0:0:0:0:
136,88,48392,1,8,0:0:0:0:
76,288,48559,1,0,0:0:0:0:
264,200,48726,5,0,0:0:0:0:
56,184,48892,1,0,0:0:0:0:
56,184,48976,1,0,0:0:0:0:
56,184,49059,1,8,0:0:0:0:
220,64,49226,1,0,0:0:0:0:
140,296,49392,1,0,0:0:0:0:
320,128,49559,6,0,L|248:168,1,62.9999980773926,4|0,0:0|0:0,0:0:0:0:
76,256,49726,2,0,P|52:324|192:344,1,251.999992309571,12|0,0:0|0:0,0:0:0:0:
336,184,50226,5,0,0:0:0:0:
192,260,50392,1,8,0:0:0:0:
320,364,50559,1,0,0:0:0:0:
253,199,50726,2,0,P|217:119|260:35,1,188.999994232178,0|0,0:0|0:0,0:0:0:0:
296,36,51059,2,0,L|432:36,1,125.999996154785,8|0,0:0|0:0,0:0:0:0:
400,168,51392,6,0,P|384:228|320:280,1,125.999996154785,0|0,0:0|0:0,0:0:0:0:
316,280,51642,2,0,L|236:280,1,62.9999980773926,0|8,0:0|0:0,0:0:0:0:
36,244,51892,5,0,0:0:0:0:
36,244,51976,1,0,0:0:0:0:
36,244,52059,2,0,P|96:208|156:200,1,125.999996154785,0|0,0:0|0:0,0:0:0:0:
348,152,52392,2,0,P|288:188|228:196,1,125.999996154785,12|0,0:0|0:0,0:0:0:0:
88,140,52726,6,0,P|40:80|160:52,1,251.999992309571,0|8,0:0|0:0,0:0:0:0:
64,232,53226,1,0,0:0:0:0:
200,240,53392,6,0,P|248:300|128:328,1,251.999992309571,0|8,0:0|0:0,0:0:0:0:
224,148,53892,1,0,0:0:0:0:
184,24,54059,6,0,P|124:-24|96:96,1,251.999992309571,0|8,0:0|0:0,0:0:0:0:
276,0,54559,1,0,0:0:0:0:
284,136,54725,6,0,P|344:184|372:64,1,251.999992309571,0|8,0:0|0:0,0:0:0:0:
192,160,55225,1,0,0:0:0:0:
372,332,55392,5,8,0:0:0:0:
240,140,55559,1,0,0:0:0:0:
184,336,55726,5,8,0:0:0:0:
316,144,55893,1,0,0:0:0:0:
108,332,56059,5,8,0:0:0:0:
240,140,56226,2,0,L|256:224,1,62.9999980773926,8|8,0:0|0:0,0:0:0:0:
332,336,56392,5,8,0:0:0:0:
332,116,56559,2,0,P|402:129|454:29,1,188.999994232178,12|0,0:0|0:0,0:0:0:0:
332,116,56892,2,0,P|308:48|195:53,1,188.999994232178,12|0,0:0|0:0,0:0:0:0:
332,116,57226,2,0,P|285:170|346:265,1,188.999994232178,12|0,0:0|0:0,0:0:0:0:
504,256,57559,5,8,0:0:0:0:
360,184,57726,1,8,0:0:0:0:
504,112,57892,1,8,0:0:0:0:
356,52,58059,2,0,P|272:44|168:84,1,188.999994232178,8|0,0:0|0:0,0:0:0:0:
164,112,58392,2,0,L|164:252,1,125.999996154785,12|0,0:0|0:0,0:0:0:0:
392,344,58726,2,0,P|368:256|188:208,1,242.999992584229,0|0,0:0|0:0,0:0:0:0:
184,192,59059,1,8,0:0:0:0:
284,356,59226,1,0,0:0:0:0:
80,312,59392,6,0,P|32:248|64:156,1,125.999996154785,12|0,0:0|0:0,0:0:0:0:
56,180,59642,2,0,L|196:180,1,125.999996154785,12|0,0:0|0:0,0:0:0:0:
216,160,59892,6,0,P|264:96|232:4,1,125.999996154785,12|12,0:0|0:0,0:0:0:0:
104,72,60226,1,8,0:0:0:0:
87,110,60309,1,8,0:0:0:0:
95,150,60392,1,8,0:0:0:0:
113,188,60476,1,0,0:0:0:0:
127,228,60559,1,8,0:0:0:0:
124,269,60642,1,8,0:0:0:0:
108,304,60726,6,0,P|168:336|240:332,1,125.999996154785,12|0,0:0|0:0,0:0:0:0:
368,248,61059,1,8,0:0:0:0:
204,132,61226,1,0,0:0:0:0:
248,268,61392,2,0,P|304:208|264:68,1,188.999994232178,0|0,0:0|0:0,0:0:0:0:
300,72,61726,2,0,L|444:72,1,125.999996154785,8|0,0:0|0:0,0:0:0:0:
464,300,62059,6,0,L|432:160,1,125.999996154785,0|0,0:0|0:0,0:0:0:0:
292,32,62392,2,0,L|324:172,1,125.999996154785,8|0,0:0|0:0,0:0:0:0:
240,348,62726,6,0,L|201:179,1,125.999996154785,4|0,0:0|0:0,0:0:0:0:
57,26,63059,2,0,L|95:194,1,125.999996154785,8|8,0:0|0:0,0:0:0:0:
96,180,63309,1,8,0:0:0:0:
96,180,63392,2,0,P|160:212|308:96,1,251.999992309571,12|0,0:0|0:0,0:0:0:0:
436,64,63892,2,0,P|372:32|224:148,1,251.999992309571,12|0,0:0|0:0,0:0:0:0:
112,154,64392,5,8,0:0:0:0:
224,280,64559,1,0,0:0:0:0:
60,360,64726,2,0,P|28:296|144:148,1,251.999992309571,12|0,0:0|0:0,0:0:0:0:
176,20,65226,2,0,P|208:84|92:232,1,251.999992309571,12|0,0:0|0:0,0:0:0:0:
240,352,65726,5,8,0:0:0:0:
72,168,65892,1,0,0:0:0:0:
140,52,66059,5,8,0:0:0:0:
272,244,66226,1,0,0:0:0:0:
328,48,66393,5,8,0:0:0:0:
196,240,66560,1,0,0:0:0:0:
404,52,66726,5,8,0:0:0:0:
272,244,66893,2,0,L|260:182,1,62.9999980773926,8|8,0:0|0:0,0:0:0:0:
180,48,67059,5,8,0:0:0:0:
120,240,67226,2,0,P|96:304|232:312,1,251.999992309571,4|8,0:0|0:0,0:0:0:0:
248,296,67642,1,8,0:0:0:0:
248,296,67726,1,8,0:0:0:0:
448,264,67892,5,8,0:0:0:0:
296,168,68059,1,8,0:0:0:0:
448,104,68226,1,8,0:0:0:0:
296,28,68392,2,0,P|232:28|124:136,1,188.999994232178,4|0,0:0|0:0,0:0:0:0:
144,136,68726,5,8,0:0:0:0:
224,324,68892,1,8,0:0:0:0:
224,324,68976,1,8,0:0:0:0:
224,324,69059,1,8,0:0:0:0:
68,208,69226,1,8,0:0:0:0:
288,36,69392,5,8,0:0:0:0:
208,224,69558,1,8,0:0:0:0:
208,224,69642,1,8,0:0:0:0:
208,224,69725,1,8,0:0:0:0:
368,104,69892,1,8,0:0:0:0:
436,308,70059,5,8,3:0:0:0:
406,314,70142,1,8,3:0:0:0:
376,318,70225,1,8,3:0:0:0:
347,321,70308,1,8,3:0:0:0:
317,319,70392,1,8,3:0:0:0:
287,313,70475,1,8,3:0:0:0:
260,302,70558,1,8,3:0:0:0:
231,292,70642,1,8,3:0:0:0:
202,289,70725,1,8,3:0:0:0:
172,292,70808,1,8,3:0:0:0:
142,298,70892,1,8,3:0:0:0:
113,306,70975,1,8,3:0:0:0:
85,315,71059,6,0,P|28:296|36:200,1,135,4|0,0:0|0:0,0:0:0:0:
32,188,71392,1,8,0:0:0:0:
40,172,71726,5,8,0:0:0:0:
104,0,71892,1,8,0:0:0:0:
176,208,72059,5,8,0:0:0:0:
244,0,72225,1,8,0:0:0:0:
312,252,72392,5,8,0:0:0:0:
380,8,72558,1,8,0:0:0:0:
292,344,72726,5,8,0:0:0:0:
336,342,72809,1,8,0:0:0:0:
374,319,72892,1,8,0:0:0:0:
395,280,72975,1,8,0:0:0:0:
395,236,73059,1,8,0:0:0:0:
372,198,73142,1,8,0:0:0:0:
333,176,73225,1,8,0:0:0:0:
288,177,73309,1,8,0:0:0:0:
250,200,73392,1,8,0:0:0:0:
204,360,73726,6,0,B|136:308|136:308|116:192,1,202.500007724762,8|0,0:0|0:0,0:0:0:0:
128,152,74059,5,4,0:0:0:0:
272,232,74226,1,0,0:0:0:0:
270,68,74392,1,8,0:0:0:0:
215,294,74559,5,0,0:0:0:0:
293,149,74725,1,0,0:0:0:0:
128,152,74892,1,0,0:0:0:0:
272,368,75059,5,8,0:0:0:0:
437,371,75226,1,0,0:0:0:0:
359,226,75392,1,0,0:0:0:0:
437,371,75559,6,0,L|385:331,1,62.9999980773926,0|0,0:0|0:0,0:0:0:0:
264,224,75726,1,8,0:0:0:0:
424,88,75892,1,0,0:0:0:0:
488,296,76059,1,0,0:0:0:0:
396,200,76226,1,0,0:0:0:0:
274,307,76392,5,8,0:0:0:0:
380,311,76559,1,0,0:0:0:0:
260,224,76726,5,0,0:0:0:0:
140,324,76892,1,0,0:0:0:0:
92,160,77059,1,8,0:0:0:0:
194,262,77226,5,0,0:0:0:0:
38,248,77392,1,0,0:0:0:0:
120,98,77559,1,0,0:0:0:0:
120,244,77726,5,8,0:0:0:0:
20,124,77892,1,0,0:0:0:0:
184,76,78059,1,0,0:0:0:0:
266,234,78226,6,0,P|354:286|422:286,1,125.999996154785,0|8,0:0|0:0,0:0:0:0:
496,228,78559,2,0,P|496:144|484:88,1,125.999996154785,0|0,0:0|0:0,0:0:0:0:
264,48,78892,2,0,L|352:48,1,62.9999980773926,8|0,0:0|0:0,0:0:0:0:
508,48,79059,2,0,L|428:48,1,62.9999980773926,4|0,0:0|0:0,0:0:0:0:
136,40,79226,1,8,0:0:0:0:
105,47,79309,1,8,0:0:0:0:
79,64,79392,6,0,P|32:124|28:312,1,251.999992309571,12|8,0:0|0:0,0:0:0:0:
148,352,79892,2,0,B|212:308|212:308|316:312|412:352,1,251.999992309571,0|0,0:0|0:0,0:0:0:0:
432,64,80392,2,0,P|480:124|484:312,1,251.999992309571,8|0,0:0|0:0,0:0:0:0:
324,368,80892,5,0,0:0:0:0:
240,228,81059,1,8,0:0:0:0:
128,372,81226,1,0,0:0:0:0:
320,264,81392,1,0,0:0:0:0:
96,256,81559,1,0,0:0:0:0:
208,68,81726,1,8,0:0:0:0:
0,132,81892,1,0,0:0:0:0:
140,332,82059,2,0,P|208:372|376:324,1,251.999992309571,4|8,0:0|0:0,0:0:0:0:
336,32,82559,6,0,L|336:172,1,125.999996154785,8|0,0:0|0:0,0:0:0:0:
452,348,82892,2,0,L|452:208,1,125.999996154785,8|0,0:0|0:0,0:0:0:0:
464,44,83226,2,0,P|392:20|240:56,1,188.999994232178,4|0,0:0|0:0,0:0:0:0:
268,60,83559,1,8,0:0:0:0:
80,16,83726,1,8,0:0:0:0:
124,216,83892,1,8,0:0:0:0:
376,368,84226,6,0,L|304:368,1,62.9999980773926,2|0,0:0|0:0,0:0:0:0:
148,364,84392,2,0,P|88:328|76:272,1,101.250003862381,2|0,0:0|0:0,0:0:0:0:
88,268,84726,2,0,P|76:208|56:160,1,90,4|0,0:0|0:0,0:0:0:0:
32,12,85059,2,0,P|32:76|140:60,1,180,8|0,0:0|0:0,0:0:0:0:
430,17,85726,5,8,0:0:0:0:
375,140,85892,1,0,0:0:0:0:
502,188,86059,2,0,P|492:248|439:337,2,135,8|0|8,0:0|0:0|0:0,0:0:0:0:
469,18,86726,1,0,0:0:0:0:
355,103,86892,1,0,0:0:0:0:
245,15,87059,1,8,0:0:0:0:
310,248,87226,5,0,0:0:0:0:
310,248,87309,1,0,0:0:0:0:
310,248,87392,1,0,0:0:0:0:
102,245,87559,2,0,P|48:228|16:203,1,90,0|12,0:0|0:0,0:0:0:0:
252,136,87892,1,0,0:0:0:0:
114,80,88059,2,0,P|60:63|28:38,1,90,8|0,0:0|0:0,0:0:0:0:
84,165,88392,5,8,0:0:0:0:
85,198,88475,1,8,0:0:0:0:
86,232,88558,1,8,0:0:0:0:
87,266,88641,1,8,0:0:0:0:
88,299,88725,1,8,0:0:0:0:
88,299,89059,5,8,0:0:0:0:
169,177,89226,1,8,0:0:0:0:
138,336,89392,1,8,0:0:0:0:
115,103,89559,1,8,0:0:0:0:
185,362,89726,6,0,P|272:360|328:316,1,135,4|0,0:0|0:0,0:0:0:0:
329,298,90059,2,0,P|389:281|480:302,1,135,0|0,0:0|0:0,0:0:0:0:
505,294,90392,2,0,P|540:251|466:127,1,180,0|0,0:0|0:0,0:0:0:0:
135,59,91059,5,0,0:0:0:0:
34,207,91226,1,0,0:0:0:0:
111,339,91392,1,8,0:0:0:0:
140,340,91475,1,8,0:0:0:0:
170,339,91558,1,8,0:0:0:0:
200,337,91641,1,8,0:0:0:0:
230,330,91725,1,8,3:0:0:0:
257,318,91808,1,8,3:0:0:0:
280,298,91891,1,8,3:0:0:0:
299,276,91975,1,8,3:0:0:0:
321,256,92058,1,8,3:0:0:0:
348,243,92141,1,8,3:0:0:0:
377,235,92225,1,8,3:0:0:0:
407,232,92308,1,0,3:0:0:0:
436,231,92392,6,0,P|480:190|433:102,1,135,0|0,0:0|0:0,0:0:0:0:
442,97,92726,2,0,L|393:62,5,45,12|8|8|8|8|8,3:0|3:0|3:0|3:0|3:0|3:0,0:0:0:0:
272,139,93226,2,0,L|307:90,5,45,12|8|8|8|8|8,3:0|3:0|3:0|3:0|3:0|3:0,0:0:0:0:
220,26,93726,2,0,L|169:37,1,45,12|8,3:0|3:0,0:0:0:0:
26,66,93892,1,8,3:0:0:0:
113,148,94059,5,8,0:0:0:0:
222,68,94226,1,8,0:0:0:0:
293,183,94392,1,8,0:0:0:0:
184,262,94559,1,8,0:0:0:0:
341,296,94726,5,8,0:0:0:0:
215,334,94892,1,0,0:0:0:0:
376,365,95059,1,8,0:0:0:0:
221,251,95226,1,0,0:0:0:0:
349,249,95392,2,0,P|413:269|445:314,1,90,4|0,0:0|0:0,0:0:0:0:
322,362,95726,2,0,B|210:368|260:309|142:320,1,180,8|0,0:0|0:0,0:0:0:0:
26,348,96226,1,0,0:0:0:0:
32,229,96392,2,0,B|26:117|85:167|74:49,1,180,8|0,0:0|0:0,0:0:0:0:
0,12,96892,5,0,0:0:0:0:
0,125,97059,1,8,0:0:0:0:
111,208,97226,2,0,P|169:198|175:81,1,180,4|0,0:0|0:0,0:0:0:0:
112,127,97726,1,8,0:0:0:0:
279,85,97892,2,0,P|353:74|472:121,1,180,4|0,0:0|0:0,0:0:0:0:
472,278,98392,2,0,P|441:194|451:105,1,180,8|0,0:0|0:0,0:0:0:0:
460,19,98892,1,0,0:0:0:0:
371,171,99059,2,0,P|299:171|193:108,1,180,8|0,0:0|0:0,0:0:0:0:
103,22,99559,5,0,0:0:0:0:
15,124,99725,1,8,0:0:0:0:
17,267,99892,2,0,P|20:325|34:372,1,90,0|0,0:0|0:0,0:0:0:0:
99,243,100226,2,0,P|96:185|82:138,1,90,0|8,0:0|0:0,0:0:0:0:
29,47,100559,2,0,P|84:13|193:67,1,180,4|0,0:0|0:0,0:0:0:0:
257,161,101059,2,0,P|333:202|412:166,1,180,12|0,0:0|0:0,0:0:0:0:
466,44,101559,5,0,0:0:0:0:
417,167,101726,1,8,0:0:0:0:
484,265,101892,2,0,P|474:328|357:326,1,180,4|0,0:0|0:0,0:0:0:0:
271,260,102392,2,0,P|186:258|159:338,1,180,12|0,0:0|0:0,0:0:0:0:
288,361,102892,5,0,0:0:0:0:
364,266,103059,1,8,0:0:0:0:
279,179,103226,1,0,0:0:0:0:
355,62,103392,2,0,L|430:55,2,45,8|8|8,3:0|3:0|3:0,0:0:0:0:
192,81,103726,1,8,3:0:0:0:
454,114,103892,2,0,L|498:118,2,45,8|8|8,3:0|3:0|3:0,0:0:0:0:
120,72,104226,1,8,3:0:0:0:
107,318,104392,5,12,0:3:0:0:
211,8,104559,1,4,0:0:0:0:
273,209,104726,5,0,0:0:0:0:
313,219,104809,1,0,0:0:0:0:
353,206,104892,1,0,0:0:0:0:
378,172,104975,1,0,0:0:0:0:
380,130,105059,1,0,0:0:0:0:
358,94,105142,1,0,0:0:0:0:
320,77,105225,1,0,0:0:0:0:
279,84,105309,1,0,0:0:0:0:
240,109,105392,6,0,L|202:120,6,22.5,0|0|0|0|0|0|0,0:0|0:0|0:0|0:0|0:0|0:0|0:0,0:0:0:0:
267,137,105726,2,0,P|284:212|137:239,1,229.500004377365,4|0,0:0|0:0,0:0:0:0:
82,210,106059,6,0,B|55:243|87:279|47:311|47:311|91:327|87:371,1,188.999994232178,12|0,0:0|0:0,0:0:0:0:
178,343,106392,6,0,B|222:339|238:383|238:383|270:343|306:375|339:348,1,188.999994232178,8|0,0:0|0:0,0:0:0:0:
444,285,106726,6,0,B|400:289|384:245|384:245|352:285|316:253|282:279,1,188.999994232178,0|0,0:0|0:0,0:0:0:0:
241,291,107059,1,8,0:0:0:0:
155,105,107226,1,0,0:0:0:0:
45,222,107392,6,0,P|40:289|68:355,1,125.999996154785,0|0,0:0|0:0,0:0:0:0:
92,371,107642,1,0,0:0:0:0:
92,371,107726,2,0,L|249:370,1,125.999996154785,8|0,0:0|0:0,0:0:0:0:
379,365,108059,1,0,0:0:0:0:
188,259,108226,1,4,0:0:0:0:
403,148,108392,2,0,P|430:217|279:256,1,251.999992309571,12|0,0:0|0:0,0:0:0:0:
194,172,108892,2,0,P|124:160|50:191,1,125.999996154785,0|8,0:0|0:0,0:0:0:0:
80,305,109226,5,0,0:0:0:0:
8,118,109392,1,0,0:0:0:0:
2,230,109559,1,0,0:0:0:0:
59,14,109726,1,8,0:0:0:0:
105,183,109892,1,0,0:0:0:0:
201,46,110059,6,0,P|278:16|357:41,1,125.999996154785,0|0,0:0|0:0,0:0:0:0:
359,40,110309,1,8,0:0:0:0:
359,40,110392,1,8,0:0:0:0:
411,232,110559,6,0,L|418:155,1,62.9999980773926,8|8,0:0|0:0,0:0:0:0:
475,23,110726,2,0,P|501:95|494:190,1,125.999996154785,12|0,0:0|0:0,0:0:0:0:
470,298,111059,2,0,P|399:334|321:325,1,125.999996154785,12|0,0:0|0:0,0:0:0:0:
156,248,111392,6,0,P|108:308|228:336,1,251.999992309571,0|8,0:0|0:0,0:0:0:0:
132,156,111892,1,0,0:0:0:0:
268,148,112058,6,0,P|316:88|196:60,1,251.999992309571,0|8,0:0|0:0,0:0:0:0:
292,240,112558,1,0,0:0:0:0:
392,128,112726,6,0,P|452:80|480:200,1,251.999992309571,0|8,0:0|0:0,0:0:0:0:
300,104,113226,1,0,0:0:0:0:
292,240,113392,6,0,P|232:288|204:168,1,251.999992309571,0|8,0:0|0:0,0:0:0:0:
384,264,113892,1,0,0:0:0:0:
497,12,114059,5,8,0:0:0:0:
390,170,114226,1,0,0:0:0:0:
199,12,114392,5,8,0:0:0:0:
306,170,114559,1,0,0:0:0:0:
122,9,114726,5,8,0:0:0:0:
15,167,114893,1,0,0:0:0:0:
107,356,115059,2,0,L|108:283,1,62.9999980773926,8|8,0:0|0:0,0:0:0:0:
113,139,115226,2,0,P|167:93|308:196,2,251.999992309571,8|8|8,0:0|0:0|0:0,0:0:0:0:
194,323,116226,5,8,0:0:0:0:
0,200,116392,1,8,0:0:0:0:
182,70,116559,1,8,0:0:0:0:
101,287,116726,2,0,P|115:203|17:128,1,188.999994232178,8|0,0:0|0:0,0:0:0:0:
0,131,117059,2,0,B|2:34|2:34|92:6,1,188.999994232178,12|0,0:0|0:0,0:0:0:0:
113,27,117392,2,0,P|185:35|311:6,1,188.999994232178,0|0,0:0|0:0,0:0:0:0:
336,15,117726,1,8,0:0:0:0:
429,165,117892,1,0,0:0:0:0:
422,355,118059,6,0,P|476:290|500:184,2,188.999994232178,8|12|12,0:0|0:0|0:0,0:0:0:0:
288,371,118726,2,0,P|216:356|170:307,1,125.999996154785,12|8,0:0|3:0,0:0:0:0:
94,255,119059,2,0,L|107:184,1,62.9999980773926,8|8,3:0|3:0,0:0:0:0:
53,88,119226,2,0,L|104:42,1,62.9999980773926,8|8,3:0|3:0,0:0:0:0:
249,11,119392,5,8,0:0:0:0:
392,149,119559,1,0,0:0:0:0:
225,187,119726,5,8,0:0:0:0:
366,37,119892,1,0,0:0:0:0:
353,252,120059,5,8,0:0:0:0:
282,91,120226,1,0,0:0:0:0:
187,274,120392,5,8,0:0:0:0:
350,150,120559,1,0,0:0:0:0:
116,138,120726,5,8,0:0:0:0:
353,252,120892,1,0,0:0:0:0:
54,303,121059,5,8,0:0:0:0:
258,191,121226,1,0,0:0:0:0:
145,365,121392,6,0,L|184:301,1,62.9999980773926,8|8,3:0|3:0,0:0:0:0:
324,316,121559,2,0,L|305:243,1,62.9999980773926,8|8,3:0|3:0,0:0:0:0:
373,105,121726,2,0,P|315:64|184:111,1,188.999994232178,8|0,0:0|0:0,0:0:0:0:
184,119,122059,2,0,P|177:193|177:255,1,125.999996154785,12|0,0:0|0:0,0:0:0:0:
234,373,122392,1,0,0:0:0:0:
325,278,122559,2,0,P|399:258|507:382,1,251.999992309571,12|0,0:0|0:0,0:0:0:0:
403,363,123059,5,0,0:0:0:0:
490,205,123226,1,0,0:0:0:0:
402,58,123392,2,0,P|329:28|263:27,1,125.999996154785,12|0,0:0|0:0,0:0:0:0:
135,123,123726,1,0,0:0:0:0:
156,224,123892,2,0,P|217:190|164:27,1,251.999992309571,12|0,0:0|0:0,0:0:0:0:
15,152,124392,5,8,0:0:0:0:
90,314,124559,1,0,0:0:0:0:
254,265,124726,5,8,0:0:0:0:
284,240,124809,1,8,0:0:0:0:
320,225,124892,1,8,0:0:0:0:
359,221,124975,1,8,0:0:0:0:
399,221,125059,1,8,0:0:0:0:
436,211,125142,1,8,0:0:0:0:
463,183,125225,1,8,0:0:0:0:
478,146,125309,1,8,0:0:0:0:
483,107,125392,2,0,L|484:30,3,62.9999980773926,8|8|8|8,0:0|0:0|0:0|0:0,0:0:0:0:
351,137,125726,2,0,L|405:81,3,62.9999980773926,8|8|8|8,0:0|0:0|0:0|0:0,0:0:0:0:
282,59,126059,6,0,P|211:52|88:128,1,188.999994232178,8|0,0:0|0:0,0:0:0:0:
123,294,126392,2,0,L|99:175,1,99.0000030212403,8|0,0:0|0:0,0:0:0:0:
27,46,126559,2,0,P|9:130|43:260,1,202.500007724762,8|0,0:0|0:0,0:0:0:0:
21,288,126892,1,8,0:0:0:0:
194,238,127059,2,0,P|272:235|376:275,1,135.000005149842,4|0,0:0|0:0,0:0:0:0:
459,356,127392,6,0,P|495:296|489:209,1,135,12|0,0:0|0:0,0:0:0:0:
468,213,127726,2,0,P|457:148|492:32,1,180,8|0,0:0|0:0,0:0:0:0:
354,34,128226,5,0,0:0:0:0:
228,122,128392,1,8,0:0:0:0:
381,205,128559,2,0,P|352:277|241:283,1,180,4|0,0:0|0:0,0:0:0:0:
147,175,129059,1,8,0:0:0:0:
20,343,129226,2,0,P|79:355|137:244,1,180,4|0,0:0|0:0,0:0:0:0:
59,146,129726,6,0,P|91:95|197:100,1,135,8|0,0:0|0:0,0:0:0:0:
204,98,130059,2,0,P|237:119|338:118,1,135,8|0,0:0|0:0,0:0:0:0:
374,105,130392,6,0,B|400:153|400:153|373:281,1,180,12|0,0:0|0:0,0:0:0:0:
281,352,130892,1,0,0:0:0:0:
468,253,131059,1,8,0:0:0:0:
281,233,131226,2,0,P|226:228|90:257,1,180,4|0,0:0|0:0,0:0:0:0:
196,319,131726,1,8,0:0:0:0:
193,150,131892,2,0,B|187:84|156:25|156:25|100:64,1,180,4|0,0:0|0:0,0:0:0:0:
101,167,132392,5,8,0:0:0:0:
281,59,132559,1,8,0:0:0:0:
281,59,132642,1,8,0:0:0:0:
281,59,132726,1,4,0:0:0:0:
409,150,132892,1,0,0:0:0:0:
261,211,133059,1,8,0:0:0:0:
375,48,133226,1,0,0:0:0:0:
374,248,133392,2,0,P|373:299|354:360,1,90,0|0,0:0|0:0,0:0:0:0:
242,339,133726,5,8,0:0:0:0:
452,282,133892,2,0,P|457:232|331:173,1,180,4|0,0:0|0:0,0:0:0:0:
238,248,134392,1,8,0:0:0:0:
97,169,134559,2,0,P|91:119|217:60,1,180,4|0,0:0|0:0,0:0:0:0:
180,152,135059,2,0,B|152:214|181:221|140:297,1,135,8|0,0:0|0:0,0:0:0:0:
137,327,135392,6,0,P|203:338|336:306,1,180,4|8,0:0|0:0,0:0:0:0:
311,174,135892,2,0,P|299:131|297:45,1,90,0|0,0:0|0:0,0:0:0:0:
410,13,136226,1,0,0:0:0:0:
213,49,136392,1,8,0:0:0:0:
199,245,136559,2,0,P|147:253|141:145,1,180,4|0,0:0|0:0,0:0:0:0:
312,206,137059,1,12,0:0:0:0:
180,355,137226,5,0,0:0:0:0:
65,261,137392,1,0,0:0:0:0:
59,227,137475,1,8,3:0:0:0:
53,194,137558,1,8,3:0:0:0:
47,161,137642,1,8,3:0:0:0:
41,127,137726,6,0,P|49:74|123:46,1,135,4|0,0:0|0:0,0:0:0:0:
160,57,138059,6,0,P|215:66|302:35,1,135,8|0,0:0|0:0,0:0:0:0:
343,31,138392,6,0,P|397:38|430:94,1,90,8|0,0:0|0:0,0:0:0:0:
343,158,138726,1,8,0:0:0:0:
486,199,138892,1,8,0:0:0:0:
486,199,138976,1,8,0:0:0:0:
486,199,139059,1,8,0:0:0:0:
231,138,139226,6,0,P|206:178|242:314,1,180,4|0,0:0|0:0,0:0:0:0:
380,359,139726,1,8,0:0:0:0:
458,265,139892,2,0,L|456:73,1,180,4|0,0:0|0:0,0:0:0:0:
321,164,140392,6,0,P|264:167|216:159,1,90,8|0,0:0|0:0,0:0:0:0:
83,127,140726,1,8,0:0:0:0:
37,114,141059,5,8,0:0:0:0:
82,338,141226,1,0,0:0:0:0:
118,213,141392,1,0,0:0:0:0:
99,360,141559,1,0,0:0:0:0:
107,189,141725,1,0,0:0:0:0:
222,319,141892,6,0,P|282:325|305:211,1,180,4|8,0:0|0:0,0:0:0:0:
196,138,142392,1,8,0:0:0:0:
51,259,142559,2,0,L|-13:271,2,45,0|0|0,0:0|0:0|0:0,0:0:0:0:
193,248,142892,1,0,0:0:0:0:
350,131,143059,6,0,L|439:113,2,60,0|0|0,0:0|0:0|0:0,0:0:0:0:
300,286,143392,6,0,P|349:303|400:291,1,90,0|0,0:0|0:0,0:0:0:0:
447,195,143726,1,8,0:0:0:0:
292,50,143892,1,0,0:0:0:0:
224,210,144059,1,8,0:0:0:0:
343,143,144226,1,0,0:0:0:0:
133,116,144392,1,8,0:0:0:0:
199,332,144559,2,0,P|255:347|328:243,1,180,4|0,0:0|0:0,0:0:0:0:
204,57,145059,5,8,0:0:0:0:
243,244,145226,1,0,0:0:0:0:
322,9,145392,5,8,0:0:0:0:
194,168,145559,1,0,0:0:0:0:
443,202,145726,6,0,P|392:150|310:121,1,135,8|0,0:0|0:0,0:0:0:0:
283,123,146059,1,12,0:0:0:0:
120,245,146226,1,0,0:0:0:0:
226,25,146392,1,8,0:0:0:0:
287,251,146559,5,8,0:0:0:0:
305,294,146892,5,8,0:0:0:0:
322,334,147226,6,0,P|367:356|454:300,1,135,12|0,0:0|0:0,0:0:0:0:
470,134,147559,5,8,0:0:0:0:
447,292,147726,1,8,0:0:0:0:
348,92,147892,5,8,0:0:0:0:
480,218,148059,1,8,0:0:0:0:
187,225,148226,5,8,0:0:0:0:
408,169,148392,1,8,0:0:0:0:
192,15,148559,5,8,0:0:0:0:
283,304,148726,2,0,P|220:344|244:117,1,547.199993320313,4|0,0:0|0:0,0:0:0:0:
290,130,160726,6,0,L|372:106,2,60,8|8|8,3:0|3:0|3:0,0:0:0:0:
202,194,161059,2,0,L|120:170,2,60,8|8|8,3:0|3:0|3:0,0:0:0:0:
307,262,161392,2,0,L|389:238,2,60,8|8|8,3:0|3:0|3:0,0:0:0:0:
219,326,161725,2,0,L|137:302,2,60,8|8|8,3:0|3:0|3:0,0:0:0:0:
404,340,162059,6,0,P|438:293|431:195,1,135.000005149842,12|0,0:3|0:0,0:0:0:0:
390,0,162726,2,0,P|336:21|290:108,1,135.000005149842,8|0,0:0|0:0,0:0:0:0:
274,223,163226,2,0,P|327:201|373:114,1,135.000005149842,0|8,0:0|0:0,0:0:0:0:
216,68,163726,2,0,P|158:64|107:84,1,101.250003862381,0|0,0:0|0:0,0:0:0:0:
78,93,164059,2,0,L|98:248,1,135.000005149842,8|0,0:0|0:0,0:0:0:0:
362,282,164726,6,0,P|290:322|224:304,1,135.000005149842,0|0,0:0|0:0,0:0:0:0:
208,127,165392,2,0,P|213:72|258:-11,1,135.000005149842,8|0,0:0|0:0,0:0:0:0:
291,119,165892,2,0,P|286:174|241:257,1,135.000005149842,0|8,0:0|0:0,0:0:0:0:
150,289,166392,2,0,P|99:284|67:270,1,67.5000025749208,0|0,0:0|0:0,0:0:0:0:
82,203,166726,1,8,0:0:0:0:
148,365,166892,1,0,0:0:0:0:
251,244,167059,1,0,0:0:0:0:
312,355,167226,2,0,P|360:365|424:297,1,135.000005149842,8|8,0:0|0:0,0:0:0:0:
406,48,168059,6,0,P|360:31|264:70,1,135.000005149842,8|8,0:0|0:0,0:0:0:0:
280,193,168559,1,8,0:0:0:0:
98,78,168892,5,8,0:0:0:0:
98,78,169059,1,8,0:0:0:0:
121,300,169392,5,8,0:0:0:0:
85,208,169559,2,0,P|130:199|222:312,1,202.500007724762,0|8,0:0|0:0,0:0:0:0:
346,115,170559,5,8,0:0:0:0:
346,115,170726,1,8,0:0:0:0:
321,337,171059,5,8,0:0:0:0:
274,220,171226,1,8,0:0:0:0:
61,334,171559,6,0,P|114:302|221:351,1,180,8|8,0:0|0:0,0:0:0:0:
63,187,172059,1,8,0:0:0:0:
138,379,172226,1,0,0:0:0:0:
218,192,172392,1,8,0:0:0:0:
377,363,172559,2,0,P|407:300|336:212,1,180,4|0,0:0|0:0,0:0:0:0:
214,379,173059,5,8,0:0:0:0:
274,241,173226,1,0,0:0:0:0:
69,167,173392,2,0,P|91:235|123:276,1,90,8|0,0:0|0:0,0:0:0:0:
297,333,173726,5,8,0:0:0:0:
413,63,173892,2,0,P|389:109|345:150,1,90,8|0,0:0|0:0,0:0:0:0:
198,157,174226,2,0,P|150:127|121:85,1,90,8|0,0:0|0:0,0:0:0:0:
222,25,174559,5,8,0:0:0:0:
8,147,174726,1,0,0:0:0:0:
190,291,174892,1,0,0:0:0:0:
115,189,175059,1,8,0:0:0:0:
80,378,175226,1,0,0:0:0:0:
329,279,175392,5,8,0:0:0:0:
210,68,175559,1,0,0:0:0:0:
87,276,175726,1,0,0:0:0:0:
378,175,175892,5,8,0:0:0:0:
144,115,176059,1,0,0:0:0:0:
210,349,176226,1,0,0:0:0:0:
283,32,176392,5,8,0:0:0:0:
223,266,176559,1,0,0:0:0:0:
457,200,176726,1,0,0:0:0:0:
274,107,176892,5,8,0:0:0:0:
334,341,177059,1,0,0:0:0:0:
100,275,177226,1,0,0:0:0:0:
156,15,177392,5,8,0:0:0:0:
200,252,177559,1,0,0:0:0:0:
384,93,177726,1,0,0:0:0:0:
100,136,177892,1,12,0:0:0:0:
338,206,178226,5,8,0:0:0:0:
338,206,178309,1,8,0:0:0:0:
338,206,178392,1,0,0:0:0:0:
168,56,178559,2,0,P|90:40|20:51,1,135.000005149842,12|0,0:0|0:0,0:0:0:0:
258,112,178892,5,0,0:0:0:0:
458,56,179059,2,0,P|472:140|467:200,1,135.000005149842,12|0,0:0|0:0,0:0:0:0:
311,19,179392,1,0,0:0:0:0:
271,369,179559,2,0,P|280:302|272:235,1,135.000005149842,12|0,0:0|0:0,0:0:0:0:
146,14,179892,1,0,0:0:0:0:
64,237,180059,2,0,P|66:311|94:379,1,135.000005149842,12|0,0:0|0:0,0:0:0:0:
424,367,180392,2,0,P|447:304|448:237,1,135.000005149842,12|0,0:0|0:0,0:0:0:0:
272,33,180726,1,12,0:0:0:0:
353,127,181059,5,12,0:0:0:0:
148,83,181226,1,8,0:0:0:0:
231,277,181392,1,8,0:0:0:0:
250,114,181559,1,8,0:0:0:0:
62,209,181726,1,12,0:0:0:0:
275,193,181892,1,8,0:0:0:0:
42,97,182059,5,12,0:0:0:0:
42,97,182142,1,8,0:0:0:0:
42,97,182226,2,0,P|105:114|118:111,1,56.25,8|8,0:0|0:0,0:0:0:0:
328,211,182392,5,12,0:0:0:0:
328,211,182475,1,8,0:0:0:0:
328,211,182559,2,0,P|265:194|247:200,1,67.5000025749208,8|0,0:0|0:0,0:0:0:0:
16,220,182726,6,0,L|80:238,1,67.5000025749208,12|8,0:0|0:0,0:0:0:0:
156,159,182892,2,0,L|220:140,1,67.5000025749208,12|8,0:0|0:0,0:0:0:0:
285,288,183059,2,0,L|349:306,1,67.5000025749208,12|8,0:0|0:0,0:0:0:0:
407,99,183226,2,0,L|471:80,1,67.5000025749208,12|8,0:0|0:0,0:0:0:0:
512,338,183392,1,12,0:0:0:0:
312,74,184726,6,0,P|226:83|178:130,1,135.000005149842,12|0,0:0|0:0,0:0:0:0:
209,153,184976,6,0,P|199:233|123:309,1,135.000005149842,4|0,0:0|0:0,0:0:0:0:
125,302,185226,5,8,0:0:0:0:
317,192,185392,2,0,B|382:197|406:206|485:245,1,135.000005149842,12|0,0:0|0:0,0:0:0:0:
318,361,185726,2,0,P|281:333|264:273,1,101.250003862381,2|0,0:0|0:0,0:0:0:0:
254,248,186059,6,0,P|219:177|190:150,1,90,8|0,0:0|0:0,0:0:0:0:
92,74,186392,1,8,0:0:0:0:
35,190,186559,1,8,0:0:0:0:
125,191,186726,1,8,0:0:0:0:
6,112,186892,1,8,0:0:0:0:
68,269,187059,1,8,0:0:0:0:
158,109,187226,1,8,0:0:0:0:
186,303,187392,5,8,0:0:0:0:
175,189,187559,1,8,0:0:0:0:
218,199,187642,1,8,0:0:0:0:
257,221,187725,1,8,0:0:0:0:
292,250,187809,1,8,0:0:0:0:
330,273,187892,1,8,0:0:0:0:
374,281,187975,1,8,0:0:0:0:
419,277,188059,6,0,P|461:234|452:130,1,135,8|0,0:0|0:0,0:0:0:0:
448,121,188392,2,0,P|388:140|299:118,1,135,0|0,0:0|0:0,0:0:0:0:
309,89,188726,6,0,P|262:67|137:97,1,180,4|8,0:0|0:0,0:0:0:0:
241,208,189226,1,0,0:0:0:0:
109,351,189392,6,0,P|93:297|128:169,1,180,0|8,0:0|0:0,0:0:0:0:
213,13,189892,1,0,0:0:0:0:
320,129,190059,6,0,P|390:154|501:113,1,180,0|8,0:0|0:0,0:0:0:0:
404,51,190559,1,0,0:0:0:0:
318,248,190726,6,0,P|316:307|437:326,1,180,0|8,0:0|0:0,0:0:0:0:
454,201,191226,1,0,0:0:0:0:
237,328,191392,5,8,0:0:0:0:
369,130,191559,1,0,0:0:0:0:
132,194,191726,5,8,0:0:0:0:
362,226,191892,1,8,0:0:0:0:
362,226,191976,1,8,0:0:0:0:
362,226,192059,1,8,0:0:0:0:
199,33,192226,5,8,0:0:0:0:
239,254,192393,1,8,0:0:0:0:
21,157,192559,6,0,P|115:112|201:182,1,188.999994232178,12|0,0:0|0:0,0:0:0:0:
163,298,192892,6,0,P|216:339|328:255,1,188.999994232178,12|0,0:0|0:0,0:0:0:0:
297,158,193226,6,0,L|485:275,1,188.999994232178,12|0,0:0|0:0,0:0:0:0:
449,353,193559,5,8,0:0:0:0:
217,234,193726,1,8,0:0:0:0:
336,2,193892,1,8,0:0:0:0:
134,192,194059,6,0,P|121:176|118:163,1,27,8|0,0:0|0:0,0:0:0:0:
104,145,194392,6,0,B|133:86|124:39|124:39|212:17,1,188.999994232178,12|0,0:0|0:0,0:0:0:0:
237,44,194726,6,0,P|302:64|373:57,1,125.999996154785,8|0,0:0|0:0,0:0:0:0:
495,9,195059,1,12,0:0:0:0:
362,168,195226,1,0,0:0:0:0:
504,173,195392,6,0,P|495:242|432:302,1,125.999996154785,12|0,0:0|0:0,0:0:0:0:
415,384,195642,6,0,P|378:333|372:271,1,125.999996154785,12|0,0:0|0:0,0:0:0:0:
362,168,195892,6,0,P|353:99|290:39,1,125.999996154785,12|12,0:0|0:0,0:0:0:0:
130,32,196226,5,8,0:0:0:0:
137,73,196309,1,8,0:0:0:0:
138,115,196392,1,8,0:0:0:0:
130,156,196476,1,8,0:0:0:0:
120,197,196559,1,8,0:0:0:0:
121,239,196642,1,8,0:0:0:0:
132,279,196726,2,0,P|210:317|267:267,1,125.999996154785,12|0,0:0|0:0,0:0:0:0:
366,76,197059,5,12,0:0:0:0:
392,250,197226,1,0,0:0:0:0:
275,137,197392,5,0,0:0:0:0:
327,328,197559,1,0,0:0:0:0:
75,362,197726,5,8,0:0:0:0:
234,234,197892,1,8,0:0:0:0:
234,234,197976,1,8,0:0:0:0:
234,234,198059,1,8,0:0:0:0:
28,250,198226,1,8,0:0:0:0:
108,75,198392,2,0,L|180:86,1,62.9999980773926,8|0,0:0|0:0,0:0:0:0:
292,106,198559,5,8,3:0:0:0:
338,120,198642,1,8,3:0:0:0:
375,152,198725,1,8,3:0:0:0:
398,194,198809,1,8,3:0:0:0:
404,243,198892,1,8,3:0:0:0:
390,290,198975,1,8,3:0:0:0:
361,328,199059,1,8,3:0:0:0:
319,353,199142,1,8,3:0:0:0:
270,360,199225,1,8,3:0:0:0:
223,348,199309,1,8,3:0:0:0:
190,315,199392,6,0,P|172:253|320:215,1,251.999992309571,4|0,0:0|0:0,0:0:0:0:
95,202,199892,2,0,P|182:151|315:210,1,251.999992309571,4|0,0:0|0:0,0:0:0:0:
351,321,200392,6,0,P|388:240|383:165,1,125.999996154785,8|0,0:0|0:0,0:0:0:0:
370,26,200726,1,4,0:0:0:0:
187,126,200892,1,8,0:0:0:0:
187,126,200976,1,8,0:0:0:0:
187,126,201059,1,8,0:0:0:0:
238,14,201226,2,0,P|290:57|242:230,1,251.999992309571,4|8,0:0|0:0,0:0:0:0:
57,315,201726,2,0,P|102:257|174:238,1,125.999996154785,8|0,0:0|0:0,0:0:0:0:
402,196,202059,5,8,0:0:0:0:
155,133,202226,1,0,0:0:0:0:
483,91,202392,5,8,0:0:0:0:
254,171,202559,1,0,0:0:0:0:
499,316,202726,5,8,0:0:0:0:
318,101,202892,1,0,0:0:0:0:
259,358,203059,5,8,0:0:0:0:
415,170,203226,2,0,P|429:107|267:8,1,251.999992309571,12|8,0:0|0:0,0:0:0:0:
265,10,203642,5,8,0:0:0:0:
265,10,203726,1,8,0:0:0:0:
164,83,203892,1,8,0:0:0:0:
259,156,204059,1,8,0:0:0:0:
128,211,204226,1,8,0:0:0:0:
241,321,204392,2,0,P|314:319|404:231,1,188.999994232178,12|0,0:0|0:0,0:0:0:0:
415,214,204726,5,0,0:0:0:0:
245,236,204892,1,0,0:0:0:0:
308,51,205059,2,0,P|376:30|453:58,1,125.999996154785,12|0,0:0|0:0,0:0:0:0:
358,347,205392,5,0,0:0:0:0:
318,153,205559,1,0,0:0:0:0:
212,320,205726,2,0,P|139:331|86:291,1,125.999996154785,12|0,0:0|0:0,0:0:0:0:
222,111,206059,5,0,0:0:0:0:
12,141,206226,1,0,0:0:0:0:
168,232,206392,2,0,P|241:238|305:220,1,125.999996154785,12|0,0:0|0:0,0:0:0:0:
121,61,206726,5,0,0:0:0:0:
126,336,206892,1,0,0:0:0:0:
242,67,207059,2,0,P|308:45|363:46,1,125.999996154785,12|0,0:0|0:0,0:0:0:0:
320,140,207392,5,8,0:0:0:0:
352,308,207559,1,0,0:0:0:0:
191,140,207726,5,4,0:0:0:0:
159,308,207893,1,0,0:0:0:0:
327,131,208059,5,8,0:0:0:0:
362,316,208226,1,0,0:0:0:0:
184,131,208393,5,4,0:0:0:0:
148,316,208560,1,0,0:0:0:0:
334,121,208726,5,8,0:0:0:0:
372,326,208893,1,0,0:0:0:0:
176,121,209060,5,4,0:0:0:0:
138,326,209227,1,0,0:0:0:0:
341,112,209392,5,8,0:0:0:0:
384,336,209559,1,0,0:0:0:0:
169,112,209726,5,4,0:0:0:0:
126,336,209893,1,0,0:0:0:0:
412,221,210059,6,0,P|352:176|323:176,3,62.9999980773926,12|8|8|8,3:0|3:0|3:0|3:0,0:0:0:0:
386,102,210392,2,0,P|312:112|291:132,3,62.9999980773926,12|8|8|8,3:0|3:0|3:0|3:0,0:0:0:0:
285,36,210726,2,0,P|240:96|240:125,3,62.9999980773926,12|8|8|8,3:0|3:0|3:0|3:0,0:0:0:0:
166,61,211059,2,0,P|176:135|196:156,3,62.9999980773926,12|8|8|8,3:0|3:0|3:0|3:0,0:0:0:0:
100,163,211392,2,0,P|160:208|189:208,3,62.9999980773926,12|8|8|8,3:0|3:0|3:0|3:0,0:0:0:0:
125,281,211725,2,0,P|199:271|220:251,3,62.9999980773926,12|8|8|8,3:0|3:0|3:0|3:0,0:0:0:0:
227,348,212059,2,0,P|272:288|272:259,3,62.9999980773926,12|8|8|8,3:0|3:0|3:0|3:0,0:0:0:0:
345,322,212392,2,0,P|335:248|315:227,3,62.9999980773926,12|8|8|8,3:0|3:0|3:0|3:0,0:0:0:0:
88,204,212726,6,0,P|162:183|251:94,1,188.999994232178,4|0,0:0|0:0,0:0:0:0:
261,80,213059,5,8,0:0:0:0:
292,61,213142,1,8,0:0:0:0:
328,55,213225,1,8,0:0:0:0:
364,62,213309,1,8,0:0:0:0:
395,81,213392,1,8,0:0:0:0:
418,110,213475,1,8,0:0:0:0:
429,145,213559,1,8,0:0:0:0:
428,181,213642,1,8,0:0:0:0:
413,215,213725,1,8,3:0:0:0:
388,242,213809,1,8,3:0:0:0:
356,258,213892,1,8,3:0:0:0:
319,262,213975,1,8,3:0:0:0:
287,254,214059,6,0,L|282:197,1,31.4999990386963,0|0,0:0|0:0,0:0:0:0:
257,241,214142,2,0,L|249:192,1,31.4999990386963,0|0,0:0|0:0,0:0:0:0:
235,221,214225,2,0,L|227:177,1,31.4999990386963,0|0,0:0|0:0,0:0:0:0:
216,193,214309,2,0,L|197:160,1,31.4999990386963,0|0,0:0|0:0,0:0:0:0:
193,166,214392,2,0,L|153:152,1,31.4999990386963,0|0,0:0|0:0,0:0:0:0:
160,141,214475,2,0,L|129:151,1,31.4999990386963,0|0,0:0|0:0,0:0:0:0:
123,127,214559,2,0,L|99:154,1,31.4999990386963,0|0,0:0|0:0,0:0:0:0:
85,124,214642,2,0,L|69:162,1,31.4999990386963,0|0,0:0|0:0,0:0:0:0:
40,139,214726,6,0,P|39:202|151:225,1,188.999994232178,4|0,0:0|0:0,0:0:0:0:
162,234,215059,6,0,L|215:346,1,123.750001180172,12|0,0:0|0:0,0:0:0:0:
398,310,215726,6,0,L|393:273,1,33.75,8|0,0:0|0:0,0:0:0:0:
386,242,216059,5,4,0:0:0:0:
273,145,216226,1,0,0:0:0:0:
252,299,216392,1,8,0:0:0:0:
368,140,216559,5,0,0:0:0:0:
207,217,216726,1,0,0:0:0:0:
359,327,216892,1,0,0:0:0:0:
443,183,217059,5,8,0:0:0:0:
256,104,217226,1,0,0:0:0:0:
277,286,217392,1,0,0:0:0:0:
364,114,217559,5,0,0:0:0:0:
193,225,217726,2,0,P|118:229|42:191,1,125.999996154785,8|0,0:0|0:0,0:0:0:0:
139,25,218059,2,0,P|150:76|144:157,1,125.999996154785,0|0,0:0|0:0,0:0:0:0:
137,335,218392,5,8,0:0:0:0:
181,348,218475,1,0,0:0:0:0:
229,348,218558,1,0,0:0:0:0:
273,334,218642,1,0,0:0:0:0:
312,306,218726,2,0,P|368:270|485:324,1,188.999994232178,0|0,0:0|0:0,0:0:0:0:
488,357,219059,5,8,0:0:0:0:
366,189,219226,2,0,P|313:153|242:142,1,125.999996154785,0|0,0:0|0:0,0:0:0:0:
129,243,219559,1,0,0:0:0:0:
346,366,219726,2,0,P|325:298|272:256,1,125.999996154785,8|0,0:0|0:0,0:0:0:0:
192,327,220059,2,0,B|172:355|172:355|217:370|293:330,1,125.999996154785,0|0,0:0|0:0,0:0:0:0:
395,230,220392,1,8,0:0:0:0:
265,45,220559,2,0,P|263:116|296:181,1,125.999996154785,0|0,0:0|0:0,0:0:0:0:
469,147,220892,6,0,L|371:134,1,62.9999980773926,4|0,0:0|0:0,0:0:0:0:
134,175,221059,2,0,L|232:188,1,62.9999980773926,4|0,0:0|0:0,0:0:0:0:
395,230,221226,1,8,0:0:0:0:
420,238,221309,1,8,0:0:0:0:
445,248,221392,6,0,B|478:262|478:262|455:330|329:323,1,180,8|8,0:0|0:0,0:0:0:0:
187,321,221892,2,0,P|161:257|183:137,1,180,0|0,0:0|0:0,0:0:0:0:
248,46,222392,2,0,P|312:20|432:42,1,180,8|0,0:0|0:0,0:0:0:0:
293,281,222892,5,0,0:0:0:0:
342,95,223059,1,8,0:0:0:0:
237,223,223226,1,0,0:0:0:0:
425,207,223392,1,0,0:0:0:0:
169,261,223559,1,0,0:0:0:0:
318,169,223726,1,8,0:0:0:0:
337,361,223892,1,0,0:0:0:0:
226,150,224059,5,8,0:0:0:0:
197,367,224226,1,0,0:0:0:0:
69,177,224392,1,12,0:0:0:0:
283,205,224559,5,0,0:0:0:0:
31,254,224726,1,8,0:0:0:0:
292,341,224892,1,0,0:0:0:0:
147,121,225059,1,12,0:0:0:0:
95,377,225226,1,0,0:0:0:0:
213,194,225392,6,0,P|237:119|348:80,1,175.499991966248,12|0,0:0|0:0,0:0:0:0:
397,85,225726,6,0,B|474:154|395:197|524:263,1,216,12|0,0:0|0:0,0:0:0:0:
476,327,226059,6,0,P|394:380|247:282,1,256.499993150711,12|0,0:0|0:0,0:0:0:0:
246,177,226392,6,0,P|131:153|92:330,1,297.000009063721,12|0,0:0|0:0,0:0:0:0:
182,356,226726,6,0,L|162:265,1,90,12|8,0:0|0:0,0:0:0:0:
159,239,227642,1,8,0:0:0:0:
159,239,227726,5,12,0:0:0:0:
409,261,227892,1,12,0:0:0:0:
